osu file format v14

[General]
AudioFilename: audio.mp3
AudioLeadIn: 0
PreviewTime: 71259
Countdown: 0
SampleSet: Soft
StackLeniency: 0.4
Mode: 0
LetterboxInBreaks: 0
WidescreenStoryboard: 1

[Editor]
Bookmarks: 26769,71786,94284,105416,139280,161778,178652,206775
DistanceSpacing: 0.6
BeatDivisor: 3
GridSize: 8
TimelineZoom: 1.6

[Metadata]
Title:Ippiki Ookami
TitleUnicode:一匹狼
Artist:Yuki Akira
ArtistUnicode:湯木慧
Creator:Irohas
Version:Collab Normal
Source:
Tags:mugiwarasekai shocko ゆき あきら lone wolf sasanomaly japanese rock jrock
BeatmapID:3224549
BeatmapSetID:1551073

[Difficulty]
HPDrainRate:4
CircleSize:3.7
OverallDifficulty:4
ApproachRate:4.5
SliderMultiplier:1.4
SliderTickRate:1

[Events]
//Background and Video events
0,0,"98263084_p0.jpg",0,0
//Break Periods
2,94484,103733
2,161778,176852
//Storyboard Layer 0 (Background)
//Storyboard Layer 1 (Fail)
//Storyboard Layer 2 (Pass)
//Storyboard Layer 3 (Foreground)
//Storyboard Layer 4 (Overlay)
//Storyboard Sound Samples

[TimingPoints]
1477,702.576112412178,2,2,1,30,1,0
26769,703.399765533411,2,2,1,35,1,0
26769,-100,4,2,1,35,0,0
27003,-100,4,2,2,35,0,0
33158,-100,4,2,2,20,0,0
33334,-100,4,2,2,35,0,0
33392,-100,4,2,2,20,0,0
33568,-100,4,2,2,35,0,0
33627,-100,4,2,2,20,0,0
33802,-100,4,2,2,35,0,0
34565,-100,4,2,2,20,0,0
34740,-100,4,2,2,35,0,0
34799,-100,4,2,2,20,0,0
34975,-100,4,2,2,35,0,0
35033,-100,4,2,2,20,0,0
35209,-100,4,2,2,35,0,0
38023,-100,4,2,3,27,0,0
38726,-100,4,2,2,42,0,0
49277,-100,4,2,2,36,0,0
59916,-100,4,2,2,5,0,0
60532,-100,4,2,10,23,0,0
60766,-100,4,2,3,36,0,0
69676,-100,4,2,3,36,0,0
70379,-100,4,2,3,40,0,0
70731,-100,4,2,3,40,0,0
71083,-100,4,2,1,40,0,0
71786,703.070072650574,2,2,7,50,1,0
71786,-100,4,2,7,50,0,0
71961,-100,4,2,1,40,0,0
82332,-100,4,2,1,40,0,0
82449,-100,4,2,1,5,0,0
82566,-100,4,2,1,50,0,0
82683,-100,4,2,1,5,0,0
82800,-100,4,2,1,40,0,0
82917,-100,4,2,1,5,0,0
83035,-100,4,2,1,50,0,0
83269,-100,4,2,1,40,0,0
92643,-100,4,2,1,50,0,0
92760,-100,4,2,1,40,0,0
92965,-100,4,2,1,5,0,0
94284,-100,4,2,10,40,0,0
94518,-100,4,2,2,30,0,0
104595,-100,4,2,3,25,0,0
104830,-100,4,2,3,30,0,0
105533,-100,4,2,10,30,0,0
105767,-100,4,2,2,27,0,0
115376,-100,4,2,3,37,0,0
116782,-100,4,2,3,33,0,0
117016,-100,4,2,2,33,0,0
122407,-100,4,2,2,37,0,0
123168,-100,4,2,2,20,0,0
123227,-100,4,2,2,33,0,0
123285,-100,4,2,2,20,0,0
123344,-100,4,2,2,33,0,0
123403,-100,4,2,2,20,0,0
123578,-100,4,2,2,37,0,0
126625,-100,4,2,3,55,0,0
127211,-100,4,2,3,55,0,0
127797,-100,4,2,1,55,0,0
127914,-100,4,2,2,35,0,0
128031,-100,4,2,1,50,0,0
128207,-100,4,2,1,45,0,0
128500,-100,4,2,1,45,0,0
137874,-100,4,2,3,55,0,0
138929,-100,4,2,1,55,0,0
139046,-100,4,2,3,55,0,0
139163,-100,4,2,1,55,0,0
139397,-100,4,2,1,45,0,0
149123,-100,4,2,3,55,0,0
150529,-100,4,2,3,55,0,0
150530,-100,4,2,10,35,0,0
150647,-100,4,2,2,45,0,0
150881,-100,4,2,3,45,0,0
150998,-100,4,2,2,45,0,0
156505,-100,4,2,3,45,0,0
156623,-100,4,2,2,45,0,0
156740,-100,4,2,3,45,0,0
156857,-100,4,2,2,45,0,0
158497,-100,4,2,3,45,0,0
158732,-100,4,2,2,45,0,0
159201,-100,4,2,3,50,0,0
159318,-100,4,2,2,45,0,0
159435,-100,4,2,3,50,0,0
159669,-100,4,2,2,45,0,0
160372,-100,4,2,3,55,0,0
160724,-100,4,2,3,35,0,0
160841,-100,4,2,3,55,0,0
161778,-100,4,2,1,17,0,0
178652,-100,4,2,3,20,0,0
180293,-100,4,2,3,24,0,0
181699,-100,4,2,3,30,0,0
182636,-100,4,2,3,36,0,0
182871,-90.9090909090909,4,2,3,50,0,0
183574,-100,4,2,3,30,0,0
184277,-90.9090909090909,4,2,10,50,0,0
184452,-90.9090909090909,4,2,1,50,0,0
194120,-90.9090909090909,4,2,3,60,0,0
194354,-90.9090909090909,4,2,1,50,0,0
194706,-90.9090909090909,4,2,3,60,0,0
195174,-90.9090909090909,4,2,1,50,0,0
195291,-90.9090909090909,4,2,3,60,0,0
195409,-90.9090909090909,4,2,1,50,0,0
195526,-90.9090909090909,4,2,1,50,0,0
195643,-90.9090909090909,4,2,1,50,0,0
205369,-90.9090909090909,4,2,3,50,0,0
205603,-90.9090909090909,4,2,3,30,0,0
205955,-90.9090909090909,4,2,3,50,0,0
206775,-90.9090909090909,4,2,10,30,0,0
206863,-100,4,2,10,5,0,0
218024,-100,4,2,1,35,0,0
218141,-100,4,2,2,35,0,0
229273,-100,4,2,1,35,0,0
229390,-100,4,2,2,35,0,0

[Colours]
Combo1 : 255,244,190
Combo2 : 205,241,226
Combo3 : 255,215,196
Combo4 : 236,217,255

[HitObjects]
6,342,26769,5,4,0:1:0:0:
6,342,27472,2,0,P|60:304|147:315,1,140,0|0,3:0|3:0,0:0:0:0:
204,372,28879,2,0,P|253:363|301:356,1,93.3333333333333,0|8,3:0|0:1,0:0:0:0:
315,376,29582,2,0,P|318:360|343:230,1,140,0|0,3:0|3:0,0:0:0:0:
277,161,30989,6,0,L|221:169,2,46.6666666666667,0|8|8,3:0|0:1|0:1,0:0:0:0:
291,137,31692,2,0,L|393:124,1,93.3333333333333,0|8,3:0|0:1,0:0:0:0:
402,104,32396,1,0,3:0:0:0:
497,124,33099,2,0,B|503:184|464:198|468:275,1,140,0|0,3:0|3:0,0:0:0:0:
512,345,34506,2,0,P|470:372|408:363,1,93.3333333333333,0|8,3:0|0:1,0:0:0:0:
415,346,35209,5,0,3:1:0:0:
318,362,35913,1,0,3:1:0:0:
221,381,36616,1,0,3:0:0:0:
129,346,37319,6,0,P|124:337|122:199,1,140,0|4,3:0|0:1,0:0:0:0:
177,149,38492,1,2,0:3:0:0:
177,149,38726,2,0,P|193:149|280:169,1,93.3333333333333,0|2,3:0|0:3,0:0:0:0:
291,147,39430,2,0,L|396:131,1,93.3333333333333,0|2,3:0|0:3,0:0:0:0:
407,147,40133,1,0,3:0:0:0:
482,209,40602,1,2,0:3:0:0:
488,214,40836,6,0,L|471:320,1,93.3333333333333,0|2,3:0|0:3,0:0:0:0:
483,334,41540,1,0,3:0:0:0:
409,382,42009,1,2,0:3:0:0:
403,384,42243,2,0,P|339:353|265:362,1,140,0|0,3:0|3:0,0:0:0:0:
186,320,43650,6,0,L|79:337,1,93.3333333333333,0|2,3:0|0:3,0:0:0:0:
72,316,44353,2,0,L|92:204,1,93.3333333333333,0|2,3:0|0:3,0:0:0:0:
69,203,45057,1,0,3:0:0:0:
146,171,45526,1,2,0:3:0:0:
153,173,45760,2,0,P|166:174|242:150,1,93.3333333333333,0|2,3:0|0:3,0:0:0:0:
267,139,46464,6,0,L|375:149,1,93.3333333333333,0|2,3:0|0:3,0:0:0:0:
381,130,47167,1,0,3:0:0:0:
456,166,47636,1,2,0:3:0:0:
452,171,47870,2,0,B|446:187|446:187|456:279,1,93.3333333333333,0|4,3:0|0:1,0:0:0:0:
482,259,48574,2,0,B|470:351,1,93.3333333333333,0|4,3:0|0:1,0:0:0:0:
446,367,49277,5,0,3:0:0:0:
358,328,49981,2,0,P|330:324|235:378,1,140,8|0,0:0|3:0,0:0:0:0:
161,343,51153,1,8,0:3:0:0:
155,349,51387,2,0,L|52:362,1,93.3333333333333,8|12,0:0|0:3,0:0:0:0:
42,340,52091,6,0,L|57:234,1,93.3333333333333,0|2,3:0|0:3,0:0:0:0:
47,220,52794,1,8,0:0:0:0:
11,145,53263,1,2,0:3:0:0:
9,138,53498,2,0,L|25:43,1,93.3333333333333,0|8,3:0|0:3,0:0:0:0:
47,29,54201,1,8,0:0:0:0:
131,79,54904,6,0,L|226:65,1,93.3333333333333,0|2,3:0|0:3,0:0:0:0:
246,80,55608,2,0,B|256:112|256:112|246:182,1,93.3333333333333,8|2,0:0|0:3,0:0:0:0:
236,197,56311,1,0,3:0:0:0:
242,280,56780,1,8,0:3:0:0:
237,284,57015,2,0,P|192:278|135:272,1,93.3333333333333,8|8,0:0|0:3,0:0:0:0:
127,251,57718,5,0,3:0:0:0:
92,159,58421,1,8,0:0:0:0:
50,70,59125,2,0,L|62:16,2,46.6666666666667,0|2|8,3:0|0:3|0:3,0:0:0:0:
26,84,59828,1,0,3:0:0:0:
92,159,60532,6,0,P|143:132|232:139,2,140,4|0|0,0:0|3:0|3:0,0:0:0:0:
28,243,62642,2,0,L|44:335,1,93.3333333333333,0|8,3:0|0:0,0:0:0:0:
62,356,63345,1,0,3:0:0:0:
149,311,64049,1,0,3:0:0:0:
231,363,64752,2,0,B|288:364|302:322|365:335,1,140,0|0,3:0|3:0,0:0:0:0:
435,381,65924,5,8,0:0:0:0:
440,377,66159,2,0,P|453:354|444:240,2,140,0|0|0,3:0|3:0|3:0,0:0:0:0:
344,338,68269,2,0,P|313:343|243:355,1,93.3333333333333,0|8,3:0|0:0,0:0:0:0:
225,345,68972,1,0,3:0:0:0:
129,368,69676,1,0,3:0:0:0:
61,296,70379,1,0,3:0:0:0:
58,291,70614,2,0,L|73:228,1,46.6666666666667,8|8,0:1|0:1,0:0:0:0:
94,231,71083,1,8,0:0:0:0:
94,231,71786,6,0,L|115:128,1,93.3333333333333,14|2,3:2|0:1,0:0:0:0:
93,118,72489,1,8,0:0:0:0:
143,37,72957,1,2,0:1:0:0:
149,34,73192,2,0,P|178:37|251:6,1,93.3333333333333,0|2,3:0|0:1,0:0:0:0:
263,28,73895,1,8,0:0:0:0:
364,32,74363,1,2,0:1:0:0:
371,35,74598,6,0,L|433:22,2,46.6666666666667,0|2|2,3:0|0:0|0:1,0:0:0:0:
352,55,75301,2,0,L|367:149,1,93.3333333333333,8|2,0:0|0:1,0:0:0:0:
344,163,76004,2,0,B|308:208|308:208|343:300,1,140,0|8,3:0|0:0,0:0:0:0:
289,373,77410,6,0,P|274:363|198:355,1,93.3333333333333,0|2,3:0|0:1,0:0:0:0:
175,342,78113,1,8,0:0:0:0:
112,267,78582,1,2,0:1:0:0:
109,259,78816,2,0,L|133:150,1,93.3333333333333,0|2,3:0|0:3,0:0:0:0:
111,145,79519,1,8,0:0:0:0:
105,140,79754,2,0,L|58:148,2,46.6666666666667,2|2|0,0:0|0:1|3:0,0:0:0:0:
156,62,80691,5,2,0:1:0:0:
165,60,80925,2,0,L|266:77,1,93.3333333333333,8|2,0:0|0:1,0:0:0:0:
275,54,81628,2,0,P|291:56|370:37,1,93.3333333333333,0|2,3:0|0:1,0:0:0:0:
392,48,82332,1,8,0:0:0:0:
472,103,83035,6,0,L|454:207,1,93.3333333333333,4|2,0:0|0:1,0:0:0:0:
472,217,83738,1,8,0:0:0:0:
401,274,84206,1,2,0:1:0:0:
395,278,84441,2,0,P|385:270|293:252,1,93.3333333333333,0|2,3:0|0:1,0:0:0:0:
287,231,85144,2,0,L|229:239,2,46.6666666666667,8|2|2,0:0|0:0|0:1,0:0:0:0:
302,207,85847,5,0,3:0:0:0:
251,128,86316,1,2,0:1:0:0:
244,125,86550,2,0,P|236:122|141:140,1,93.3333333333333,8|0,0:0|0:0,0:0:0:0:
133,112,87253,2,0,P|132:120|112:203,1,93.3333333333333,0|0,3:0|0:0,0:0:0:0:
102,228,87956,6,0,P|93:229|45:241,2,46.6666666666667,8|2|2,0:0|0:0|0:1,0:0:0:0:
128,236,88659,1,0,3:0:0:0:
218,256,89128,1,0,0:0:0:0:
223,264,89362,2,0,L|205:359,1,93.3333333333333,8|2,0:0|0:1,0:0:0:0:
227,373,90065,2,0,B|291:380|302:333|362:340,1,140,0|8,3:0|0:0,0:0:0:0:
380,359,91003,2,0,L|426:351,1,46.6666666666667,2|2,0:0|0:1,0:0:0:0:
451,363,91471,5,0,3:0:0:0:
511,293,91940,1,2,0:1:0:0:
508,284,92175,1,8,0:0:0:0:
442,211,92643,1,8,0:1:0:0:
449,208,92878,2,0,B|475:123|475:123|473:117|473:117|505:34|505:34|473:71|413:79,1,280,2|4,0:0|0:0,0:0:0:0:
131,339,105533,6,0,L|141:389,2,46.6666666666667,4|2|2,0:0|0:3|0:3,0:0:0:0:
144,313,106236,1,8,0:0:0:0:
212,262,106705,1,8,0:3:0:0:
216,257,106939,2,0,L|206:207,2,46.6666666666667,0|2|8,3:0|0:3|0:3,0:0:0:0:
233,279,107642,2,0,L|334:293,1,93.3333333333333,8|8,0:0|0:3,0:0:0:0:
348,275,108345,5,0,3:0:0:0:
431,326,109048,1,8,0:0:0:0:
498,255,109751,2,0,P|489:233|477:158,1,93.3333333333333,0|8,3:0|0:3,0:0:0:0:
487,138,110454,1,8,0:0:0:0:
458,44,111157,6,0,L|366:58,1,93.3333333333333,0|8,3:0|0:3,0:0:0:0:
340,45,111860,1,8,0:0:0:0:
290,114,112329,1,8,0:3:0:0:
291,113,112564,2,0,L|302:169,2,46.6666666666667,0|0|8,3:0|0:0|0:3,0:0:0:0:
268,96,113267,2,0,L|167:87,1,93.3333333333333,8|8,0:0|0:3,0:0:0:0:
148,78,113970,5,0,3:0:0:0:
67,22,114673,1,8,0:0:0:0:
5,97,115376,2,0,L|16:153,1,46.6666666666667,8|8,0:1|0:1,0:0:0:0:
65,208,116079,2,0,L|54:264,1,46.6666666666667,0|8,3:0|0:1,0:0:0:0:
1,317,116782,6,0,P|12:315|100:346,1,93.3333333333333,4|2,0:0|0:3,0:0:0:0:
109,362,117485,1,8,0:0:0:0:
188,335,117954,1,2,0:3:0:0:
193,331,118188,2,0,L|248:325,1,46.6666666666667,0|2,3:0|0:3,0:0:0:0:
261,306,118657,1,2,0:3:0:0:
267,305,118891,2,0,L|376:312,1,93.3333333333333,8|2,0:0|0:3,0:0:0:0:
379,331,119594,5,0,3:0:0:0:
468,285,120297,1,8,0:0:0:0:
429,194,121000,2,0,L|453:87,1,93.3333333333333,0|2,3:0|0:3,0:0:0:0:
458,76,121703,2,0,L|504:69,2,46.6666666666667,8|8|8,0:0|0:3|0:3,0:0:0:0:
440,53,122407,5,0,3:0:0:0:
359,108,123110,2,0,B|306:114|279:71|208:88,1,140,8|0,0:0|3:0,0:0:0:0:
146,21,124516,2,0,P|122:30|93:33,1,46.6666666666667,8|8,0:0|0:3,0:0:0:0:
76,45,124984,5,8,0:3:0:0:
71,50,125219,2,0,P|62:102|47:197,1,140,0|4,3:0|0:0,0:0:0:0:
109,264,126625,2,0,P|136:258|160:255,1,46.6666666666667,8|8,0:3|0:1,0:0:0:0:
229,217,127328,2,0,P|254:222|280:226,1,46.6666666666667,8|8,0:3|0:1,0:0:0:0:
351,259,128031,5,4,0:0:0:0:
355,254,128265,2,0,P|363:220|370:194,1,46.6666666666667,2|2,0:3|0:3,0:0:0:0:
391,197,128734,2,0,L|376:104,1,93.3333333333333,4|2,0:3|0:3,0:0:0:0:
337,29,129672,2,0,P|291:49|238:47,1,93.3333333333333,2|4,0:3|0:3,0:0:0:0:
219,58,130375,1,2,0:3:0:0:
213,56,130609,1,2,0:3:0:0:
158,119,131078,6,0,L|167:178,1,46.6666666666667,2|2,0:3|0:3,0:0:0:0:
190,177,131546,2,0,L|174:273,1,93.3333333333333,4|2,0:3|0:3,0:0:0:0:
193,288,132250,2,0,P|226:285|295:358,2,140,4|4|4,0:3|0:3|0:3,0:0:0:0:
110,245,134359,5,4,0:3:0:0:
110,245,134593,2,0,P|119:226|132:146,1,93.3333333333333,2|4,0:3|0:3,0:0:0:0:
116,132,135296,1,2,0:3:0:0:
169,67,135765,2,0,L|158:14,2,46.6666666666667,4|2|2,0:3|0:3|0:3,0:0:0:0:
190,85,136468,6,0,P|261:72|329:63,1,140,4|4,0:3|0:3,0:0:0:0:
409,118,137874,2,0,L|399:173,1,46.6666666666667,8|8,0:3|0:1,0:0:0:0:
336,218,138577,2,0,L|346:273,1,46.6666666666667,8|12,0:3|0:1,0:0:0:0:
401,336,139280,5,4,0:0:0:0:
408,341,139515,2,0,L|474:324,2,46.6666666666667,2|2|4,0:3|0:3|0:3,0:0:0:0:
314,373,140452,1,2,0:3:0:0:
306,372,140686,2,0,P|289:363|210:360,1,93.3333333333333,4|2,0:3|0:3,0:0:0:0:
197,338,141389,2,0,L|99:354,1,93.3333333333333,4|2,0:3|0:3,0:0:0:0:
34,287,142327,6,0,L|46:241,1,46.6666666666667,2|2,0:3|0:3,0:0:0:0:
27,218,142796,2,0,P|33:208|50:124,1,93.3333333333333,4|2,0:3|0:3,0:0:0:0:
102,51,143733,2,0,P|146:50|192:24,1,93.3333333333333,2|4,0:3|0:3,0:0:0:0:
216,27,144436,1,2,0:3:0:0:
221,22,144670,1,2,0:3:0:0:
274,104,145139,6,0,L|263:149,2,46.6666666666667,2|2|4,0:3|0:3|0:3,0:0:0:0:
340,30,146077,1,2,0:3:0:0:
348,26,146311,2,0,L|460:8,1,93.3333333333333,4|2,0:3|0:3,0:0:0:0:
465,23,147014,2,0,P|488:75|479:113,1,93.3333333333333,4|2,0:3|0:3,0:0:0:0:
411,161,147951,6,0,L|405:211,1,46.6666666666667,2|2,0:3|0:3,0:0:0:0:
386,227,148420,2,0,P|395:286|401:322,1,93.3333333333333,4|2,0:3|0:3,0:0:0:0:
377,334,149123,2,0,L|323:324,1,46.6666666666667,8|8,0:3|0:1,0:0:0:0:
251,358,149826,2,0,L|197:348,1,46.6666666666667,8|8,0:3|0:1,0:0:0:0:
125,375,150529,6,0,L|110:235,1,140,4|0,0:0|3:0,0:0:0:0:
38,166,151701,1,2,0:3:0:0:
44,162,151935,2,0,P|52:139|59:50,1,93.3333333333333,0|8,3:0|0:3,0:0:0:0:
81,52,152639,2,0,L|187:33,1,93.3333333333333,0|8,3:0|0:3,0:0:0:0:
186,10,153342,5,0,3:0:0:0:
285,43,153810,1,2,0:3:0:0:
283,51,154045,1,0,3:0:0:0:
199,116,154513,1,2,0:3:0:0:
205,122,154748,2,0,L|187:225,1,93.3333333333333,0|8,3:0|0:3,0:0:0:0:
168,232,155451,2,0,P|159:232|102:242,2,46.6666666666667,0|2|8,3:0|0:3|0:3,0:0:0:0:
190,248,156154,6,0,B|257:254|264:213|332:219,1,140,4|0,0:0|3:0,0:0:0:0:
373,142,157326,1,8,0:3:0:0:
380,143,157560,2,0,P|392:143|470:119,1,93.3333333333333,0|8,3:0|0:3,0:0:0:0:
491,136,158263,1,0,3:0:0:0:
435,216,158966,6,0,L|443:264,1,46.6666666666667,0|8,3:0|0:3,0:0:0:0:
463,280,159435,1,8,0:3:0:0:
457,284,159669,2,0,P|453:292|436:374,1,93.3333333333333,0|4,3:3|0:0,0:0:0:0:
407,374,160372,6,0,L|354:366,1,46.6666666666667,8|8,0:3|0:1,0:0:0:0:
335,378,160841,2,0,L|278:368,1,46.6666666666667,8|8,0:1|0:3,0:0:0:0:
256,192,178652,12,2,182168,0:1:0:0:
398,270,182871,6,0,L|412:212,2,51.3333348999024,12|12|12,0:3|0:3|0:3,0:0:0:0:
411,294,183574,1,8,0:1:0:0:
334,370,184277,6,0,P|313:359|232:357,1,102.666669799805,14|2,3:2|0:3,0:0:0:0:
209,372,184980,1,8,0:3:0:0:
142,307,185448,1,2,0:3:0:0:
140,301,185683,2,0,P|150:248|162:189,1,102.666669799805,0|2,3:0|0:3,0:0:0:0:
148,171,186386,1,8,0:3:0:0:
199,93,186855,5,2,0:3:0:0:
203,88,187089,2,0,L|192:37,2,51.3333348999024,0|2|2,3:0|0:1|0:3,0:0:0:0:
230,106,187792,2,0,L|344:87,1,102.666669799805,8|2,0:3|0:3,0:0:0:0:
361,84,188495,1,0,3:0:0:0:
403,182,189198,2,0,L|392:236,1,51.3333348999024,8|2,0:3|0:3,0:0:0:0:
405,260,189667,5,2,0:3:0:0:
406,268,189901,2,0,L|302:288,1,102.666669799805,0|2,3:0|0:3,0:0:0:0:
281,305,190604,1,8,0:3:0:0:
204,356,191073,5,2,0:3:0:0:
198,357,191307,2,0,B|139:363|112:311|47:331,1,154.000004699707,0|8,3:0|0:3,0:0:0:0:
23,314,192245,2,0,P|22:305|7:255,1,51.3333348999024,2|2,0:1|0:3,0:0:0:0:
20,236,192714,5,0,3:0:0:0:
94,180,193182,1,2,0:3:0:0:
92,173,193417,2,0,L|117:50,1,102.666669799805,8|2,0:3|0:3,0:0:0:0:
92,54,194120,2,0,P|124:58|228:-8,1,154.000004699707,8|8,0:3|0:3,0:0:0:0:
245,16,195057,6,0,L|302:5,1,51.3333348999024,8|8,0:1|0:1,0:0:0:0:
324,17,195526,1,4,0:0:0:0:
386,84,195995,1,2,0:3:0:0:
387,91,196229,2,0,P|385:101|368:201,1,102.666669799805,8|2,0:3|0:3,0:0:0:0:
384,213,196932,1,0,3:0:0:0:
308,281,197401,5,2,0:3:0:0:
308,281,197635,2,0,L|317:344,2,51.3333348999024,8|2|2,0:3|0:1|0:3,0:0:0:0:
288,256,198338,2,0,L|179:269,1,102.666669799805,0|0,3:0|0:0,0:0:0:0:
160,285,199041,1,8,0:3:0:0:
103,193,199744,1,0,3:0:0:0:
103,193,199979,2,0,P|108:179|116:131,1,51.3333348999024,6|6,0:1|0:3,0:0:0:0:
144,122,200447,1,12,0:3:0:0:
146,116,200682,2,0,L|133:56,1,51.3333348999024,6|6,0:3|0:3,0:0:0:0:
152,40,201150,6,0,P|165:37|301:102,1,154.000004699707,0|8,3:0|0:3,0:0:0:0:
382,85,202322,1,2,0:3:0:0:
377,87,202557,2,0,L|356:203,1,102.666669799805,0|0,3:0|0:0,0:0:0:0:
352,218,203260,1,8,0:3:0:0:
377,322,203963,6,0,P|332:301|277:302,1,102.666669799805,0|2,3:0|0:3,0:0:0:0:
255,317,204666,1,8,0:3:0:0:
166,255,205369,2,0,L|178:192,2,51.3333348999024,8|8|8,0:3|3:1|3:1,0:0:0:0:
137,267,206072,2,0,L|127:321,2,51.3333348999024,8|8|8,0:3|0:1|0:1,0:0:0:0:
109,254,206775,5,4,0:0:0:0:
