osu file format v14

[General]
AudioFilename: audio.mp3
AudioLeadIn: 0
PreviewTime: -1
Countdown: 0
SampleSet: Soft
StackLeniency: 0.7
Mode: 0
LetterboxInBreaks: 0
WidescreenStoryboard: 0

[Editor]
DistanceSpacing: 1.7
BeatDivisor: 4
GridSize: 8
TimelineZoom: 1

[Metadata]
Title:Sayonara Bystander
TitleUnicode:Sayonara Bystander
Artist:Yuki
ArtistUnicode:Yuki
Creator:SnailHD
Version:Sayonara
Source:3月のライオン
Tags:3gatsu no lion opening sangatsu no lion yuki sayonara bystander
BeatmapID:1187157
BeatmapSetID:561500

[Difficulty]
HPDrainRate:5
CircleSize:4
OverallDifficulty:7
ApproachRate:9
SliderMultiplier:1.6
SliderTickRate:1

[Events]
//Background and Video events
0,0,"thumb-1920-689249.jpg",0,0
Video,0,"SWANGTTASU_CLIPCHAMP_keep.mp4"
//Break Periods
//Storyboard Layer 0 (Background)
//Storyboard Layer 1 (Fail)
//Storyboard Layer 2 (Pass)
//Storyboard Layer 3 (Foreground)
//Storyboard Sound Samples

[TimingPoints]
1050,368.098159509202,4,2,0,80,1,0
4152,-200,4,2,0,80,0,0
5417,-100,4,2,0,80,0,0
7675,-200,4,2,0,80,0,0
8043,-100,4,2,0,80,0,0
9700,-133.333333333333,4,2,0,80,0,0
10068,-100,4,2,0,80,0,0
10620,-83.3333333333333,4,2,0,80,0,0
11172,-100,4,2,0,80,0,0
13933,-133.333333333333,4,2,0,80,0,0
14117,-100,4,2,0,80,0,0
16878,-133.333333333333,4,2,0,80,0,0
17062,-100,4,2,0,80,0,0
34915,-133.333333333333,4,2,0,80,0,0
40804,-100,4,2,0,80,0,0
42829,-200,4,2,0,80,0,0
43749,-100,4,2,0,80,0,0
45405,-100,4,2,0,80,0,0
45957,-83.3333333333333,4,2,0,80,0,1
70252,-133.333333333333,4,2,0,80,0,0
84424,-100,4,2,0,80,0,0

[Colours]
Combo1 : 0,255,128
Combo2 : 0,255,168
Combo3 : 0,255,255
Combo4 : 0,128,255

[HitObjects]
121,94,1050,5,0,0:0:0:0:
136,131,1142,1,0,0:0:0:0:
138,170,1234,1,0,0:0:0:0:
120,208,1326,1,0,0:0:0:0:
118,247,1418,1,0,0:0:0:0:
132,284,1510,1,0,0:0:0:0:
159,313,1602,1,0,0:0:0:0:
200,320,1694,5,0,0:0:0:0:
234,300,1786,1,0,0:0:0:0:
274,295,1878,1,0,0:0:0:0:
312,307,1970,1,0,0:0:0:0:
352,320,2062,1,0,0:0:0:0:
391,315,2154,1,0,0:0:0:0:
423,292,2246,1,0,0:0:0:0:
439,256,2338,1,0,0:0:0:0:
448,216,2430,1,0,0:0:0:0:
456,176,2522,6,0,P|448:128|424:80,1,80
328,56,2890,1,0,0:0:0:0:
296,160,3074,2,0,P|280:200|176:264,1,160
48,288,3626,2,0,L|48:128,1,160
160,55,4178,5,0,0:0:0:0:
176,67,4270,1,0,0:0:0:0:
194,76,4362,1,0,0:0:0:0:
240,224,4546,1,0,0:0:0:0:
259,218,4638,1,0,0:0:0:0:
276,209,4730,1,0,0:0:0:0:
312,72,4915,1,0,0:0:0:0:
331,66,5007,1,0,0:0:0:0:
351,66,5099,1,0,0:0:0:0:
432,176,5283,1,0,0:0:0:0:
446,189,5375,1,0,0:0:0:0:
464,208,5467,6,0,P|480:248|464:304,1,80
384,336,5835,1,0,0:0:0:0:
288,336,6019,2,0,L|120:336,1,160
56,248,6571,2,0,L|56:136,1,80
144,72,7123,6,0,L|192:72,4,40
288,64,7675,1,0,0:0:0:0:
307,63,7767,1,0,0:0:0:0:
326,70,7859,1,0,0:0:0:0:
339,85,7951,1,0,0:0:0:0:
352,112,8043,2,0,P|360:152|352:192,1,80
424,272,8411,6,0,P|392:328|352:352,1,80
320,264,8780,1,0,0:0:0:0:
240,312,8964,2,0,L|144:312,1,80
88,264,9332,1,0,0:0:0:0:
96,128,9516,1,0,0:0:0:0:
200,72,9700,2,0,P|256:56|328:80,1,120.000004577637
368,176,10252,5,0,0:0:0:0:
312,296,10620,2,0,P|256:304|192:288,1,95.9999970703126
152,344,10988,2,0,P|136:296|160:232,1,95.9999970703126
288,56,11356,6,0,P|288:112|272:160,1,80
168,128,11724,2,0,P|184:200|208:232,1,80
280,264,12092,1,0,0:0:0:0:
448,272,12461,2,0,P|472:224|464:184,1,80
384,192,12829,6,0,P|368:152|376:104,1,80
371,115,13197,1,0,0:0:0:0:
272,64,13381,2,0,P|208:56|176:80,1,80
80,120,13933,2,0,L|80:200,1,60.0000022888184
168,328,14301,6,0,P|224:344|272:320,1,80
208,224,14669,1,0,0:0:0:0:
144,160,14853,2,0,P|184:128|240:136,1,80
448,128,15405,2,0,L|448:224,1,80
416,304,15773,6,0,P|368:320|336:312,1,80
360,192,16142,1,0,0:0:0:0:
312,80,16326,2,0,P|256:104|240:152,1,80
152,192,16694,1,0,0:0:0:0:
144,312,16878,2,0,P|200:328|224:328,1,60.0000022888184
400,320,17246,6,0,L|400:224,1,80
312,216,17614,2,0,P|344:176|384:160,1,80
464,144,17982,2,0,P|432:96|408:88,1,80
176,64,18350,2,0,L|176:144,1,80
48,264,18718,6,0,P|96:296|152:288,1,80
232,296,19086,1,0,0:0:0:0:
232,144,19270,1,0,0:0:0:0:
288,88,19454,2,0,P|328:128|328:176,1,80
416,272,19823,2,0,L|336:272,1,80
96,336,20191,6,0,P|72:272|80:224,1,80
80,120,20559,1,0,0:0:0:0:
208,32,20743,1,0,0:0:0:0:
304,192,20927,1,0,0:0:0:0:
176,176,21111,1,0,0:0:0:0:
344,48,21295,1,0,0:0:0:0:
448,192,21479,1,0,0:0:0:0:
352,328,21663,5,0,0:0:0:0:
240,328,21847,1,0,0:0:0:0:
204,309,21939,1,0,0:0:0:0:
165,303,22031,1,0,0:0:0:0:
126,312,22123,1,0,0:0:0:0:
96,320,22215,1,0,0:0:0:0:
57,310,22307,1,0,0:0:0:0:
29,282,22399,1,0,0:0:0:0:
18,244,22491,1,0,0:0:0:0:
28,206,22583,1,0,0:0:0:0:
56,184,22675,1,0,0:0:0:0:
90,164,22767,1,0,0:0:0:0:
130,159,22859,1,0,0:0:0:0:
168,169,22951,1,0,0:0:0:0:
201,192,23043,1,0,0:0:0:0:
240,216,23135,6,0,P|288:240|344:224,1,80
416,232,23503,1,0,0:0:0:0:
320,72,23688,1,0,0:0:0:0:
240,216,23872,2,0,P|224:272|192:304,1,80
96,328,24240,1,0,0:0:0:0:
48,200,24424,1,0,0:0:0:0:
104,72,24608,6,0,P|160:64|208:80,1,80
312,72,24976,1,0,0:0:0:0:
400,176,25160,1,0,0:0:0:0:
344,304,25344,2,0,P|328:320|264:296,1,80
128,288,25712,1,0,0:0:0:0:
168,184,25896,1,0,0:0:0:0:
360,72,26080,5,0,0:0:0:0:
360,72,26264,1,0,0:0:0:0:
360,72,26448,2,0,L|248:72,1,80
144,40,26816,2,0,P|136:104|152:152,1,80
144,256,27184,1,0,0:0:0:0:
272,160,27369,1,0,0:0:0:0:
288,320,27553,1,0,0:0:0:0:
144,352,27737,6,0,P|96:352|64:328,1,80
48,200,28105,1,0,0:0:0:0:
168,80,28289,1,0,0:0:0:0:
256,264,28473,1,0,0:0:0:0:
312,88,28657,1,0,0:0:0:0:
456,80,28841,6,0,P|472:152|448:256,1,160
336,304,29393,1,0,0:0:0:0:
256,160,29577,1,0,0:0:0:0:
168,304,29761,1,0,0:0:0:0:
64,256,29945,2,0,P|48:208|56:160,1,80
72,64,30313,1,0,0:0:0:0:
192,48,30497,6,0,P|264:48|304:64,1,80
392,56,30865,1,0,0:0:0:0:
400,208,31049,1,0,0:0:0:0:
304,320,31234,2,0,P|256:328|192:320,1,80
96,312,31602,1,0,0:0:0:0:
192,192,31786,1,0,0:0:0:0:
104,72,31970,6,0,P|144:48|208:56,1,80
296,56,32338,1,0,0:0:0:0:
192,192,32522,1,0,0:0:0:0:
392,208,32706,1,0,0:0:0:0:
192,88,32890,1,0,0:0:0:0:
280,288,33074,1,0,0:0:0:0:
400,96,33258,1,0,0:0:0:0:
301,211,33442,6,0,L|269:323,1,80
136,304,33810,1,0,0:0:0:0:
96,192,34056,2,0,L|80:120,1,53.3333333333333
64,56,34362,1,0,0:0:0:0:
232,200,34546,1,0,0:0:0:0:
296,32,34730,1,0,0:0:0:0:
432,112,34915,6,0,P|456:168|464:240,1,120.000004577637
448,312,35467,1,0,0:0:0:0:
320,288,35651,1,0,0:0:0:0:
200,336,35835,1,0,0:0:0:0:
96,296,36019,2,0,P|72:256|64:176,1,120.000004577637
80,80,36571,5,0,0:0:0:0:
184,32,36755,1,0,0:0:0:0:
264,96,36939,1,0,0:0:0:0:
368,40,37123,1,0,0:0:0:0:
456,112,37307,1,0,0:0:0:0:
448,224,37491,2,0,P|432:256|400:280,1,60.0000022888184
336,320,37859,6,0,P|296:328|208:320,1,120.000004577637
112,280,38411,1,0,0:0:0:0:
160,184,38596,1,0,0:0:0:0:
96,96,38780,1,0,0:0:0:0:
160,16,38964,2,0,P|216:8|240:16,1,60.0000022888184
368,32,39332,6,0,P|400:80|400:144,1,120.000004577637
408,232,39884,1,0,0:0:0:0:
288,328,40068,1,0,0:0:0:0:
232,168,40252,1,0,0:0:0:0:
232,168,40344,1,0,0:0:0:0:
232,168,40436,1,0,0:0:0:0:
352,56,40620,1,0,0:0:0:0:
168,48,40804,6,0,P|120:72|104:112,1,80
128,280,41172,1,0,0:0:0:0:
416,112,41356,2,0,P|376:64|344:56,1,80
104,152,41724,1,0,0:0:0:0:
280,328,41908,2,0,P|344:312|376:280,1,80
368,184,42276,5,0,0:0:0:0:
296,56,42461,1,0,0:0:0:0:
257,47,42553,1,0,0:0:0:0:
218,55,42645,1,0,0:0:0:0:
120,88,42829,1,0,0:0:0:0:
113,106,42921,1,0,0:0:0:0:
112,126,43013,1,0,0:0:0:0:
114,146,43105,1,0,0:0:0:0:
121,165,43197,1,0,0:0:0:0:
128,176,43289,1,0,0:0:0:0:
139,191,43381,1,0,0:0:0:0:
149,209,43473,1,0,0:0:0:0:
155,228,43565,1,0,0:0:0:0:
159,248,43657,1,0,0:0:0:0:
160,272,43749,6,0,B|128:296|152:328|208:328|232:304|280:320|304:320,1,160
464,296,44301,2,0,P|472:232|456:184,1,80
432,96,44669,2,0,L|336:96,1,80
112,80,45405,5,0,0:0:0:0:
96,116,45497,1,0,0:0:0:0:
97,156,45589,1,0,0:0:0:0:
113,192,45681,1,0,0:0:0:0:
143,219,45773,1,0,0:0:0:0:
181,231,45865,1,0,0:0:0:0:
224,240,45957,1,0,0:0:0:0:
416,184,46142,1,0,0:0:0:0:
360,336,46326,1,0,0:0:0:0:
312,224,46510,6,0,P|296:176|256:144,1,95.9999970703126
128,72,46878,1,0,0:0:0:0:
72,200,47062,2,0,P|72:256|128:304,1,95.9999970703126
224,312,47430,1,0,0:0:0:0:
272,112,47614,1,0,0:0:0:0:
400,256,47798,1,0,0:0:0:0:
448,88,47982,6,0,P|392:112|360:104,1,95.9999970703126
304,248,48350,1,0,0:0:0:0:
96,264,48534,1,0,0:0:0:0:
184,48,48718,1,0,0:0:0:0:
208,280,48902,1,0,0:0:0:0:
88,112,49086,1,0,0:0:0:0:
304,96,49270,1,0,0:0:0:0:
432,320,49454,6,0,P|456:264|456:224,1,95.9999970703126
448,88,49823,1,0,0:0:0:0:
304,256,50007,1,0,0:0:0:0:
184,72,50191,2,0,P|128:96|104:128,1,95.9999970703126
200,304,50559,1,0,0:0:0:0:
336,96,50743,1,0,0:0:0:0:
440,224,50927,6,0,P|432:272|392:328,1,95.9999970703126
304,192,51295,2,0,L|216:128,1,95.9999970703126
160,48,51663,2,0,P|112:72|96:144,1,95.9999970703126
128,304,52031,1,0,0:0:0:0:
320,48,52215,1,0,0:0:0:0:
320,48,52399,6,0,P|352:88|360:144,1,95.9999970703126
320,304,52767,1,0,0:0:0:0:
240,144,52951,1,0,0:0:0:0:
152,296,53135,1,0,0:0:0:0:
88,168,53319,2,0,P|80:120|112:72,1,95.9999970703126
264,56,53688,1,0,0:0:0:0:
272,320,53872,1,0,0:0:0:0:
272,320,54056,6,0,P|336:288|368:248,1,95.9999970703126
296,160,54424,2,0,P|240:136|168:152,1,95.9999970703126
72,144,54792,2,0,P|64:200|80:256,1,95.9999970703126
208,328,55160,1,0,0:0:0:0:
376,288,55344,6,0,P|424:256|432:200,1,95.9999970703126
312,88,55712,1,0,0:0:0:0:
120,312,55896,1,0,0:0:0:0:
120,96,56080,1,0,0:0:0:0:
336,320,56264,1,0,0:0:0:0:
240,48,56448,1,0,0:0:0:0:
216,336,56632,1,0,0:0:0:0:
400,64,56816,1,0,0:0:0:0:
96,312,57000,5,0,0:0:0:0:
176,64,57184,1,0,0:0:0:0:
336,312,57369,1,0,0:0:0:0:
432,168,57553,1,0,0:0:0:0:
104,160,57737,1,0,0:0:0:0:
352,104,57921,2,0,L|368:40,1,47.9999985351563
272,216,58105,2,0,L|264:280,1,47.9999985351563
256,120,58289,6,0,P|184:104|144:128,1,95.9999970703126
56,144,58657,1,0,0:0:0:0:
56,304,58841,2,0,P|112:336|168:328,1,95.9999970703126
184,264,59209,2,0,P|248:264|280:288,1,95.9999970703126
352,296,59577,2,0,L|352:200,1,95.9999970703126
440,96,59945,6,0,P|360:80|320:96,1,95.9999970703126
264,112,60313,1,0,0:0:0:0:
96,64,60497,1,0,0:0:0:0:
96,64,60681,2,0,P|96:152|112:200,1,95.9999970703126
112,320,61049,1,0,0:0:0:0:
288,312,61234,6,0,B|368:312|408:296|448:208,1,191.999994140625
416,104,61786,1,0,0:0:0:0:
120,56,61970,2,0,L|120:192,1,95.9999970703126
176,344,62338,1,0,0:0:0:0:
280,80,62522,1,0,0:0:0:0:
464,224,62706,6,0,P|408:272|288:256,1,191.999994140625
136,264,63258,1,0,0:0:0:0:
184,64,63442,1,0,0:0:0:0:
384,224,63626,1,0,0:0:0:0:
376,64,63810,1,0,0:0:0:0:
248,280,63994,1,0,0:0:0:0:
64,224,64178,6,0,P|48:176|64:128,1,95.9999970703126
168,160,64546,1,0,0:0:0:0:
248,280,64730,2,0,P|304:280|344:296,1,95.9999970703126
432,312,65099,2,0,P|456:264|448:120,1,191.999994140625
312,80,65651,6,0,P|264:64|216:80,1,95.9999970703126
104,144,66019,1,0,0:0:0:0:
80,280,66203,2,0,P|88:320|160:312,1,95.9999970703126
320,304,66571,1,0,0:0:0:0:
368,88,66755,1,0,0:0:0:0:
368,88,66847,1,0,0:0:0:0:
368,88,66939,1,0,0:0:0:0:
144,208,67123,1,0,0:0:0:0:
216,48,67307,5,0,0:0:0:0:
384,224,67491,1,0,0:0:0:0:
120,120,67675,1,0,0:0:0:0:
224,328,67859,1,0,0:0:0:0:
336,104,68043,1,0,0:0:0:0:
120,248,68227,1,0,0:0:0:0:
384,328,68411,1,0,0:0:0:0:
208,64,68596,6,0,P|144:64|112:96,1,95.9999970703126
280,216,68964,1,0,0:0:0:0:
176,344,69148,1,0,0:0:0:0:
368,96,69332,1,0,0:0:0:0:
376,336,69516,1,0,0:0:0:0:
216,72,69700,1,0,0:0:0:0:
64,288,69884,1,0,0:0:0:0:
464,184,70068,1,0,0:0:0:0:
272,224,70252,6,0,L|136:176,1,120.000004577637
56,144,70804,1,0,0:0:0:0:
56,264,70988,2,0,P|80:328|88:336,1,60.0000022888184
184,328,71356,1,0,0:0:0:0:
288,328,71540,6,0,L|416:320,1,120.000004577637
400,120,72092,1,0,0:0:0:0:
248,64,72276,2,0,P|200:56|192:72,1,60.0000022888184
232,144,72645,1,0,0:0:0:0:
232,304,72829,1,0,0:0:0:0:
232,304,73013,6,0,P|176:344|120:328,1,120.000004577637
112,96,73749,2,0,L|200:96,1,60.0000022888184
360,120,74117,1,0,0:0:0:0:
208,312,74301,1,0,0:0:0:0:
400,312,74485,1,0,0:0:0:0:
280,208,74669,6,0,L|224:160,1,60.0000022888184
120,88,75037,1,0,0:0:0:0:
120,272,75221,1,0,0:0:0:0:
280,208,75405,1,0,0:0:0:0:
120,88,75589,1,0,0:0:0:0:
120,272,75773,2,0,L|184:312,1,60.0000022888184
312,336,76142,6,0,P|400:320|416:272,1,120.000004577637
424,200,76694,1,0,0:0:0:0:
416,80,76878,2,0,P|352:64|336:72,1,60.0000022888184
264,72,77246,1,0,0:0:0:0:
160,80,77430,6,0,P|88:104|80:168,1,120.000004577637
160,184,77982,1,0,0:0:0:0:
328,120,78166,1,0,0:0:0:0:
392,248,78350,2,0,P|384:288|360:312,1,60.0000022888184
256,336,78718,1,0,0:0:0:0:
112,336,78902,6,0,P|72:336|40:320,1,60.0000022888184
48,200,79270,1,0,0:0:0:0:
64,80,79454,2,0,P|104:64|144:64,1,60.0000022888184
240,72,79823,1,0,0:0:0:0:
336,232,80007,1,0,0:0:0:0:
384,72,80191,1,0,0:0:0:0:
200,184,80375,1,0,0:0:0:0:
80,240,80559,6,0,P|88:296|104:320,1,60.0000022888184
224,336,80927,1,0,0:0:0:0:
368,224,81111,1,0,0:0:0:0:
128,168,81295,1,0,0:0:0:0:
272,48,81479,1,0,0:0:0:0:
248,240,81663,1,0,0:0:0:0:
384,88,81847,1,0,0:0:0:0:
160,64,82031,6,0,P|104:64|48:128,1,120.000004577637
400,112,84240,1,0,0:0:0:0:
408,232,84424,1,0,0:0:0:0:
403,271,84516,1,0,0:0:0:0:
383,305,84608,1,0,0:0:0:0:
351,329,84700,1,0,0:0:0:0:
312,337,84792,1,0,0:0:0:0:
274,330,84884,1,0,0:0:0:0:
232,312,84976,6,0,P|184:288|144:264,1,80
161,274,85344,1,0,0:0:0:0:
72,184,85528,2,0,P|112:136|208:120,1,160
368,96,86080,1,0,0:0:0:0:
408,280,86264,6,0,P|360:320|232:320,1,160
120,312,86816,1,0,0:0:0:0:
112,208,87000,1,0,0:0:0:0:
102,169,87092,1,0,0:0:0:0:
107,130,87184,1,0,0:0:0:0:
128,95,87276,1,0,0:0:0:0:
160,80,87369,1,0,0:0:0:0:
199,73,87461,1,0,0:0:0:0:
236,85,87553,1,0,0:0:0:0:
263,114,87645,1,0,0:0:0:0:
273,152,87737,1,0,0:0:0:0:
264,191,87829,1,0,0:0:0:0:
237,220,87921,5,0,0:0:0:0:
208,248,88013,1,0,0:0:0:0:
178,274,88105,1,0,0:0:0:0:
172,312,88197,1,0,0:0:0:0:
192,336,88289,2,0,P|240:352|288:344,1,80
432,296,88657,1,0,0:0:0:0:
432,296,88749,1,0,0:0:0:0:
432,296,88841,2,0,P|408:248|400:224,1,80
