osu file format v14

[General]
AudioFilename: audio.mp3
AudioLeadIn: 0
PreviewTime: 64391
Countdown: 0
SampleSet: Normal
StackLeniency: 0.7
Mode: 1
LetterboxInBreaks: 0
WidescreenStoryboard: 1

[Editor]
Bookmarks: 3021,13399,23777,44534,54913,60102
DistanceSpacing: 1.4
BeatDivisor: 4
GridSize: 32
TimelineZoom: 1.500001

[Metadata]
Title:Narcistration
TitleUnicode:Narcistration♡
Artist:Yuki (CV: Oozora Naomi)
ArtistUnicode:ユキ (CV: 大空直美)
Creator:4sbet1
Version:NORMAL
Source:プリンセスコネクト!Re:Dive
Tags:Ohzora Ozora cygames princess connect! redive ぷりこね priconne イリーガルオーエドカルテ Dr.ミツキの診察室 illegal Ohedo Oedo chart Dr.Mitsuki no Shinsatsushitsu CHARACTER SONG 24 Japanese j-pop jpop pop video game videogame
BeatmapID:3850938
BeatmapSetID:1866703

[Difficulty]
HPDrainRate:7
CircleSize:5
OverallDifficulty:4
ApproachRate:5
SliderMultiplier:1.4
SliderTickRate:1

[Events]
//Background and Video events
0,0,"BG.jpg",0,-55
Video,0,"BG_Narcistration.mp4"
//Break Periods
//Storyboard Layer 0 (Background)
//Storyboard Layer 1 (Fail)
//Storyboard Layer 2 (Pass)
//Storyboard Layer 3 (Foreground)
//Storyboard Layer 4 (Overlay)
//Storyboard Sound Samples

[TimingPoints]
-2176,324.324324324324,4,1,0,80,1,0
-2176,-105.263157894737,4,1,0,80,0,0
8182,-95.2380952380952,4,1,0,80,0,0
13371,-105.263157894737,4,1,0,70,0,0
23749,-100,4,1,0,80,0,0
44506,-95.2380952380952,4,1,0,80,0,0
46452,-100,4,1,0,70,0,0
47101,-95.2380952380952,4,1,0,80,0,0
49695,-100,4,1,0,70,0,0
54722,-95.2380952380952,4,1,0,80,0,0
58776,-100,4,1,0,70,0,0
65263,-95.2380952380952,4,1,0,90,0,0
65283,-95.2380952380952,4,1,0,90,0,1
83445,-95.2380952380952,4,1,0,90,0,0
86668,-105.263157894737,4,1,0,60,0,0

[HitObjects]
256,192,3013,5,8,0:0:0:0:
256,192,3661,1,8,0:0:0:0:
256,192,3986,1,8,0:0:0:0:
256,192,4634,1,8,0:0:0:0:
256,192,5607,1,0,0:0:0:0:
256,192,6256,1,8,0:0:0:0:
256,192,6580,1,0,0:0:0:0:
256,192,7229,1,8,0:0:0:0:
256,192,8202,1,4,0:0:0:0:
256,192,8526,1,8,0:0:0:0:
256,192,8688,1,4,0:0:0:0:
256,192,9175,1,8,0:0:0:0:
256,192,9499,1,4,0:0:0:0:
256,192,9823,1,0,0:0:0:0:
256,192,9986,1,12,0:0:0:0:
256,192,10472,1,8,0:0:0:0:
256,192,10796,1,4,0:0:0:0:
256,192,11121,1,0,0:0:0:0:
256,192,11283,1,8,0:0:0:0:
256,192,11445,1,0,0:0:0:0:
256,192,11769,1,0,0:0:0:0:
256,192,12094,1,12,0:0:0:0:
256,192,12580,1,12,0:0:0:0:
256,192,13391,1,0,0:0:0:0:
256,192,14040,1,8,0:0:0:0:
256,192,14202,1,8,0:0:0:0:
256,192,14526,1,8,0:0:0:0:
256,192,15499,1,0,0:0:0:0:
256,192,15661,1,8,0:0:0:0:
256,192,15986,1,0,0:0:0:0:
256,192,16634,1,8,0:0:0:0:
256,192,16959,1,8,0:0:0:0:
256,192,17121,1,0,0:0:0:0:
256,192,18094,1,0,0:0:0:0:
256,192,18256,1,8,0:0:0:0:
256,192,18580,1,8,0:0:0:0:
256,192,19067,1,8,0:0:0:0:
256,192,19391,1,8,0:0:0:0:
256,192,19715,1,0,0:0:0:0:
256,192,20364,1,0,0:0:0:0:
256,192,20526,1,0,0:0:0:0:
256,192,20688,1,8,0:0:0:0:
256,192,21013,1,8,0:0:0:0:
256,192,21499,1,8,0:0:0:0:
256,192,21823,1,8,0:0:0:0:
256,192,22148,1,8,0:0:0:0:
256,192,22472,1,8,0:0:0:0:
256,192,22634,1,0,0:0:0:0:
256,192,22959,1,0,0:0:0:0:
256,192,23769,1,0,0:0:0:0:
256,192,24094,1,8,0:0:0:0:
256,192,24418,1,0,0:0:0:0:
256,192,24580,1,8,0:0:0:0:
256,192,24905,1,0,0:0:0:0:
256,192,25067,1,8,0:0:0:0:
256,192,25553,1,8,0:0:0:0:
256,192,26040,1,8,0:0:0:0:
256,192,26364,1,0,0:0:0:0:
256,192,26688,1,8,0:0:0:0:
256,192,27013,1,0,0:0:0:0:
256,192,27175,1,8,0:0:0:0:
256,192,27499,1,0,0:0:0:0:
256,192,27661,1,8,0:0:0:0:
256,192,27823,1,0,0:0:0:0:
256,192,28148,1,8,0:0:0:0:
256,192,28634,1,8,0:0:0:0:
256,192,28959,1,0,0:0:0:0:
256,192,29283,1,8,0:0:0:0:
256,192,29445,1,0,0:0:0:0:
256,192,29769,1,8,0:0:0:0:
256,192,30094,1,8,0:0:0:0:
256,192,30742,1,0,0:0:0:0:
256,192,30905,1,8,0:0:0:0:
256,192,31067,1,8,0:0:0:0:
256,192,31391,1,8,0:0:0:0:
256,192,31553,1,0,0:0:0:0:
256,192,31878,1,0,0:0:0:0:
256,192,32202,1,8,0:0:0:0:
256,192,32526,1,8,0:0:0:0:
256,192,32851,1,8,0:0:0:0:
256,192,33013,1,0,0:0:0:0:
256,192,33337,1,8,0:0:0:0:
256,192,33661,1,8,0:0:0:0:
256,192,33823,1,0,0:0:0:0:
256,192,34148,1,0,0:0:0:0:
256,192,34472,1,8,0:0:0:0:
256,192,34634,1,0,0:0:0:0:
256,192,34796,1,8,0:0:0:0:
256,192,35283,1,0,0:0:0:0:
256,192,35607,1,0,0:0:0:0:
256,192,35932,1,0,0:0:0:0:
256,192,36094,1,8,0:0:0:0:
256,192,36742,1,0,0:0:0:0:
256,192,37067,1,8,0:0:0:0:
256,192,37229,1,8,0:0:0:0:
256,192,37391,1,0,0:0:0:0:
256,192,37878,1,8,0:0:0:0:
256,192,38202,1,8,0:0:0:0:
256,192,38526,1,8,0:0:0:0:
256,192,38688,1,0,0:0:0:0:
256,192,39337,1,0,0:0:0:0:
256,192,39661,1,8,0:0:0:0:
256,192,39823,1,0,0:0:0:0:
256,192,40148,1,0,0:0:0:0:
256,192,40472,1,8,0:0:0:0:
256,192,40959,1,0,0:0:0:0:
256,192,41283,1,8,0:0:0:0:
256,192,41932,1,4,0:0:0:0:
256,192,42256,1,4,0:0:0:0:
256,192,42580,1,12,0:0:0:0:
256,192,43067,1,4,0:0:0:0:
256,192,43878,1,8,0:0:0:0:
256,192,44526,1,4,0:0:0:0:
256,192,45175,1,8,0:0:0:0:
256,192,45499,1,4,0:0:0:0:
256,192,46148,1,0,0:0:0:0:
256,192,46472,1,8,0:0:0:0:
256,192,47121,1,4,0:0:0:0:
256,192,47769,1,8,0:0:0:0:
256,192,48094,1,4,0:0:0:0:
256,192,48742,1,0,0:0:0:0:
256,192,49067,1,8,0:0:0:0:
256,192,49715,1,0,0:0:0:0:
256,192,50202,1,0,0:0:0:0:
256,192,50526,1,0,0:0:0:0:
256,192,50851,1,8,0:0:0:0:
256,192,51013,1,0,0:0:0:0:
256,192,51499,1,0,0:0:0:0:
256,192,51823,1,0,0:0:0:0:
256,192,51986,1,8,0:0:0:0:
256,192,52148,1,8,0:0:0:0:
256,192,52310,1,0,0:0:0:0:
256,192,52634,1,8,0:0:0:0:
256,192,52959,1,8,0:0:0:0:
256,192,53283,1,8,0:0:0:0:
256,192,53607,1,0,0:0:0:0:
256,192,53932,1,0,0:0:0:0:
256,192,54256,1,8,0:0:0:0:
256,192,54580,1,8,0:0:0:0:
256,192,54905,1,4,0:0:0:0:
256,192,55553,1,4,0:0:0:0:
256,192,55878,1,8,0:0:0:0:
256,192,56202,1,4,0:0:0:0:
256,192,56851,1,4,0:0:0:0:
256,192,57175,1,8,0:0:0:0:
256,192,57499,1,4,0:0:0:0:
256,192,58148,1,4,0:0:0:0:
256,192,58472,1,12,0:0:0:0:
256,192,59121,1,0,0:0:0:0:
256,192,59445,1,8,0:0:0:0:
256,192,60094,1,0,0:0:0:0:
256,192,60418,1,0,0:0:0:0:
256,192,60742,1,8,0:0:0:0:
256,192,61067,1,8,0:0:0:0:
256,192,61391,1,0,0:0:0:0:
256,192,61715,1,0,0:0:0:0:
256,192,62040,1,8,0:0:0:0:
256,192,62202,1,8,0:0:0:0:
256,192,62364,1,8,0:0:0:0:
256,192,62688,1,0,0:0:0:0:
256,192,63337,1,12,0:0:0:0:
256,192,63986,1,0,0:0:0:0:
256,192,64634,1,8,0:0:0:0:
256,192,65283,5,4,0:0:0:0:
256,192,65607,1,8,0:0:0:0:
256,192,65932,1,0,0:0:0:0:
256,192,66094,1,0,0:0:0:0:
256,192,66256,1,0,0:0:0:0:
256,192,66580,1,8,0:0:0:0:
256,192,66905,1,0,0:0:0:0:
256,192,67067,1,8,0:0:0:0:
256,192,67715,1,0,0:0:0:0:
256,192,68040,1,0,0:0:0:0:
256,192,68202,1,8,0:0:0:0:
256,192,68526,1,8,0:0:0:0:
256,192,68688,1,8,0:0:0:0:
256,192,68851,1,8,0:0:0:0:
256,192,69175,1,0,0:0:0:0:
256,192,69499,1,8,0:0:0:0:
256,192,69661,1,0,0:0:0:0:
256,192,70310,1,0,0:0:0:0:
256,192,70634,1,8,0:0:0:0:
256,192,70796,1,8,0:0:0:0:
256,192,70959,1,8,0:0:0:0:
256,192,71283,1,0,0:0:0:0:
256,192,71607,1,0,0:0:0:0:
256,192,71769,1,8,0:0:0:0:
256,192,72094,1,8,0:0:0:0:
256,192,72256,1,0,0:0:0:0:
256,192,72742,1,8,0:0:0:0:
256,192,72905,1,8,0:0:0:0:
256,192,73067,1,0,0:0:0:0:
256,192,73715,1,8,0:0:0:0:
256,192,74040,1,8,0:0:0:0:
256,192,74364,1,0,0:0:0:0:
256,192,74688,1,0,0:0:0:0:
256,192,75013,1,8,0:0:0:0:
256,192,75337,1,8,0:0:0:0:
256,192,75499,1,0,0:0:0:0:
256,192,75823,1,0,0:0:0:0:
256,192,75986,1,8,0:0:0:0:
256,192,76310,1,0,0:0:0:0:
256,192,76472,1,0,0:0:0:0:
256,192,76634,1,8,0:0:0:0:
256,192,76959,1,8,0:0:0:0:
256,192,77283,1,0,0:0:0:0:
256,192,77445,1,8,0:0:0:0:
256,192,78094,1,8,0:0:0:0:
256,192,78418,1,0,0:0:0:0:
256,192,78580,1,0,0:0:0:0:
256,192,78905,1,8,0:0:0:0:
256,192,79067,1,8,0:0:0:0:
256,192,79229,1,8,0:0:0:0:
256,192,79553,1,8,0:0:0:0:
256,192,79878,1,0,0:0:0:0:
256,192,80040,1,8,0:0:0:0:
256,192,80688,1,8,0:0:0:0:
256,192,81013,1,0,0:0:0:0:
256,192,81175,1,0,0:0:0:0:
256,192,81337,1,8,0:0:0:0:
256,192,81986,1,0,0:0:0:0:
256,192,82310,1,0,0:0:0:0:
256,192,82472,1,8,0:0:0:0:
256,192,82796,1,8,0:0:0:0:
256,192,82959,1,8,0:0:0:0:
256,192,83121,1,8,0:0:0:0:
256,192,83445,1,4,0:0:0:0:
256,192,83932,1,0,0:0:0:0:
256,192,84094,1,8,0:0:0:0:
256,192,84580,1,4,0:0:0:0:
256,192,84905,1,4,0:0:0:0:
256,192,85391,1,4,0:0:0:0:
256,192,85715,1,8,0:0:0:0:
256,192,85878,1,8,0:0:0:0:
256,192,86688,12,0,92202,0:0:0:0:
