osu file format v14

[General]
AudioFilename: audio.mp3
AudioLeadIn: 0
PreviewTime: -1
Countdown: 0
SampleSet: Soft
StackLeniency: 0.7
Mode: 0
LetterboxInBreaks: 0
WidescreenStoryboard: 0

[Editor]
DistanceSpacing: 0.2
BeatDivisor: 4
GridSize: 4
TimelineZoom: 2.1

[Metadata]
Title:Eien no Hitotsu
TitleUnicode:永遠のひとつ
Artist:Yukari Tamura
ArtistUnicode:ゆかりたむら
Creator:-SEKI-
Version:Inseparable
Source:フロントウイング
Tags:ISLAND anime ohara rinne
BeatmapID:1746463
BeatmapSetID:833744

[Difficulty]
HPDrainRate:5.5
CircleSize:3.9
OverallDifficulty:7
ApproachRate:9.3
SliderMultiplier:1.4
SliderTickRate:1

[Events]
//Background and Video events
0,0,"thumb-1920-931935.png",0,0
Video,0,"【HD】ISLAND (アイランド) OP.mp4"
//Break Periods
//Storyboard Layer 0 (Background)
//Storyboard Layer 1 (Fail)
//Storyboard Layer 2 (Pass)
//Storyboard Layer 3 (Foreground)
//Storyboard Sound Samples

[TimingPoints]
7420,480,4,2,0,40,1,0
7420,-80,4,2,0,40,0,0
22780,-66.6666666666667,4,2,0,60,0,0
38140,-80,4,2,0,40,0,0
49660,-80,4,2,0,50,0,1
52780,-80,4,2,0,40,0,0
53500,-57.1428571428571,4,2,0,80,0,1
76540,-57.1428571428571,4,2,0,80,0,0
80140,-80,4,2,0,40,0,0

[Colours]
Combo1 : 255,255,255
Combo2 : 174,174,255
Combo3 : 167,196,254
Combo4 : 154,224,254

[HitObjects]
256,192,5260,12,12,6880,0:3:0:0:
400,65,7420,6,0,L|361:168,1,87.5,2|0,0:0|0:0,0:0:0:0:
398,317,7900,1,2,0:0:0:0:
462,122,8080,1,0,0:0:0:0:
462,122,8200,2,0,P|433:82|368:61,1,87.5,2|0,0:0|0:0,0:0:0:0:
285,226,8620,2,0,P|329:204|359:165,1,87.5,2|0,0:0|0:0,0:0:0:0:
353,178,8980,1,2,0:0:0:0:
283,312,9220,1,0,0:0:0:0:
283,312,9340,6,0,P|235:292|208:253,1,87.5,6|0,0:0|0:0,0:0:0:0:
211,243,9700,1,0,0:0:0:0:
218,222,9820,1,0,0:0:0:0:
374,327,10060,2,0,L|394:277,1,43.75,2|0,0:0|0:0,0:0:0:0:
435,269,10300,2,0,L|395:168,1,87.5,2|0,0:0|0:0,0:0:0:0:
403,187,10660,1,0,0:0:0:0:
403,187,10780,1,2,0:0:0:0:
493,188,11020,1,2,0:0:0:0:
260,72,11260,6,0,P|262:124|300:168,1,87.5,6|0,0:0|0:0,0:0:0:0:
195,228,11620,2,0,P|226:186|230:139,1,87.5,2|0,0:0|0:0,0:0:0:0:
225,135,11980,1,2,0:0:0:0:
116,67,12220,2,0,P|118:119|149:160,1,87.5,2|0,0:0|0:0,0:0:0:0:
265,202,12580,1,0,0:0:0:0:
265,202,12700,2,0,P|235:243|233:297,1,87.5,2|0,0:0|0:0,0:0:0:0:
261,364,13060,1,0,0:0:0:0:
261,364,13180,6,0,L|150:318,1,87.5,6|0,0:0|0:0,0:0:0:0:
94,271,13540,2,0,L|207:225,1,87.5
311,263,13900,5,0,3:0:0:0:
270,178,14020,1,0,3:0:0:0:
191,230,14140,1,0,3:0:0:0:
149,145,14260,1,0,3:0:0:0:
149,145,14620,5,8,3:2:0:0:
311,263,14740,1,8,3:2:0:0:
311,263,15100,5,6,0:0:0:0:
361,321,15340,6,0,L|385:223,1,87.5,2|0,0:0|0:0,0:0:0:0:
301,103,15760,1,0,0:0:0:0:
301,103,15880,2,0,P|303:151|323:184,1,87.5,2|0,0:0|0:0,0:0:0:0:
453,295,16300,1,2,0:0:0:0:
278,347,16540,2,0,L|187:320,1,87.5
195,322,16900,1,0,0:0:0:0:
195,322,17020,5,6,0:0:0:0:
134,225,17260,1,0,0:0:0:0:
134,225,17380,2,0,L|147:138,1,87.5
128,45,17740,5,2,0:0:0:0:
128,45,17860,1,0,0:0:0:0:
128,45,17980,2,0,L|214:70,1,87.5,2|0,0:0|0:0,0:0:0:0:
247,113,18340,2,0,P|249:157|234:200,1,87.5,2|0,0:0|0:0,0:0:0:0:
124,230,18700,2,0,L|195:258,1,43.75,2|0,0:0|0:0,0:0:0:0:
364,309,18940,5,6,0:0:0:0:
256,192,19180,12,0,21340,0:0:0:0:
386,99,21820,5,10,3:2:0:0:
306,258,21940,1,0,3:2:0:0:
323,299,22180,6,8,L|338:335,2,21.875,8|8|8,3:2|3:2|3:2,3:2:0:0:
243,86,22420,1,2,3:2:0:0:
123,323,22540,1,0,3:2:0:0:
199,176,22780,5,6,3:2:0:0:
132,223,23020,6,0,L|180:265,1,52.5000020027161,2|0,0:0|0:0,0:0:0:0:
249,307,23260,2,0,P|261:253|297:221,1,105.000004005432,2|0,0:0|0:0,0:0:0:0:
384,212,23620,2,0,P|364:174|315:138,1,105.000004005432,2|0,0:0|0:0,0:0:0:0:
289,133,23980,1,0,0:0:0:0:
288,320,24220,2,0,P|303:277|295:220,1,105.000004005432,2|0,0:0|0:0,0:0:0:0:
111,172,24580,1,0,0:0:0:0:
79,163,24700,6,0,L|163:99,1,105.000004005432,6|0,0:0|0:0,0:0:0:0:
244,111,25060,1,0,0:0:0:0:
270,112,25180,2,0,L|227:143,1,52.5000020027161,2|0,0:0|0:0,0:0:0:0:
165,245,25420,2,0,L|181:169,1,52.5000020027161
260,35,25660,2,0,P|297:70|350:83,1,105.000004005432,2|0,0:0|0:0,0:0:0:0:
481,110,26020,2,0,P|430:116|386:148,1,105.000004005432,2|0,0:0|0:0,0:0:0:0:
287,92,26380,1,2,0:0:0:0:
335,198,26620,6,0,P|297:233|246:245,1,105.000004005432,6|0,0:0|0:0,0:0:0:0:
167,119,26978,2,0,P|208:149|260:154,1,105.000004005432,2|0,0:0|0:0,0:0:0:0:
466,200,27340,1,2,0:0:0:0:
413,340,27580,2,0,L|294:314,1,105.000004005432,2|0,0:0|0:0,0:0:0:0:
181,283,27940,1,0,0:0:0:0:
162,260,28060,2,0,L|280:233,1,105.000004005432,2|0,0:0|0:0,0:0:0:0:
338,133,28540,6,0,L|364:251,1,105.000004005432,6|0,0:0|0:0,0:0:0:0:
218,184,28900,1,0,0:0:0:0:
192,161,29020,2,0,L|214:58,1,105.000004005432,2|0,0:0|0:0,0:0:0:0:
64,204,29380,1,0,3:2:0:0:
94,219,29500,2,0,L|109:288,1,52.5000020027161,0|0,3:2|3:2,3:2:0:0:
189,335,29740,2,0,L|177:283,1,52.5000020027161,2|0,2:2|2:2,2:2:0:0:
252,157,29980,6,0,L|198:144,1,52.5000020027161,2|0,0:0|0:0,0:0:0:0:
48,140,30220,2,0,L|198:105,1,131.25000500679,2|0,0:0|0:0,0:0:0:0:
407,27,30700,6,0,L|355:39,1,52.5000020027161,2|0,0:0|0:0,0:0:0:0:
183,192,30940,6,0,L|234:204,1,52.5000020027161,2|0,0:0|0:0,0:0:0:0:
399,205,31180,6,0,L|250:165,1,131.25000500679,2|0,0:0|0:0,0:0:0:0:
121,81,31660,6,0,L|70:69,1,52.5000020027161,2|0,0:0|0:0,0:0:0:0:
227,284,31900,6,0,L|279:272,1,52.5000020027161,2|0,0:0|0:0,0:0:0:0:
86,290,32140,6,0,L|234:253,1,105.000004005432,2|0,0:0|0:0,0:0:0:0:
473,186,32620,6,0,B|480:238|447:286,1,105.000004005432,2|0,0:0|0:0,0:0:0:0:
288,351,33100,1,0,0:0:0:0:
277,144,33340,2,0,P|324:135|366:149,1,52.5000020027161,2|0,0:0|0:0,0:0:0:0:
176,254,33580,1,0,0:0:0:0:
176,254,33700,2,0,P|226:264|276:249,1,105.000004005432,2|0,0:0|0:0,0:0:0:0:
187,176,34060,6,0,P|93:245|171:332,1,262.500010013581,6|0,0:0|0:0,0:0:0:0:
176,253,35020,6,0,B|236:305|323:274|323:274|266:239|246:179|246:179|336:198|377:153|366:82,1,472.500018024445,2|0,0:0|0:0,0:0:0:0:
372,74,36220,5,0,3:2:0:0:
379,66,36580,5,0,3:2:0:0:
368,341,36700,1,8,3:2:0:0:
287,99,36820,1,0,3:2:0:0:
287,99,37180,5,0,3:2:0:0:
77,229,37300,1,8,3:2:0:0:
77,229,37660,5,8,3:2:0:0:
378,314,37780,1,8,3:2:0:0:
231,121,37900,5,8,3:2:0:0:
182,297,38020,1,8,3:2:0:0:
396,147,38140,5,6,3:2:0:0:
396,147,38380,6,0,L|353:182,1,43.75,2|0,0:0|0:0,0:0:0:0:
273,211,38620,2,0,L|316:246,1,43.75,2|0,0:0|0:0,0:0:0:0:
178,240,38860,2,0,L|221:275,1,43.75,2|0,0:0|0:0,0:0:0:0:
278,320,39100,2,0,P|198:346|138:306,1,131.25,2|0,0:0|0:0,0:0:0:0:
143,312,39580,1,0,0:0:0:0:
211,180,39820,6,0,L|211:270,1,87.5,2|0,0:0|0:0,0:0:0:0:
128,136,40300,2,0,L|160:98,1,43.75,2|0,0:0|0:0,0:0:0:0:
251,100,40540,2,0,L|283:62,1,43.75,2|0,0:0|0:0,0:0:0:0:
335,291,40780,2,0,L|335:150,1,131.25,2|0,0:0|0:0,0:0:0:0:
319,175,41260,1,2,0:0:0:0:
319,175,41500,5,2,0:0:0:0:
146,228,41620,1,2,0:0:0:0:
250,257,41740,1,2,0:0:0:0:
256,99,41980,5,4,0:0:0:0:
256,99,42220,6,0,L|242:53,1,43.75,2|0,0:0|0:0,0:0:0:0:
172,117,42460,2,0,L|145:82,1,43.75,2|0,0:0|0:0,0:0:0:0:
112,174,42700,2,0,L|77:147,1,43.75,2|0,0:0|0:0,0:0:0:0:
181,218,42940,2,0,P|243:174|289:180,1,87.5,2|0,0:0|0:0,0:0:0:0:
254,253,43300,1,0,0:0:0:0:
254,253,43420,2,0,L|322:239,1,43.75,2|0,0:0|0:0,0:0:0:0:
489,211,43660,5,6,0:0:0:0:
274,365,44140,2,0,L|259:325,1,43.75,2|2,0:0|0:0,0:0:0:0:
177,296,44380,2,0,L|160:340,1,43.75,2|0,0:0|0:0,0:0:0:0:
89,278,44620,2,0,P|82:203|95:168,1,87.5,2|0,0:0|0:0,0:0:0:0:
98,174,44980,5,2,0:0:0:0:
180,55,45100,1,2,0:0:0:0:
251,172,45220,5,2,0:0:0:0:
68,57,45340,2,0,L|100:86,1,43.75,2|0,0:0|0:0,0:0:0:0:
144,226,45580,2,0,L|177:197,1,43.75,2|0,0:0|0:0,0:0:0:0:
280,77,45820,5,6,0:0:0:0:
263,171,46060,6,0,P|282:253|273:289,1,87.5,2|0,0:0|0:0,0:0:0:0:
216,330,46540,2,0,P|200:289|198:245,1,87.5,2|0,0:0|0:0,0:0:0:0:
239,88,47020,2,0,P|282:90|322:107,1,87.5,2|0,0:0|0:0,0:0:0:0:
417,221,47500,2,0,P|374:220|334:204,1,87.5,2|0,0:0|0:0,0:0:0:0:
344,312,47980,6,0,L|363:262,1,43.75,2|0,0:0|0:0,0:0:0:0:
460,135,48220,2,0,L|476:176,1,43.75,2|0,0:0|0:0,0:0:0:0:
368,76,48460,2,0,P|290:52|256:64,1,87.5,2|0,0:0|0:0,0:0:0:0:
77,83,48820,1,10,0:0:0:0:
234,198,48940,1,10,0:0:0:0:
234,198,49180,6,0,L|252:158,1,43.75,10|0,3:2|3:2,3:2:0:0:
88,237,49420,2,0,L|112:282,1,43.75,10|0,3:2|3:2,3:2:0:0:
126,288,49660,1,2,3:2:0:0:
226,341,49900,1,2,3:2:0:0:
228,173,50140,5,8,3:2:0:0:
260,334,50380,1,0,3:2:0:0:
305,118,50620,5,8,3:2:0:0:
215,270,50860,1,0,3:2:0:0:
362,200,51100,5,8,3:2:0:0:
147,101,51340,1,0,3:2:0:0:
147,101,51460,2,0,L|217:90,1,43.75
393,80,51700,1,0,3:2:0:0:
393,80,51940,1,0,3:2:0:0:
275,208,52060,5,8,3:2:0:0:
185,159,52300,1,0,3:2:0:0:
106,228,52540,1,0,3:2:0:0:
389,342,52780,5,12,3:2:0:0:
304,50,53020,1,12,3:2:0:0:
389,342,53500,6,0,P|400:282|368:203,1,122.500001168251,2|0,1:2|2:2,1:2:0:0:
291,84,53860,2,0,P|280:144|312:223,1,122.500001168251,2|0,1:2|2:2,1:2:0:0:
249,280,54220,2,0,P|297:302|324:296,1,61.2500005841255,2|0,1:2|2:2,1:2:0:0:
339,139,54460,6,0,P|216:173|203:205,1,122.500001168251,6|0,1:2|2:2,1:2:0:0:
71,272,54820,2,0,P|124:281|217:229,1,122.500001168251,2|0,1:2|2:2,1:2:0:0:
67,166,55180,2,0,L|0:178,1,61.2500005841255,2|0,1:2|2:2,1:2:0:0:
51,76,55420,6,0,P|133:105|154:150,1,122.500001168251,6|0,1:2|2:2,1:2:0:0:
155,230,55780,1,2,2:2:0:0:
158,312,55900,6,0,P|226:282|231:217,1,122.500001168251,6|0,1:2|2:2,1:2:0:0:
155,230,56260,1,2,2:2:0:0:
72,224,56380,6,0,P|94:169|150:152,1,122.500001168251,6|0,1:2|2:2,1:2:0:0:
297,116,56740,1,2,2:2:0:0:
353,200,56860,6,0,L|239:142,1,122.500001168251,6|0,1:2|2:2,1:2:0:0:
144,58,57220,1,2,2:2:0:0:
393,124,57340,6,0,P|439:192|428:246,1,122.500001168251,6|0,1:2|2:2,1:2:0:0:
395,304,57700,2,0,P|354:259|352:199,1,122.500001168251,2|0,1:2|2:2,1:2:0:0:
459,50,58060,2,0,L|393:44,1,61.2500005841255,2|0,1:2|2:2,1:2:0:0:
188,106,58300,6,0,L|321:124,1,122.500001168251,4|0,1:2|2:2,1:2:0:0:
456,209,58660,1,2,2:2:0:0:
245,196,58780,2,0,L|123:179,1,122.500001168251,2|0,1:2|2:2,1:2:0:0:
188,106,59140,1,2,2:2:0:0:
175,226,59260,6,0,P|209:269|316:179,1,183.750001752377,6|0,1:2|2:2,1:2:0:0:
310,129,59740,6,0,P|382:82|450:135,1,183.750001752377,6|0,1:2|2:2,1:2:0:0:
344,312,60220,5,2,2:2:0:0:
380,165,60340,2,0,L|384:295,1,122.500001168251,10|0,1:2|2:2,1:2:0:0:
245,196,60700,5,8,1:2:0:0:
411,137,60820,1,8,1:2:0:0:
177,94,60940,5,8,1:2:0:0:
380,165,61060,1,8,1:2:0:0:
296,260,61180,6,0,P|233:277|166:226,1,122.500001168251,6|0,1:2|2:2,1:2:0:0:
241,108,61540,2,0,L|242:235,1,122.500001168251,2|0,1:2|2:2,1:2:0:0:
240,353,61900,1,2,1:2:0:0:
191,171,62020,1,2,2:2:0:0:
364,312,62140,6,0,P|382:254|358:200,1,122.500001168251,6|0,1:2|2:2,1:2:0:0:
292,126,62500,2,0,P|267:180|284:237,1,122.500001168251,2|0,1:2|2:2,1:2:0:0:
459,322,62860,1,2,1:2:0:0:
369,160,62980,1,2,2:2:0:0:
254,328,63100,6,0,P|179:344|124:288,1,122.500001168251,6|0,1:2|2:2,1:2:0:0:
49,191,63460,1,2,2:2:0:0:
256,231,63580,2,2,L|203:262,1,61.2500005841255,10|2,2:2|2:2,2:2:0:0:
99,255,63820,1,10,2:2:0:0:
161,181,63940,1,10,2:2:0:0:
254,328,64060,6,0,P|329:344|384:288,1,122.500001168251,14|0,1:2|2:2,1:2:0:0:
429,350,64420,6,0,L|359:242,1,122.500001168251,10|0,1:2|2:2,1:2:0:0:
417,127,64780,2,0,L|376:192,1,61.2500005841255,10|0,1:2|2:2,1:2:0:0:
378,37,65020,6,0,L|304:153,1,122.500001168251,6|0,1:2|2:2,1:2:0:0:
201,165,65500,2,0,L|239:110,1,61.2500005841255,2|0,1:2|2:2,1:2:0:0:
119,142,65740,6,0,P|124:208|194:251,1,122.500001168251,6|0,1:2|2:2,1:2:0:0:
210,330,66220,2,0,P|151:342|100:311,1,122.500001168251,0|0,1:2|2:2,1:2:0:0:
184,162,66700,6,0,P|236:191|255:248,1,122.500001168251,6|0,1:2|2:2,1:2:0:0:
79,240,67180,2,0,P|88:211|108:188,1,61.2500005841255,2|0,1:2|2:2,1:2:0:0:
294,117,67420,2,0,P|284:146|265:169,1,61.2500005841255,14|8,1:2|1:2,1:2:0:0:
242,190,67660,1,0,2:2:0:0:
167,246,67900,5,2,1:2:0:0:
207,103,68020,1,8,1:2:0:0:
207,103,68380,5,8,1:2:0:0:
252,262,68500,1,8,1:2:0:0:
258,166,68620,1,8,1:2:0:0:
207,343,68740,1,8,1:2:0:0:
129,129,68860,6,0,L|170:256,1,122.500001168251,6|0,1:2|2:2,1:2:0:0:
290,367,69220,2,0,P|290:307|251:261,1,122.500001168251,2|0,1:2|2:2,1:2:0:0:
64,250,69580,1,2,1:2:0:0:
207,343,69700,1,2,2:2:0:0:
258,166,69820,6,0,L|186:60,1,122.500001168251,6|0,1:2|2:2,1:2:0:0:
302,245,70180,2,0,P|341:199|340:139,1,122.500001168251,2|0,1:2|2:2,1:2:0:0:
262,31,70540,1,2,1:2:0:0:
258,166,70660,1,2,2:2:0:0:
423,146,70780,6,0,P|462:100|461:40,1,122.500001168251,6|0,1:2|2:2,1:2:0:0:
258,166,71140,1,2,2:2:0:0:
358,306,71260,2,0,P|403:345|463:344,1,122.500001168251,2|0,1:2|2:2,1:2:0:0:
423,146,71620,5,10,2:2:0:0:
427,268,71740,1,2,2:2:0:0:
339,84,71860,1,10,2:2:0:0:
344,210,71980,2,0,L|302:105,1,61.2500005841255,2|0,2:2|2:2,2:2:0:0:
255,28,72220,5,10,2:2:0:0:
240,202,72340,2,0,L|217:258,1,61.2500005841255,10|0,2:2|2:2,2:2:0:0:
66,303,72580,1,0,2:2:0:0:
44,143,72700,6,0,L|167:195,1,122.500001168251,6|0,1:2|2:2,1:2:0:0:
340,85,73060,2,0,L|217:137,1,122.500001168251,2|0,1:2|2:2,1:2:0:0:
86,202,73420,1,2,1:2:0:0:
242,288,73540,1,2,2:2:0:0:
264,70,73660,6,0,P|205:61|156:112,1,122.500001168251,6|0,1:2|2:2,1:2:0:0:
191,249,74020,2,0,L|231:118,1,122.500001168251,2|0,1:2|2:2,1:2:0:0:
353,42,74380,1,2,1:2:0:0:
410,266,74500,1,2,2:2:0:0:
249,201,74620,6,0,L|408:173,1,122.500001168251,6|0,1:2|2:2,1:2:0:0:
461,166,74980,1,0,2:2:0:0:
167,140,75100,6,0,L|326:112,1,122.500001168251,6|0,1:2|2:2,1:2:0:0:
379,105,75460,1,0,2:2:0:0:
168,57,75580,6,0,L|96:72,1,61.2500005841255,8|8,1:2|1:2,1:2:0:0:
21,91,75820,5,6,2:2:0:0:
21,91,76060,5,10,1:2:0:0:
112,298,76180,1,10,1:2:0:0:
302,95,76300,1,10,1:2:0:0:
124,173,76420,1,10,1:2:0:0:
292,198,76540,6,0,P|351:184|401:115,1,122.500001168251,6|0,0:2|0:2,0:2:0:0:
302,95,77020,2,0,P|254:106|214:161,1,61.2500005841255,2|0,0:2|0:2,0:2:0:0:
211,228,77260,6,0,P|252:271|311:285,1,122.500001168251,6|0,0:2|0:2,0:2:0:0:
454,272,77740,2,0,P|412:228|353:214,1,122.500001168251,2|0,0:2|0:2,0:2:0:0:
72,299,78220,2,0,B|285:202|192:56|192:56|56:137|219:291|219:291|339:218|294:79,1,796.250007593632
359,331,80140,6,0,L|385:274,1,43.75,2|0,0:2|0:2,0:2:0:0:
418,278,80380,2,0,L|361:152,1,131.25,6|0,0:2|0:2,0:2:0:0:
288,114,80860,2,0,L|327:81,1,43.75,2|0,0:2|0:2,0:2:0:0:
212,77,81100,2,0,P|210:160|262:198,1,131.25,6|0,0:2|0:2,0:2:0:0:
305,247,81580,2,0,L|256:286,1,43.75,0|0,0:2|0:2,0:2:0:0:
141,317,82060,6,0,P|83:245|85:189,1,131.25,6|0,0:2|0:2,0:2:0:0:
111,113,82540,2,0,P|169:185|167:241,1,131.25,2|0,0:2|0:2,0:2:0:0:
111,113,83020,2,0,P|183:55|239:57,1,131.25,2|0,0:2|0:2,0:2:0:0:
315,83,83500,2,0,P|276:113|247:112,1,43.75,0|0,0:2|0:2,0:2:0:0:
171,220,83740,2,0,P|209:189|238:190,1,43.75,0|0,0:2|0:2,0:2:0:0:
354,236,83980,2,0,P|315:266|286:265,1,43.75,0|0,0:2|0:2,0:2:0:0:
174,319,84220,5,6,0:2:0:0:
256,192,84460,12,0,87820,0:2:0:0:
