osu file format v14

[General]
AudioFilename: audio_0.82.mp3
AudioLeadIn: 0
PreviewTime: 210131
Countdown: 0
SampleSet: None
StackLeniency: 0.7
Mode: 3
LetterboxInBreaks: 0
SpecialStyle: 0
WidescreenStoryboard: 0

[Editor]
Bookmarks: 74765,96051,175874,181196,189178,210464,216950,225098,226428
DistanceSpacing: 1.4
BeatDivisor: 4
GridSize: 4
TimelineZoom: 1.9

[Metadata]
Title:Candy Star (t+pazolite Remix)
TitleUnicode:Candy Star (t+pazolite Remix)
Artist:Yukacco & DJ Genki
ArtistUnicode:Yukacco & DJ Genki
Creator:Kawawa
Version:x0.82(180)
Source:
Tags:
BeatmapID:1844328
BeatmapSetID:882172

[Difficulty]
HPDrainRate:8
CircleSize:7
OverallDifficulty:8
ApproachRate:5
SliderMultiplier:1.4
SliderTickRate:1

[Events]
//Background and Video events
0,0,"12.jpg",0,0
//Break Periods
//Storyboard Layer 0 (Background)
//Storyboard Layer 1 (Fail)
//Storyboard Layer 2 (Pass)
//Storyboard Layer 3 (Foreground)
//Storyboard Sound Samples

[TimingPoints]
5541,332.59423503326,4,2,0,0,1,0

[HitObjects]
36,192,219,128,0,4875:0:0:0:0:
475,192,219,128,0,2880:0:0:0:0:
182,192,1549,128,0,4210:0:0:0:0:
402,192,2880,128,0,4543:0:0:0:0:
256,192,4210,128,0,4875:0:0:0:0:
475,192,4543,128,0,4875:0:0:0:0:
36,192,5541,1,0,0:0:0:0:
256,192,5541,1,0,0:0:0:0:
402,192,5541,128,0,6039:0:0:0:0:
182,192,5707,1,0,0:0:0:0:
329,192,5873,1,0,0:0:0:0:
109,192,6039,128,0,6538:0:0:0:0:
182,192,6039,1,0,0:0:0:0:
329,192,6206,1,0,0:0:0:0:
475,192,6372,1,0,0:0:0:0:
256,192,6538,1,0,0:0:0:0:
402,192,6705,1,0,0:0:0:0:
36,192,6871,1,0,0:0:0:0:
182,192,6871,128,0,7037:0:0:0:0:
329,192,7037,128,0,7203:0:0:0:0:
475,192,7037,1,0,0:0:0:0:
109,192,7203,1,0,0:0:0:0:
256,192,7370,128,0,7869:0:0:0:0:
402,192,7370,1,0,0:0:0:0:
182,192,7536,1,0,0:0:0:0:
329,192,7702,1,0,0:0:0:0:
475,192,7869,128,0,8035:0:0:0:0:
109,192,7869,1,0,0:0:0:0:
329,192,8035,1,0,0:0:0:0:
36,192,8201,1,0,0:0:0:0:
182,192,8201,128,0,8534:0:0:0:0:
402,192,8368,1,0,0:0:0:0:
329,192,8534,128,0,8866:0:0:0:0:
109,192,8534,1,0,0:0:0:0:
475,192,8700,1,0,0:0:0:0:
36,192,8866,128,0,9199:0:0:0:0:
182,192,8866,1,0,0:0:0:0:
402,192,9033,1,0,0:0:0:0:
256,192,9199,128,0,9532:0:0:0:0:
109,192,9199,1,0,0:0:0:0:
329,192,9365,1,0,0:0:0:0:
475,192,9532,128,0,9864:0:0:0:0:
36,192,9532,1,0,0:0:0:0:
182,192,9698,1,0,0:0:0:0:
109,192,9864,128,0,10031:0:0:0:0:
402,192,9864,1,0,0:0:0:0:
329,192,10031,128,0,10197:0:0:0:0:
256,192,10031,1,0,0:0:0:0:
36,192,10197,1,0,0:0:0:0:
182,192,10363,128,0,10529:0:0:0:0:
329,192,10363,1,0,0:0:0:0:
402,192,10529,128,0,10696:0:0:0:0:
109,192,10529,1,0,0:0:0:0:
256,192,10696,1,0,0:0:0:0:
36,192,10862,128,0,11028:0:0:0:0:
475,192,10862,1,0,0:0:0:0:
329,192,11028,1,0,0:0:0:0:
36,192,11195,128,0,11361:0:0:0:0:
182,192,11195,1,0,0:0:0:0:
402,192,11361,1,0,0:0:0:0:
256,192,11527,128,0,11860:0:0:0:0:
109,192,11527,1,0,0:0:0:0:
475,192,11693,1,0,0:0:0:0:
36,192,11860,1,0,0:0:0:0:
329,192,11860,128,0,12192:0:0:0:0:
182,192,12026,1,0,0:0:0:0:
109,192,12192,128,0,12359:0:0:0:0:
475,192,12192,1,0,0:0:0:0:
402,192,12359,128,0,12525:0:0:0:0:
256,192,12359,1,0,0:0:0:0:
36,192,12525,1,0,0:0:0:0:
182,192,12691,128,0,12858:0:0:0:0:
329,192,12691,1,0,0:0:0:0:
109,192,12858,1,0,0:0:0:0:
475,192,12858,1,0,0:0:0:0:
256,192,13024,1,0,0:0:0:0:
402,192,13190,128,0,13356:0:0:0:0:
36,192,13190,1,0,0:0:0:0:
329,192,13356,128,0,13523:0:0:0:0:
182,192,13356,1,0,0:0:0:0:
256,192,13523,128,0,13689:0:0:0:0:
109,192,13523,1,0,0:0:0:0:
475,192,13689,1,0,0:0:0:0:
182,192,13855,128,0,14022:0:0:0:0:
36,192,13855,1,0,0:0:0:0:
329,192,14022,1,0,0:0:0:0:
402,192,14188,128,0,14354:0:0:0:0:
109,192,14188,1,0,0:0:0:0:
256,192,14354,1,0,0:0:0:0:
329,192,14521,128,0,14687:0:0:0:0:
182,192,14521,1,0,0:0:0:0:
475,192,14687,1,0,0:0:0:0:
36,192,14853,128,0,15019:0:0:0:0:
256,192,14853,1,0,0:0:0:0:
182,192,15019,128,0,15186:0:0:0:0:
402,192,15019,1,0,0:0:0:0:
109,192,15186,1,0,0:0:0:0:
475,192,15352,128,0,15685:0:0:0:0:
329,192,15352,1,0,0:0:0:0:
109,192,15518,1,0,0:0:0:0:
182,192,15685,128,0,15851:0:0:0:0:
256,192,15685,1,0,0:0:0:0:
329,192,15851,128,0,16017:0:0:0:0:
402,192,15851,1,0,0:0:0:0:
182,192,16017,1,0,0:0:0:0:
329,192,16184,1,0,0:0:0:0:
475,192,16184,1,0,0:0:0:0:
36,192,16184,128,0,16516:0:0:0:0:
109,192,16350,1,0,0:0:0:0:
256,192,16350,1,0,0:0:0:0:
182,192,16516,1,0,0:0:0:0:
329,192,16516,1,0,0:0:0:0:
402,192,16682,128,0,17181:0:0:0:0:
256,192,16682,1,0,0:0:0:0:
109,192,16682,1,0,0:0:0:0:
329,192,16849,1,0,0:0:0:0:
475,192,16849,1,0,0:0:0:0:
36,192,16849,1,0,0:0:0:0:
182,192,17015,1,0,0:0:0:0:
36,192,17181,1,0,0:0:0:0:
329,192,17181,1,0,0:0:0:0:
182,192,17348,1,0,0:0:0:0:
475,192,17348,1,0,0:0:0:0:
36,192,17514,1,0,0:0:0:0:
329,192,17514,128,0,17680:0:0:0:0:
256,192,17514,1,0,0:0:0:0:
109,192,17680,128,0,17846:0:0:0:0:
182,192,17680,1,0,0:0:0:0:
402,192,17680,1,0,0:0:0:0:
329,192,17846,1,0,0:0:0:0:
475,192,17846,1,0,0:0:0:0:
256,192,18013,128,0,18512:0:0:0:0:
36,192,18013,1,0,0:0:0:0:
182,192,18013,1,0,0:0:0:0:
109,192,18179,1,0,0:0:0:0:
475,192,18179,1,0,0:0:0:0:
329,192,18179,1,0,0:0:0:0:
402,192,18345,1,0,0:0:0:0:
182,192,18345,1,0,0:0:0:0:
36,192,18512,128,0,18678:0:0:0:0:
329,192,18512,1,0,0:0:0:0:
182,192,18678,1,0,0:0:0:0:
402,192,18678,1,0,0:0:0:0:
109,192,18844,128,0,19177:0:0:0:0:
256,192,18844,1,0,0:0:0:0:
475,192,18844,1,0,0:0:0:0:
329,192,19011,1,0,0:0:0:0:
402,192,19011,1,0,0:0:0:0:
475,192,19177,128,0,19509:0:0:0:0:
182,192,19177,1,0,0:0:0:0:
36,192,19177,1,0,0:0:0:0:
109,192,19343,1,0,0:0:0:0:
329,192,19343,1,0,0:0:0:0:
256,192,19509,128,0,19842:0:0:0:0:
402,192,19509,1,0,0:0:0:0:
36,192,19509,1,0,0:0:0:0:
182,192,19509,1,0,0:0:0:0:
329,192,19676,1,0,0:0:0:0:
109,192,19842,128,0,20175:0:0:0:0:
182,192,19842,1,0,0:0:0:0:
475,192,19842,1,0,0:0:0:0:
402,192,20008,1,0,0:0:0:0:
256,192,20008,1,0,0:0:0:0:
329,192,20175,128,0,20507:0:0:0:0:
182,192,20175,1,0,0:0:0:0:
36,192,20175,1,0,0:0:0:0:
402,192,20341,1,0,0:0:0:0:
475,192,20341,1,0,0:0:0:0:
36,192,20507,128,0,20674:0:0:0:0:
109,192,20507,1,0,0:0:0:0:
256,192,20507,1,0,0:0:0:0:
182,192,20674,128,0,20840:0:0:0:0:
329,192,20674,1,0,0:0:0:0:
475,192,20674,1,0,0:0:0:0:
402,192,20840,1,0,0:0:0:0:
256,192,20840,1,0,0:0:0:0:
36,192,20840,1,0,0:0:0:0:
329,192,21006,128,0,21172:0:0:0:0:
109,192,21006,1,0,0:0:0:0:
182,192,21172,128,0,21339:0:0:0:0:
475,192,21172,1,0,0:0:0:0:
256,192,21172,1,0,0:0:0:0:
109,192,21339,1,0,0:0:0:0:
402,192,21339,1,0,0:0:0:0:
182,192,21505,1,0,0:0:0:0:
329,192,21505,1,0,0:0:0:0:
36,192,21505,128,0,21838:0:0:0:0:
256,192,21671,1,0,0:0:0:0:
475,192,21671,1,0,0:0:0:0:
402,192,21838,128,0,22170:0:0:0:0:
329,192,21838,1,0,0:0:0:0:
109,192,21838,1,0,0:0:0:0:
182,192,22004,1,0,0:0:0:0:
36,192,22004,1,0,0:0:0:0:
256,192,22170,128,0,22503:0:0:0:0:
109,192,22170,1,0,0:0:0:0:
329,192,22170,1,0,0:0:0:0:
475,192,22170,1,0,0:0:0:0:
402,192,22337,1,0,0:0:0:0:
475,192,22503,128,0,22835:0:0:0:0:
329,192,22503,1,0,0:0:0:0:
109,192,22503,1,0,0:0:0:0:
256,192,22669,1,0,0:0:0:0:
36,192,22669,1,0,0:0:0:0:
182,192,22835,128,0,23002:0:0:0:0:
109,192,22835,1,0,0:0:0:0:
329,192,22835,1,0,0:0:0:0:
402,192,23002,128,0,23334:0:0:0:0:
36,192,23002,1,0,0:0:0:0:
256,192,23002,1,0,0:0:0:0:
182,192,23168,1,0,0:0:0:0:
329,192,23168,1,0,0:0:0:0:
109,192,23334,128,0,23667:0:0:0:0:
256,192,23334,1,0,0:0:0:0:
475,192,23334,1,0,0:0:0:0:
182,192,23501,1,0,0:0:0:0:
36,192,23501,1,0,0:0:0:0:
329,192,23501,1,0,0:0:0:0:
402,192,23667,1,0,0:0:0:0:
329,192,23833,128,0,23999:0:0:0:0:
475,192,23833,1,0,0:0:0:0:
182,192,23833,1,0,0:0:0:0:
36,192,23999,128,0,24166:0:0:0:0:
256,192,23999,1,0,0:0:0:0:
109,192,23999,1,0,0:0:0:0:
182,192,24166,128,0,24498:0:0:0:0:
329,192,24166,1,0,0:0:0:0:
475,192,24166,1,0,0:0:0:0:
256,192,24332,1,0,0:0:0:0:
36,192,24332,1,0,0:0:0:0:
402,192,24498,128,0,24665:0:0:0:0:
109,192,24498,1,0,0:0:0:0:
329,192,24498,1,0,0:0:0:0:
256,192,24665,1,0,0:0:0:0:
475,192,24665,1,0,0:0:0:0:
402,192,24831,128,0,24997:0:0:0:0:
329,192,24831,1,0,0:0:0:0:
109,192,24831,1,0,0:0:0:0:
36,192,24831,1,0,0:0:0:0:
256,192,24997,128,0,25330:0:0:0:0:
182,192,24997,1,0,0:0:0:0:
36,192,25164,1,0,0:0:0:0:
329,192,25164,1,0,0:0:0:0:
475,192,25330,128,0,26161:0:0:0:0:
109,192,25330,1,0,0:0:0:0:
402,192,25330,1,0,0:0:0:0:
329,192,25496,1,0,0:0:0:0:
182,192,25496,1,0,0:0:0:0:
109,192,25662,1,0,0:0:0:0:
256,192,25662,1,0,0:0:0:0:
182,192,25829,1,0,0:0:0:0:
329,192,25829,1,0,0:0:0:0:
256,192,25995,1,0,0:0:0:0:
109,192,25995,1,0,0:0:0:0:
182,192,26161,1,0,0:0:0:0:
402,192,26161,1,0,0:0:0:0:
36,192,26161,1,0,0:0:0:0:
329,192,26328,1,0,0:0:0:0:
256,192,26494,1,0,0:0:0:0:
475,192,26494,1,0,0:0:0:0:
109,192,26494,1,0,0:0:0:0:
36,192,26494,1,0,0:0:0:0:
402,192,26494,1,0,0:0:0:0:
109,192,26660,1,0,0:0:0:0:
182,192,26660,1,0,0:0:0:0:
329,192,26660,1,0,0:0:0:0:
402,192,26660,1,0,0:0:0:0:
182,192,26827,1,0,0:0:0:0:
256,192,26827,1,0,0:0:0:0:
36,192,26827,1,0,0:0:0:0:
402,192,26827,128,0,27325:0:0:0:0:
475,192,26827,128,0,27325:0:0:0:0:
182,192,27159,1,0,0:0:0:0:
182,192,27492,1,0,0:0:0:0:
402,192,27492,128,0,27824:0:0:0:0:
329,192,27492,128,0,27824:0:0:0:0:
36,192,27658,1,0,0:0:0:0:
109,192,27658,1,0,0:0:0:0:
182,192,27824,1,0,0:0:0:0:
329,192,27991,128,0,28157:0:0:0:0:
475,192,27991,128,0,28157:0:0:0:0:
36,192,28157,1,0,0:0:0:0:
109,192,28157,1,0,0:0:0:0:
182,192,28157,1,0,0:0:0:0:
402,192,28323,128,0,28490:0:0:0:0:
475,192,28323,128,0,28490:0:0:0:0:
182,192,28490,1,0,0:0:0:0:
329,192,28656,1,0,0:0:0:0:
475,192,28656,1,0,0:0:0:0:
402,192,28822,128,0,28988:0:0:0:0:
182,192,28822,1,0,0:0:0:0:
329,192,28822,128,0,28988:0:0:0:0:
36,192,28988,1,0,0:0:0:0:
109,192,28988,1,0,0:0:0:0:
36,192,29155,1,0,0:0:0:0:
182,192,29155,1,0,0:0:0:0:
109,192,29155,1,0,0:0:0:0:
402,192,29155,1,0,0:0:0:0:
475,192,29155,1,0,0:0:0:0:
402,192,29321,1,0,0:0:0:0:
36,192,29487,1,0,0:0:0:0:
109,192,29487,1,0,0:0:0:0:
182,192,29487,1,0,0:0:0:0:
475,192,29487,128,0,29986:0:0:0:0:
329,192,29487,128,0,29986:0:0:0:0:
36,192,29820,1,0,0:0:0:0:
182,192,29820,1,0,0:0:0:0:
109,192,29820,1,0,0:0:0:0:
182,192,30152,1,0,0:0:0:0:
402,192,30152,128,0,30485:0:0:0:0:
475,192,30152,128,0,30485:0:0:0:0:
36,192,30319,1,0,0:0:0:0:
109,192,30319,1,0,0:0:0:0:
36,192,30485,1,0,0:0:0:0:
182,192,30485,1,0,0:0:0:0:
109,192,30485,1,0,0:0:0:0:
329,192,30651,128,0,30818:0:0:0:0:
402,192,30651,128,0,30818:0:0:0:0:
36,192,30818,1,0,0:0:0:0:
109,192,30818,1,0,0:0:0:0:
329,192,30984,128,0,31150:0:0:0:0:
475,192,30984,128,0,31150:0:0:0:0:
36,192,31150,1,0,0:0:0:0:
182,192,31150,1,0,0:0:0:0:
109,192,31150,1,0,0:0:0:0:
402,192,31317,1,0,0:0:0:0:
329,192,31317,1,0,0:0:0:0:
182,192,31483,1,0,0:0:0:0:
402,192,31483,128,0,31649:0:0:0:0:
475,192,31483,128,0,31649:0:0:0:0:
36,192,31649,1,0,0:0:0:0:
109,192,31649,1,0,0:0:0:0:
36,192,31815,1,0,0:0:0:0:
182,192,31815,1,0,0:0:0:0:
109,192,31815,1,0,0:0:0:0:
329,192,31815,1,0,0:0:0:0:
402,192,31815,1,0,0:0:0:0:
475,192,31982,1,0,0:0:0:0:
36,192,32148,1,0,0:0:0:0:
475,192,32148,1,0,0:0:0:0:
402,192,32148,1,0,0:0:0:0:
256,192,32148,1,0,0:0:0:0:
182,192,32231,1,0,0:0:0:0:
329,192,32314,1,0,0:0:0:0:
475,192,32397,1,0,0:0:0:0:
109,192,32481,1,0,0:0:0:0:
36,192,32481,1,0,0:0:0:0:
256,192,32481,1,0,0:0:0:0:
402,192,32481,1,0,0:0:0:0:
329,192,32564,1,0,0:0:0:0:
182,192,32647,1,0,0:0:0:0:
402,192,32730,1,0,0:0:0:0:
256,192,32813,1,0,0:0:0:0:
475,192,32896,1,0,0:0:0:0:
329,192,32980,1,0,0:0:0:0:
36,192,32980,1,0,0:0:0:0:
182,192,32980,1,0,0:0:0:0:
109,192,32980,1,0,0:0:0:0:
402,192,33063,1,0,0:0:0:0:
475,192,33146,1,0,0:0:0:0:
109,192,33146,1,0,0:0:0:0:
256,192,33146,1,0,0:0:0:0:
36,192,33146,1,0,0:0:0:0:
329,192,33229,1,0,0:0:0:0:
182,192,33312,1,0,0:0:0:0:
36,192,33395,1,0,0:0:0:0:
109,192,33478,1,0,0:0:0:0:
256,192,33478,1,0,0:0:0:0:
402,192,33478,1,0,0:0:0:0:
475,192,33478,1,0,0:0:0:0:
329,192,33562,1,0,0:0:0:0:
182,192,33645,1,0,0:0:0:0:
329,192,33728,1,0,0:0:0:0:
256,192,33811,1,0,0:0:0:0:
475,192,33811,1,0,0:0:0:0:
109,192,33811,1,0,0:0:0:0:
36,192,33811,1,0,0:0:0:0:
402,192,33894,1,0,0:0:0:0:
182,192,33977,1,0,0:0:0:0:
329,192,34060,1,0,0:0:0:0:
182,192,34144,1,0,0:0:0:0:
402,192,34227,1,0,0:0:0:0:
36,192,34310,1,0,0:0:0:0:
256,192,34310,1,0,0:0:0:0:
475,192,34310,1,0,0:0:0:0:
109,192,34310,1,0,0:0:0:0:
329,192,34393,1,0,0:0:0:0:
402,192,34476,1,0,0:0:0:0:
475,192,34476,1,0,0:0:0:0:
36,192,34476,1,0,0:0:0:0:
109,192,34476,1,0,0:0:0:0:
256,192,34559,1,0,0:0:0:0:
182,192,34642,1,0,0:0:0:0:
329,192,34726,1,0,0:0:0:0:
256,192,34809,1,0,0:0:0:0:
109,192,34809,1,0,0:0:0:0:
36,192,34809,1,0,0:0:0:0:
475,192,34809,1,0,0:0:0:0:
402,192,34892,1,0,0:0:0:0:
182,192,34975,1,0,0:0:0:0:
329,192,35058,1,0,0:0:0:0:
256,192,35141,1,0,0:0:0:0:
36,192,35141,1,0,0:0:0:0:
475,192,35141,1,0,0:0:0:0:
109,192,35225,1,0,0:0:0:0:
182,192,35308,1,0,0:0:0:0:
402,192,35308,1,0,0:0:0:0:
329,192,35391,1,0,0:0:0:0:
256,192,35474,1,0,0:0:0:0:
36,192,35474,1,0,0:0:0:0:
475,192,35474,1,0,0:0:0:0:
182,192,35557,1,0,0:0:0:0:
329,192,35640,1,0,0:0:0:0:
402,192,35640,1,0,0:0:0:0:
109,192,35723,1,0,0:0:0:0:
256,192,35807,1,0,0:0:0:0:
36,192,35807,1,0,0:0:0:0:
475,192,35807,1,0,0:0:0:0:
329,192,35890,1,0,0:0:0:0:
402,192,35973,1,0,0:0:0:0:
109,192,35973,1,0,0:0:0:0:
256,192,36056,1,0,0:0:0:0:
182,192,36139,1,0,0:0:0:0:
475,192,36139,1,0,0:0:0:0:
36,192,36139,1,0,0:0:0:0:
329,192,36222,1,0,0:0:0:0:
402,192,36305,1,0,0:0:0:0:
109,192,36305,1,0,0:0:0:0:
182,192,36389,1,0,0:0:0:0:
256,192,36472,1,0,0:0:0:0:
36,192,36472,1,0,0:0:0:0:
475,192,36472,1,0,0:0:0:0:
402,192,36555,1,0,0:0:0:0:
109,192,36638,1,0,0:0:0:0:
329,192,36638,1,0,0:0:0:0:
182,192,36721,1,0,0:0:0:0:
36,192,36804,1,0,0:0:0:0:
402,192,36804,1,0,0:0:0:0:
475,192,36804,1,0,0:0:0:0:
329,192,36888,1,0,0:0:0:0:
256,192,36971,1,0,0:0:0:0:
109,192,36971,1,0,0:0:0:0:
402,192,37054,1,0,0:0:0:0:
475,192,37137,1,0,0:0:0:0:
182,192,37137,1,0,0:0:0:0:
36,192,37137,1,0,0:0:0:0:
256,192,37220,1,0,0:0:0:0:
402,192,37303,1,0,0:0:0:0:
109,192,37303,1,0,0:0:0:0:
329,192,37386,1,0,0:0:0:0:
36,192,37470,1,0,0:0:0:0:
475,192,37470,1,0,0:0:0:0:
256,192,37470,1,0,0:0:0:0:
109,192,37553,1,0,0:0:0:0:
182,192,37553,1,0,0:0:0:0:
329,192,37636,1,0,0:0:0:0:
402,192,37636,1,0,0:0:0:0:
182,192,37719,1,0,0:0:0:0:
256,192,37719,1,0,0:0:0:0:
109,192,37802,1,0,0:0:0:0:
36,192,37802,1,0,0:0:0:0:
475,192,37802,1,0,0:0:0:0:
402,192,37885,1,0,0:0:0:0:
329,192,37885,1,0,0:0:0:0:
109,192,37968,1,0,0:0:0:0:
182,192,37968,1,0,0:0:0:0:
256,192,38052,1,0,0:0:0:0:
329,192,38052,1,0,0:0:0:0:
475,192,38135,1,0,0:0:0:0:
36,192,38135,1,0,0:0:0:0:
402,192,38135,1,0,0:0:0:0:
109,192,38218,1,0,0:0:0:0:
182,192,38218,1,0,0:0:0:0:
329,192,38301,1,0,0:0:0:0:
402,192,38301,1,0,0:0:0:0:
182,192,38384,1,0,0:0:0:0:
256,192,38384,1,0,0:0:0:0:
109,192,38467,1,0,0:0:0:0:
36,192,38467,1,0,0:0:0:0:
475,192,38467,1,0,0:0:0:0:
329,192,38550,1,0,0:0:0:0:
402,192,38550,1,0,0:0:0:0:
109,192,38634,1,0,0:0:0:0:
182,192,38634,1,0,0:0:0:0:
256,192,38634,1,0,0:0:0:0:
36,192,38634,1,0,0:0:0:0:
475,192,38634,1,0,0:0:0:0:
109,192,38966,1,0,0:0:0:0:
182,192,38966,1,0,0:0:0:0:
475,192,38966,1,0,0:0:0:0:
402,192,38966,1,0,0:0:0:0:
329,192,38966,1,0,0:0:0:0:
182,192,39299,1,0,0:0:0:0:
256,192,39299,1,0,0:0:0:0:
329,192,39299,1,0,0:0:0:0:
402,192,39299,1,0,0:0:0:0:
36,192,39299,1,0,0:0:0:0:
109,192,39465,1,0,0:0:0:0:
182,192,39465,1,0,0:0:0:0:
329,192,39465,1,0,0:0:0:0:
402,192,39465,1,0,0:0:0:0:
475,192,39465,1,0,0:0:0:0:
36,192,39465,1,0,0:0:0:0:
182,192,39798,1,0,0:0:0:0:
329,192,39798,1,0,0:0:0:0:
329,192,39964,1,0,0:0:0:0:
182,192,39964,1,0,0:0:0:0:
256,192,40130,1,0,0:0:0:0:
475,192,40130,1,0,0:0:0:0:
109,192,40130,1,0,0:0:0:0:
36,192,40130,128,0,40463:0:0:0:0:
402,192,40130,1,0,0:0:0:0:
182,192,40463,128,0,40795:0:0:0:0:
329,192,40463,1,0,0:0:0:0:
402,192,40795,128,0,40962:0:0:0:0:
36,192,40795,1,0,0:0:0:0:
475,192,40962,128,0,41294:0:0:0:0:
182,192,40962,1,0,0:0:0:0:
256,192,41294,128,0,41627:0:0:0:0:
109,192,41294,1,0,0:0:0:0:
36,192,41627,128,0,41793:0:0:0:0:
402,192,41627,1,0,0:0:0:0:
256,192,41793,1,0,0:0:0:0:
402,192,41960,128,0,42126:0:0:0:0:
182,192,41960,1,0,0:0:0:0:
329,192,42126,128,0,42458:0:0:0:0:
182,192,42292,1,0,0:0:0:0:
36,192,42458,128,0,42625:0:0:0:0:
256,192,42458,1,0,0:0:0:0:
109,192,42625,128,0,42791:0:0:0:0:
329,192,42625,1,0,0:0:0:0:
182,192,42791,128,0,43124:0:0:0:0:
402,192,42791,1,0,0:0:0:0:
256,192,43124,1,0,0:0:0:0:
329,192,43124,128,0,43290:0:0:0:0:
475,192,43456,128,0,43539:0:0:0:0:
109,192,43456,1,0,0:0:0:0:
475,192,43623,128,0,43955:0:0:0:0:
256,192,43623,1,0,0:0:0:0:
36,192,43789,128,0,43955:0:0:0:0:
329,192,43955,128,0,44787:0:0:0:0:
402,192,43955,1,0,0:0:0:0:
109,192,43955,128,0,44121:0:0:0:0:
182,192,44121,128,0,44454:0:0:0:0:
475,192,44288,1,0,0:0:0:0:
109,192,44454,128,0,44620:0:0:0:0:
256,192,44620,1,0,0:0:0:0:
36,192,44787,128,0,44870:0:0:0:0:
36,192,44953,128,0,45286:0:0:0:0:
329,192,44953,1,0,0:0:0:0:
475,192,45119,128,0,45286:0:0:0:0:
182,192,45286,128,0,46117:0:0:0:0:
329,192,45286,128,0,45452:0:0:0:0:
109,192,45286,1,0,0:0:0:0:
402,192,45452,128,0,45784:0:0:0:0:
256,192,45452,1,0,0:0:0:0:
36,192,45784,1,0,0:0:0:0:
475,192,45784,128,0,45951:0:0:0:0:
109,192,46117,128,0,46283:0:0:0:0:
329,192,46117,1,0,0:0:0:0:
256,192,46283,128,0,46616:0:0:0:0:
402,192,46283,1,0,0:0:0:0:
402,192,46616,128,0,46782:0:0:0:0:
109,192,46616,1,0,0:0:0:0:
182,192,46948,128,0,47281:0:0:0:0:
329,192,46948,1,0,0:0:0:0:
475,192,47115,1,0,0:0:0:0:
329,192,47281,128,0,47447:0:0:0:0:
256,192,47281,1,0,0:0:0:0:
109,192,47447,128,0,47614:0:0:0:0:
182,192,47614,1,0,0:0:0:0:
475,192,47780,128,0,47946:0:0:0:0:
256,192,47780,1,0,0:0:0:0:
329,192,47946,128,0,48113:0:0:0:0:
109,192,47946,1,0,0:0:0:0:
182,192,48113,128,0,48279:0:0:0:0:
36,192,48113,1,0,0:0:0:0:
256,192,48445,128,0,48611:0:0:0:0:
402,192,48445,1,0,0:0:0:0:
402,192,48778,128,0,48944:0:0:0:0:
109,192,48778,1,0,0:0:0:0:
329,192,48944,128,0,49110:0:0:0:0:
256,192,48944,1,0,0:0:0:0:
36,192,49110,128,0,49277:0:0:0:0:
475,192,49277,128,0,50108:0:0:0:0:
329,192,49277,1,0,0:0:0:0:
182,192,49277,128,0,49443:0:0:0:0:
109,192,49443,128,0,49609:0:0:0:0:
256,192,49609,1,0,0:0:0:0:
182,192,49776,128,0,49942:0:0:0:0:
402,192,49776,1,0,0:0:0:0:
256,192,50108,128,0,50274:0:0:0:0:
36,192,50108,1,0,0:0:0:0:
109,192,50274,128,0,50441:0:0:0:0:
329,192,50441,128,0,50607:0:0:0:0:
402,192,50441,1,0,0:0:0:0:
36,192,50607,128,0,51439:0:0:0:0:
475,192,50607,128,0,50773:0:0:0:0:
402,192,50773,128,0,51106:0:0:0:0:
182,192,50773,1,0,0:0:0:0:
182,192,51106,128,0,51272:0:0:0:0:
329,192,51106,1,0,0:0:0:0:
329,192,51439,128,0,51605:0:0:0:0:
256,192,51439,1,0,0:0:0:0:
475,192,51605,128,0,51771:0:0:0:0:
36,192,51605,1,0,0:0:0:0:
109,192,51937,128,0,52104:0:0:0:0:
329,192,51937,1,0,0:0:0:0:
402,192,52270,128,0,52436:0:0:0:0:
182,192,52270,1,0,0:0:0:0:
329,192,52436,1,0,0:0:0:0:
182,192,52603,128,0,52769:0:0:0:0:
36,192,52603,1,0,0:0:0:0:
329,192,52769,128,0,52935:0:0:0:0:
475,192,52935,1,0,0:0:0:0:
109,192,53101,128,0,53268:0:0:0:0:
475,192,53101,1,0,0:0:0:0:
256,192,53268,128,0,53434:0:0:0:0:
36,192,53268,1,0,0:0:0:0:
182,192,53434,128,0,53600:0:0:0:0:
402,192,53434,1,0,0:0:0:0:
329,192,53767,128,0,53933:0:0:0:0:
182,192,53767,1,0,0:0:0:0:
109,192,54099,128,0,54266:0:0:0:0:
256,192,54099,1,0,0:0:0:0:
402,192,54266,128,0,54432:0:0:0:0:
329,192,54266,1,0,0:0:0:0:
36,192,54598,128,0,54764:0:0:0:0:
256,192,54598,1,0,0:0:0:0:
182,192,54931,128,0,55097:0:0:0:0:
329,192,54931,1,0,0:0:0:0:
402,192,55263,128,0,55346:0:0:0:0:
109,192,55263,1,0,0:0:0:0:
402,192,55430,128,0,55513:0:0:0:0:
256,192,55596,1,0,0:0:0:0:
109,192,55762,128,0,55929:0:0:0:0:
402,192,55929,1,0,0:0:0:0:
256,192,56095,128,0,56261:0:0:0:0:
36,192,56095,1,0,0:0:0:0:
182,192,56427,128,0,56594:0:0:0:0:
329,192,56427,1,0,0:0:0:0:
475,192,56760,128,0,56926:0:0:0:0:
109,192,56760,1,0,0:0:0:0:
402,192,56926,128,0,57093:0:0:0:0:
256,192,56926,1,0,0:0:0:0:
109,192,57259,128,0,57591:0:0:0:0:
329,192,57259,1,0,0:0:0:0:
329,192,57591,128,0,57758:0:0:0:0:
475,192,57591,1,0,0:0:0:0:
182,192,57758,128,0,57924:0:0:0:0:
36,192,57758,1,0,0:0:0:0:
402,192,57924,128,0,58090:0:0:0:0:
256,192,57924,1,0,0:0:0:0:
36,192,58257,128,0,58340:0:0:0:0:
329,192,58257,1,0,0:0:0:0:
36,192,58423,128,0,58506:0:0:0:0:
256,192,58423,1,0,0:0:0:0:
402,192,58589,1,0,0:0:0:0:
182,192,58756,128,0,59088:0:0:0:0:
109,192,58756,1,0,0:0:0:0:
475,192,59088,128,0,59421:0:0:0:0:
256,192,59088,1,0,0:0:0:0:
329,192,59421,128,0,59587:0:0:0:0:
36,192,59421,1,0,0:0:0:0:
402,192,59587,128,0,59753:0:0:0:0:
182,192,59587,1,0,0:0:0:0:
329,192,59920,128,0,60751:0:0:0:0:
256,192,59920,1,0,0:0:0:0:
36,192,60086,128,0,60419:0:0:0:0:
475,192,60252,1,0,0:0:0:0:
182,192,60419,128,0,60751:0:0:0:0:
256,192,60419,1,0,0:0:0:0:
109,192,60751,128,0,60917:0:0:0:0:
402,192,60751,1,0,0:0:0:0:
182,192,60917,128,0,61084:0:0:0:0:
329,192,61084,1,0,0:0:0:0:
475,192,61084,128,0,61250:0:0:0:0:
36,192,61250,128,0,62082:0:0:0:0:
402,192,61250,128,0,61416:0:0:0:0:
329,192,61416,128,0,61583:0:0:0:0:
256,192,61416,1,0,0:0:0:0:
109,192,61416,1,0,0:0:0:0:
182,192,61749,1,0,0:0:0:0:
329,192,61749,1,0,0:0:0:0:
329,192,62082,128,0,62248:0:0:0:0:
475,192,62082,128,0,62248:0:0:0:0:
182,192,62248,128,0,62414:0:0:0:0:
36,192,62248,128,0,62414:0:0:0:0:
256,192,62580,128,0,63246:0:0:0:0:
402,192,62580,128,0,63246:0:0:0:0:
36,192,63412,1,0,0:0:0:0:
475,192,63412,1,0,0:0:0:0:
182,192,63578,1,0,0:0:0:0:
329,192,63578,1,0,0:0:0:0:
182,192,63911,1,0,0:0:0:0:
329,192,63911,1,0,0:0:0:0:
109,192,64077,1,0,0:0:0:0:
475,192,64077,1,0,0:0:0:0:
36,192,64077,1,0,0:0:0:0:
256,192,64077,1,0,0:0:0:0:
402,192,64160,1,0,0:0:0:0:
182,192,64243,1,0,0:0:0:0:
329,192,64327,1,0,0:0:0:0:
475,192,64410,1,0,0:0:0:0:
36,192,64410,1,0,0:0:0:0:
256,192,64410,1,0,0:0:0:0:
109,192,64493,1,0,0:0:0:0:
182,192,64576,1,0,0:0:0:0:
329,192,64659,1,0,0:0:0:0:
475,192,64742,1,0,0:0:0:0:
36,192,64742,1,0,0:0:0:0:
256,192,64742,1,0,0:0:0:0:
182,192,64825,1,0,0:0:0:0:
402,192,64909,1,0,0:0:0:0:
109,192,64992,1,0,0:0:0:0:
256,192,65075,1,0,0:0:0:0:
36,192,65075,1,0,0:0:0:0:
475,192,65075,1,0,0:0:0:0:
329,192,65158,1,0,0:0:0:0:
402,192,65241,1,0,0:0:0:0:
109,192,65241,1,0,0:0:0:0:
182,192,65324,1,0,0:0:0:0:
475,192,65407,1,0,0:0:0:0:
36,192,65407,1,0,0:0:0:0:
256,192,65407,1,0,0:0:0:0:
329,192,65491,1,0,0:0:0:0:
182,192,65574,1,0,0:0:0:0:
402,192,65657,1,0,0:0:0:0:
36,192,65740,1,0,0:0:0:0:
475,192,65740,1,0,0:0:0:0:
256,192,65740,1,0,0:0:0:0:
182,192,65823,1,0,0:0:0:0:
329,192,65906,1,0,0:0:0:0:
109,192,65990,1,0,0:0:0:0:
475,192,66073,1,0,0:0:0:0:
36,192,66073,1,0,0:0:0:0:
256,192,66073,1,0,0:0:0:0:
402,192,66156,1,0,0:0:0:0:
109,192,66239,1,0,0:0:0:0:
329,192,66322,1,0,0:0:0:0:
36,192,66405,1,0,0:0:0:0:
475,192,66405,1,0,0:0:0:0:
256,192,66405,1,0,0:0:0:0:
182,192,66488,1,0,0:0:0:0:
109,192,66572,1,0,0:0:0:0:
329,192,66655,1,0,0:0:0:0:
36,192,66738,1,0,0:0:0:0:
475,192,66738,1,0,0:0:0:0:
256,192,66738,1,0,0:0:0:0:
402,192,66821,1,0,0:0:0:0:
182,192,66904,1,0,0:0:0:0:
329,192,66987,1,0,0:0:0:0:
475,192,67070,1,0,0:0:0:0:
36,192,67070,1,0,0:0:0:0:
256,192,67070,1,0,0:0:0:0:
109,192,67154,1,0,0:0:0:0:
182,192,67237,1,0,0:0:0:0:
329,192,67320,1,0,0:0:0:0:
475,192,67403,1,0,0:0:0:0:
36,192,67403,1,0,0:0:0:0:
256,192,67403,1,0,0:0:0:0:
182,192,67486,1,0,0:0:0:0:
329,192,67569,1,0,0:0:0:0:
182,192,67652,1,0,0:0:0:0:
36,192,67736,1,0,0:0:0:0:
475,192,67736,1,0,0:0:0:0:
256,192,67736,1,0,0:0:0:0:
402,192,67819,1,0,0:0:0:0:
182,192,67902,1,0,0:0:0:0:
329,192,67985,1,0,0:0:0:0:
36,192,68068,1,0,0:0:0:0:
475,192,68068,1,0,0:0:0:0:
256,192,68068,1,0,0:0:0:0:
109,192,68151,1,0,0:0:0:0:
329,192,68235,1,0,0:0:0:0:
182,192,68318,1,0,0:0:0:0:
475,192,68401,1,0,0:0:0:0:
36,192,68401,1,0,0:0:0:0:
256,192,68401,1,0,0:0:0:0:
329,192,68484,1,0,0:0:0:0:
109,192,68567,1,0,0:0:0:0:
402,192,68650,1,0,0:0:0:0:
475,192,68733,1,0,0:0:0:0:
36,192,68733,1,0,0:0:0:0:
256,192,68733,1,0,0:0:0:0:
182,192,68817,1,0,0:0:0:0:
402,192,68900,1,0,0:0:0:0:
329,192,68983,1,0,0:0:0:0:
36,192,69066,1,0,0:0:0:0:
475,192,69066,1,0,0:0:0:0:
256,192,69066,1,0,0:0:0:0:
109,192,69149,1,0,0:0:0:0:
329,192,69232,1,0,0:0:0:0:
182,192,69315,1,0,0:0:0:0:
36,192,69399,1,0,0:0:0:0:
475,192,69399,1,0,0:0:0:0:
256,192,69399,1,0,0:0:0:0:
402,192,69482,1,0,0:0:0:0:
329,192,69565,1,0,0:0:0:0:
475,192,69565,1,0,0:0:0:0:
109,192,69565,1,0,0:0:0:0:
182,192,69648,1,0,0:0:0:0:
256,192,69731,1,0,0:0:0:0:
36,192,69731,1,0,0:0:0:0:
402,192,69731,1,0,0:0:0:0:
182,192,69814,1,0,0:0:0:0:
109,192,69897,1,0,0:0:0:0:
329,192,69897,1,0,0:0:0:0:
475,192,69897,1,0,0:0:0:0:
402,192,69981,1,0,0:0:0:0:
256,192,70064,1,0,0:0:0:0:
475,192,70064,1,0,0:0:0:0:
36,192,70064,1,0,0:0:0:0:
109,192,70147,1,0,0:0:0:0:
182,192,70230,1,0,0:0:0:0:
329,192,70230,1,0,0:0:0:0:
36,192,70230,1,0,0:0:0:0:
402,192,70313,1,0,0:0:0:0:
475,192,70396,1,0,0:0:0:0:
109,192,70396,1,0,0:0:0:0:
256,192,70396,1,0,0:0:0:0:
182,192,70480,1,0,0:0:0:0:
329,192,70563,1,0,0:0:0:0:
36,192,70563,1,0,0:0:0:0:
402,192,70563,1,0,0:0:0:0:
256,192,70646,1,0,0:0:0:0:
182,192,70729,1,0,0:0:0:0:
109,192,70729,1,0,0:0:0:0:
475,192,70729,1,0,0:0:0:0:
329,192,70812,1,0,0:0:0:0:
256,192,70895,1,0,0:0:0:0:
402,192,70895,1,0,0:0:0:0:
36,192,70895,1,0,0:0:0:0:
109,192,70978,1,0,0:0:0:0:
182,192,71062,1,0,0:0:0:0:
329,192,71062,1,0,0:0:0:0:
475,192,71062,1,0,0:0:0:0:
402,192,71145,1,0,0:0:0:0:
256,192,71228,1,0,0:0:0:0:
36,192,71228,1,0,0:0:0:0:
475,192,71228,1,0,0:0:0:0:
182,192,71311,1,0,0:0:0:0:
109,192,71394,1,0,0:0:0:0:
329,192,71394,1,0,0:0:0:0:
402,192,71394,1,0,0:0:0:0:
475,192,71477,1,0,0:0:0:0:
256,192,71560,1,0,0:0:0:0:
36,192,71560,1,0,0:0:0:0:
182,192,71560,1,0,0:0:0:0:
329,192,71644,1,0,0:0:0:0:
402,192,71727,1,0,0:0:0:0:
182,192,71727,1,0,0:0:0:0:
109,192,71727,1,0,0:0:0:0:
256,192,71810,1,0,0:0:0:0:
36,192,71893,1,0,0:0:0:0:
475,192,71893,1,0,0:0:0:0:
402,192,71893,1,0,0:0:0:0:
329,192,71976,1,0,0:0:0:0:
182,192,72059,1,0,0:0:0:0:
475,192,72059,1,0,0:0:0:0:
109,192,72059,1,0,0:0:0:0:
256,192,72142,1,0,0:0:0:0:
402,192,72142,1,0,0:0:0:0:
109,192,72226,1,0,0:0:0:0:
36,192,72226,1,0,0:0:0:0:
182,192,72309,1,0,0:0:0:0:
329,192,72309,1,0,0:0:0:0:
402,192,72392,1,0,0:0:0:0:
475,192,72392,1,0,0:0:0:0:
36,192,72392,1,0,0:0:0:0:
109,192,72475,1,0,0:0:0:0:
182,192,72475,1,0,0:0:0:0:
256,192,72558,1,0,0:0:0:0:
329,192,72558,1,0,0:0:0:0:
109,192,72641,1,0,0:0:0:0:
36,192,72641,1,0,0:0:0:0:
402,192,72725,1,0,0:0:0:0:
475,192,72725,1,0,0:0:0:0:
329,192,72725,1,0,0:0:0:0:
109,192,72808,1,0,0:0:0:0:
182,192,72808,1,0,0:0:0:0:
256,192,72891,1,0,0:0:0:0:
329,192,72891,1,0,0:0:0:0:
109,192,72974,1,0,0:0:0:0:
36,192,72974,1,0,0:0:0:0:
329,192,73057,1,0,0:0:0:0:
402,192,73057,1,0,0:0:0:0:
475,192,73057,1,0,0:0:0:0:
182,192,73140,1,0,0:0:0:0:
109,192,73140,1,0,0:0:0:0:
329,192,73223,1,0,0:0:0:0:
256,192,73223,1,0,0:0:0:0:
402,192,73307,1,0,0:0:0:0:
475,192,73307,1,0,0:0:0:0:
36,192,73390,128,0,73722:0:0:0:0:
182,192,73556,128,0,73722:0:0:0:0:
475,192,73722,1,0,0:0:0:0:
329,192,73805,1,0,0:0:0:0:
475,192,73889,1,0,0:0:0:0:
329,192,73972,1,0,0:0:0:0:
109,192,74055,1,0,0:0:0:0:
475,192,74055,1,0,0:0:0:0:
256,192,74138,1,0,0:0:0:0:
109,192,74221,1,0,0:0:0:0:
256,192,74304,1,0,0:0:0:0:
109,192,74388,1,0,0:0:0:0:
402,192,74388,1,0,0:0:0:0:
475,192,74388,1,0,0:0:0:0:
36,192,74720,1,0,0:0:0:0:
109,192,74720,1,0,0:0:0:0:
329,192,74720,1,0,0:0:0:0:
402,192,74720,1,0,0:0:0:0:
475,192,74720,1,0,0:0:0:0:
182,192,74720,128,0,74886:0:0:0:0:
256,192,74886,1,0,0:0:0:0:
402,192,74886,1,0,0:0:0:0:
475,192,75053,1,0,0:0:0:0:
182,192,75053,1,0,0:0:0:0:
109,192,75053,1,0,0:0:0:0:
36,192,75053,1,0,0:0:0:0:
329,192,75053,128,0,75219:0:0:0:0:
109,192,75219,1,0,0:0:0:0:
256,192,75219,1,0,0:0:0:0:
182,192,75385,1,0,0:0:0:0:
329,192,75385,1,0,0:0:0:0:
475,192,75385,1,0,0:0:0:0:
402,192,75385,1,0,0:0:0:0:
36,192,75385,128,0,75552:0:0:0:0:
256,192,75552,128,0,75718:0:0:0:0:
402,192,75552,1,0,0:0:0:0:
329,192,75718,1,0,0:0:0:0:
475,192,75718,1,0,0:0:0:0:
182,192,75718,1,0,0:0:0:0:
36,192,75718,1,0,0:0:0:0:
109,192,75718,1,0,0:0:0:0:
256,192,75884,1,0,0:0:0:0:
402,192,75884,128,0,76050:0:0:0:0:
475,192,76050,1,0,0:0:0:0:
329,192,76050,1,0,0:0:0:0:
182,192,76050,1,0,0:0:0:0:
36,192,76050,1,0,0:0:0:0:
109,192,76050,1,0,0:0:0:0:
256,192,76217,1,0,0:0:0:0:
109,192,76217,128,0,76383:0:0:0:0:
182,192,76383,1,0,0:0:0:0:
329,192,76383,1,0,0:0:0:0:
36,192,76383,1,0,0:0:0:0:
256,192,76383,1,0,0:0:0:0:
475,192,76383,128,0,76549:0:0:0:0:
329,192,76549,1,0,0:0:0:0:
182,192,76549,128,0,76716:0:0:0:0:
256,192,76716,1,0,0:0:0:0:
402,192,76716,1,0,0:0:0:0:
475,192,76716,1,0,0:0:0:0:
36,192,76716,1,0,0:0:0:0:
109,192,76716,1,0,0:0:0:0:
182,192,76882,1,0,0:0:0:0:
475,192,76882,128,0,77048:0:0:0:0:
109,192,77048,1,0,0:0:0:0:
36,192,77048,1,0,0:0:0:0:
329,192,77048,1,0,0:0:0:0:
402,192,77048,1,0,0:0:0:0:
256,192,77048,128,0,77215:0:0:0:0:
182,192,77215,128,0,77381:0:0:0:0:
402,192,77215,1,0,0:0:0:0:
475,192,77381,1,0,0:0:0:0:
109,192,77381,1,0,0:0:0:0:
36,192,77381,1,0,0:0:0:0:
256,192,77381,1,0,0:0:0:0:
329,192,77381,128,0,77547:0:0:0:0:
182,192,77547,1,0,0:0:0:0:
402,192,77547,1,0,0:0:0:0:
109,192,77713,1,0,0:0:0:0:
256,192,77713,1,0,0:0:0:0:
329,192,77713,1,0,0:0:0:0:
475,192,77713,1,0,0:0:0:0:
36,192,77713,128,0,77880:0:0:0:0:
182,192,77880,1,0,0:0:0:0:
329,192,77880,1,0,0:0:0:0:
36,192,78046,1,0,0:0:0:0:
402,192,78046,1,0,0:0:0:0:
475,192,78046,1,0,0:0:0:0:
109,192,78046,1,0,0:0:0:0:
256,192,78046,128,0,78212:0:0:0:0:
109,192,78212,1,0,0:0:0:0:
329,192,78212,128,0,78379:0:0:0:0:
182,192,78379,1,0,0:0:0:0:
36,192,78379,1,0,0:0:0:0:
256,192,78379,1,0,0:0:0:0:
402,192,78379,1,0,0:0:0:0:
475,192,78379,1,0,0:0:0:0:
182,192,78545,1,0,0:0:0:0:
402,192,78545,128,0,78711:0:0:0:0:
256,192,78711,1,0,0:0:0:0:
109,192,78711,1,0,0:0:0:0:
329,192,78711,1,0,0:0:0:0:
475,192,78711,1,0,0:0:0:0:
36,192,78711,1,0,0:0:0:0:
329,192,78878,1,0,0:0:0:0:
109,192,78878,128,0,79044:0:0:0:0:
182,192,79044,1,0,0:0:0:0:
256,192,79044,1,0,0:0:0:0:
402,192,79044,1,0,0:0:0:0:
475,192,79044,1,0,0:0:0:0:
36,192,79044,1,0,0:0:0:0:
182,192,79210,1,0,0:0:0:0:
329,192,79210,128,0,79376:0:0:0:0:
256,192,79376,1,0,0:0:0:0:
109,192,79376,1,0,0:0:0:0:
36,192,79376,1,0,0:0:0:0:
402,192,79376,1,0,0:0:0:0:
475,192,79376,1,0,0:0:0:0:
329,192,79543,1,0,0:0:0:0:
109,192,79543,128,0,79709:0:0:0:0:
182,192,79709,1,0,0:0:0:0:
256,192,79709,1,0,0:0:0:0:
329,192,79709,1,0,0:0:0:0:
36,192,79709,1,0,0:0:0:0:
475,192,79709,1,0,0:0:0:0:
402,192,79875,1,0,0:0:0:0:
256,192,79875,128,0,80042:0:0:0:0:
182,192,80042,1,0,0:0:0:0:
109,192,80042,1,0,0:0:0:0:
329,192,80042,1,0,0:0:0:0:
402,192,80042,1,0,0:0:0:0:
36,192,80042,128,0,80208:0:0:0:0:
475,192,80208,1,0,0:0:0:0:
182,192,80208,1,0,0:0:0:0:
256,192,80374,1,0,0:0:0:0:
329,192,80374,1,0,0:0:0:0:
109,192,80374,1,0,0:0:0:0:
36,192,80374,1,0,0:0:0:0:
402,192,80374,128,0,80541:0:0:0:0:
329,192,80541,1,0,0:0:0:0:
182,192,80541,1,0,0:0:0:0:
256,192,80707,1,0,0:0:0:0:
109,192,80707,1,0,0:0:0:0:
36,192,80707,1,0,0:0:0:0:
402,192,80707,1,0,0:0:0:0:
475,192,80707,128,0,80873:0:0:0:0:
182,192,80873,128,0,81039:0:0:0:0:
329,192,80873,1,0,0:0:0:0:
329,192,81039,1,0,0:0:0:0:
475,192,81039,1,0,0:0:0:0:
256,192,81039,1,0,0:0:0:0:
109,192,81039,1,0,0:0:0:0:
36,192,81039,1,0,0:0:0:0:
402,192,81206,1,0,0:0:0:0:
109,192,81206,128,0,81372:0:0:0:0:
36,192,81372,1,0,0:0:0:0:
182,192,81372,1,0,0:0:0:0:
256,192,81372,1,0,0:0:0:0:
329,192,81372,1,0,0:0:0:0:
402,192,81372,1,0,0:0:0:0:
256,192,81538,1,0,0:0:0:0:
475,192,81538,128,0,81705:0:0:0:0:
329,192,81705,1,0,0:0:0:0:
402,192,81705,1,0,0:0:0:0:
36,192,81705,1,0,0:0:0:0:
109,192,81705,1,0,0:0:0:0:
182,192,81705,128,0,81871:0:0:0:0:
402,192,81871,1,0,0:0:0:0:
256,192,81871,128,0,82037:0:0:0:0:
182,192,82037,1,0,0:0:0:0:
329,192,82037,1,0,0:0:0:0:
109,192,82037,1,0,0:0:0:0:
36,192,82037,1,0,0:0:0:0:
475,192,82037,1,0,0:0:0:0:
256,192,82203,1,0,0:0:0:0:
402,192,82203,128,0,82370:0:0:0:0:
329,192,82370,1,0,0:0:0:0:
475,192,82370,1,0,0:0:0:0:
109,192,82370,1,0,0:0:0:0:
36,192,82370,1,0,0:0:0:0:
182,192,82370,128,0,82536:0:0:0:0:
329,192,82536,1,0,0:0:0:0:
36,192,82536,128,0,82702:0:0:0:0:
182,192,82702,1,0,0:0:0:0:
475,192,82702,1,0,0:0:0:0:
109,192,82702,1,0,0:0:0:0:
402,192,82702,1,0,0:0:0:0:
256,192,82702,128,0,82869:0:0:0:0:
109,192,82869,1,0,0:0:0:0:
329,192,82869,1,0,0:0:0:0:
36,192,83035,1,0,0:0:0:0:
256,192,83035,1,0,0:0:0:0:
475,192,83035,1,0,0:0:0:0:
402,192,83035,1,0,0:0:0:0:
182,192,83035,128,0,83201:0:0:0:0:
109,192,83201,1,0,0:0:0:0:
329,192,83201,1,0,0:0:0:0:
36,192,83368,1,0,0:0:0:0:
256,192,83368,1,0,0:0:0:0:
402,192,83368,1,0,0:0:0:0:
475,192,83368,1,0,0:0:0:0:
182,192,83368,128,0,83534:0:0:0:0:
36,192,83534,1,0,0:0:0:0:
329,192,83534,128,0,83700:0:0:0:0:
109,192,83700,1,0,0:0:0:0:
182,192,83700,1,0,0:0:0:0:
256,192,83700,1,0,0:0:0:0:
402,192,83700,1,0,0:0:0:0:
475,192,83700,1,0,0:0:0:0:
182,192,83866,1,0,0:0:0:0:
402,192,83866,128,0,84033:0:0:0:0:
475,192,84033,1,0,0:0:0:0:
329,192,84033,1,0,0:0:0:0:
256,192,84033,1,0,0:0:0:0:
109,192,84033,1,0,0:0:0:0:
36,192,84033,1,0,0:0:0:0:
256,192,84199,1,0,0:0:0:0:
109,192,84199,128,0,84365:0:0:0:0:
182,192,84365,1,0,0:0:0:0:
402,192,84365,1,0,0:0:0:0:
36,192,84365,1,0,0:0:0:0:
475,192,84365,1,0,0:0:0:0:
329,192,84365,128,0,84532:0:0:0:0:
256,192,84532,1,0,0:0:0:0:
109,192,84532,1,0,0:0:0:0:
109,192,84698,1,0,0:0:0:0:
329,192,84698,1,0,0:0:0:0:
402,192,84698,1,0,0:0:0:0:
475,192,84698,1,0,0:0:0:0:
182,192,84698,128,0,84864:0:0:0:0:
36,192,84864,1,0,0:0:0:0:
329,192,84864,1,0,0:0:0:0:
182,192,85031,1,0,0:0:0:0:
36,192,85031,1,0,0:0:0:0:
402,192,85031,1,0,0:0:0:0:
475,192,85031,1,0,0:0:0:0:
256,192,85031,128,0,85197:0:0:0:0:
109,192,85197,1,0,0:0:0:0:
402,192,85197,1,0,0:0:0:0:
36,192,85363,1,0,0:0:0:0:
109,192,85363,1,0,0:0:0:0:
182,192,85363,1,0,0:0:0:0:
475,192,85363,1,0,0:0:0:0:
329,192,85363,128,0,85529:0:0:0:0:
256,192,85529,1,0,0:0:0:0:
402,192,85529,1,0,0:0:0:0:
182,192,85696,1,0,0:0:0:0:
329,192,85696,1,0,0:0:0:0:
109,192,85696,1,0,0:0:0:0:
36,192,85696,1,0,0:0:0:0:
475,192,85696,128,0,85862:0:0:0:0:
182,192,85862,1,0,0:0:0:0:
402,192,85862,1,0,0:0:0:0:
109,192,86028,1,0,0:0:0:0:
256,192,86028,1,0,0:0:0:0:
475,192,86028,1,0,0:0:0:0:
329,192,86028,1,0,0:0:0:0:
36,192,86028,128,0,86195:0:0:0:0:
182,192,86195,128,0,86361:0:0:0:0:
329,192,86195,1,0,0:0:0:0:
402,192,86361,1,0,0:0:0:0:
475,192,86361,1,0,0:0:0:0:
256,192,86361,1,0,0:0:0:0:
36,192,86361,1,0,0:0:0:0:
109,192,86361,1,0,0:0:0:0:
402,192,86527,1,0,0:0:0:0:
256,192,86527,128,0,86693:0:0:0:0:
475,192,86693,1,0,0:0:0:0:
329,192,86693,1,0,0:0:0:0:
182,192,86693,1,0,0:0:0:0:
36,192,86693,1,0,0:0:0:0:
109,192,86693,1,0,0:0:0:0:
329,192,86860,1,0,0:0:0:0:
109,192,86860,128,0,87026:0:0:0:0:
182,192,87026,1,0,0:0:0:0:
475,192,87026,1,0,0:0:0:0:
36,192,87026,1,0,0:0:0:0:
256,192,87026,1,0,0:0:0:0:
402,192,87026,128,0,87192:0:0:0:0:
329,192,87192,1,0,0:0:0:0:
182,192,87192,128,0,87359:0:0:0:0:
256,192,87359,1,0,0:0:0:0:
402,192,87359,1,0,0:0:0:0:
475,192,87359,1,0,0:0:0:0:
36,192,87359,1,0,0:0:0:0:
109,192,87359,1,0,0:0:0:0:
329,192,87525,1,0,0:0:0:0:
36,192,87525,128,0,87691:0:0:0:0:
109,192,87691,1,0,0:0:0:0:
475,192,87691,1,0,0:0:0:0:
182,192,87691,1,0,0:0:0:0:
402,192,87691,1,0,0:0:0:0:
256,192,87691,128,0,87858:0:0:0:0:
329,192,87858,128,0,88024:0:0:0:0:
109,192,87858,1,0,0:0:0:0:
475,192,88024,1,0,0:0:0:0:
182,192,88024,1,0,0:0:0:0:
36,192,88024,1,0,0:0:0:0:
256,192,88024,1,0,0:0:0:0:
402,192,88024,128,0,88190:0:0:0:0:
109,192,88190,1,0,0:0:0:0:
329,192,88190,1,0,0:0:0:0:
109,192,88356,1,0,0:0:0:0:
36,192,88356,1,0,0:0:0:0:
329,192,88356,1,0,0:0:0:0:
475,192,88356,1,0,0:0:0:0:
256,192,88356,128,0,88523:0:0:0:0:
182,192,88523,1,0,0:0:0:0:
402,192,88523,1,0,0:0:0:0:
36,192,88689,1,0,0:0:0:0:
256,192,88689,1,0,0:0:0:0:
475,192,88689,1,0,0:0:0:0:
109,192,88689,1,0,0:0:0:0:
329,192,88689,128,0,88855:0:0:0:0:
402,192,88855,1,0,0:0:0:0:
182,192,88855,128,0,89022:0:0:0:0:
109,192,89022,1,0,0:0:0:0:
36,192,89022,1,0,0:0:0:0:
256,192,89022,1,0,0:0:0:0:
402,192,89022,1,0,0:0:0:0:
475,192,89022,1,0,0:0:0:0:
256,192,89188,1,0,0:0:0:0:
36,192,89188,128,0,89354:0:0:0:0:
182,192,89354,1,0,0:0:0:0:
109,192,89354,1,0,0:0:0:0:
329,192,89354,1,0,0:0:0:0:
475,192,89354,1,0,0:0:0:0:
402,192,89354,1,0,0:0:0:0:
182,192,89521,1,0,0:0:0:0:
329,192,89521,128,0,89687:0:0:0:0:
109,192,89687,1,0,0:0:0:0:
256,192,89687,1,0,0:0:0:0:
402,192,89687,1,0,0:0:0:0:
475,192,89687,1,0,0:0:0:0:
36,192,89687,1,0,0:0:0:0:
402,192,89853,1,0,0:0:0:0:
182,192,89853,128,0,90019:0:0:0:0:
256,192,90019,1,0,0:0:0:0:
109,192,90019,1,0,0:0:0:0:
36,192,90019,1,0,0:0:0:0:
329,192,90019,1,0,0:0:0:0:
475,192,90019,1,0,0:0:0:0:
256,192,90186,1,0,0:0:0:0:
402,192,90186,128,0,90352:0:0:0:0:
182,192,90352,1,0,0:0:0:0:
109,192,90352,1,0,0:0:0:0:
329,192,90352,1,0,0:0:0:0:
36,192,90352,1,0,0:0:0:0:
475,192,90352,1,0,0:0:0:0:
256,192,90518,1,0,0:0:0:0:
109,192,90518,128,0,90685:0:0:0:0:
182,192,90685,1,0,0:0:0:0:
475,192,90685,1,0,0:0:0:0:
329,192,90685,1,0,0:0:0:0:
402,192,90685,1,0,0:0:0:0:
36,192,90685,128,0,90851:0:0:0:0:
402,192,90851,1,0,0:0:0:0:
182,192,90851,1,0,0:0:0:0:
256,192,91017,1,0,0:0:0:0:
475,192,91017,1,0,0:0:0:0:
109,192,91017,1,0,0:0:0:0:
36,192,91017,1,0,0:0:0:0:
329,192,91017,128,0,91184:0:0:0:0:
402,192,91184,1,0,0:0:0:0:
182,192,91184,1,0,0:0:0:0:
256,192,91350,1,0,0:0:0:0:
109,192,91350,1,0,0:0:0:0:
36,192,91350,1,0,0:0:0:0:
475,192,91350,1,0,0:0:0:0:
402,192,91350,128,0,91516:0:0:0:0:
329,192,91516,128,0,91682:0:0:0:0:
182,192,91516,1,0,0:0:0:0:
182,192,91682,1,0,0:0:0:0:
475,192,91682,1,0,0:0:0:0:
402,192,91682,1,0,0:0:0:0:
109,192,91682,1,0,0:0:0:0:
36,192,91682,1,0,0:0:0:0:
402,192,91849,1,0,0:0:0:0:
256,192,91849,128,0,92015:0:0:0:0:
36,192,92015,1,0,0:0:0:0:
182,192,92015,1,0,0:0:0:0:
109,192,92015,1,0,0:0:0:0:
329,192,92015,1,0,0:0:0:0:
475,192,92015,1,0,0:0:0:0:
256,192,92181,1,0,0:0:0:0:
36,192,92181,128,0,92348:0:0:0:0:
475,192,92348,1,0,0:0:0:0:
402,192,92348,1,0,0:0:0:0:
329,192,92348,1,0,0:0:0:0:
109,192,92348,1,0,0:0:0:0:
182,192,92348,128,0,92514:0:0:0:0:
256,192,92514,1,0,0:0:0:0:
402,192,92514,128,0,92680:0:0:0:0:
182,192,92680,1,0,0:0:0:0:
329,192,92680,1,0,0:0:0:0:
109,192,92680,1,0,0:0:0:0:
36,192,92680,1,0,0:0:0:0:
475,192,92680,1,0,0:0:0:0:
329,192,92846,1,0,0:0:0:0:
256,192,92846,128,0,93013:0:0:0:0:
402,192,93013,1,0,0:0:0:0:
475,192,93013,1,0,0:0:0:0:
182,192,93013,1,0,0:0:0:0:
36,192,93013,1,0,0:0:0:0:
109,192,93013,128,0,93179:0:0:0:0:
256,192,93179,1,0,0:0:0:0:
402,192,93179,128,0,93345:0:0:0:0:
182,192,93345,1,0,0:0:0:0:
475,192,93345,1,0,0:0:0:0:
109,192,93345,1,0,0:0:0:0:
329,192,93345,1,0,0:0:0:0:
36,192,93345,128,0,93512:0:0:0:0:
182,192,93512,1,0,0:0:0:0:
329,192,93512,1,0,0:0:0:0:
109,192,93678,1,0,0:0:0:0:
36,192,93678,1,0,0:0:0:0:
475,192,93678,1,0,0:0:0:0:
402,192,93678,1,0,0:0:0:0:
256,192,93678,128,0,93844:0:0:0:0:
109,192,93844,1,0,0:0:0:0:
329,192,93844,1,0,0:0:0:0:
36,192,94011,1,0,0:0:0:0:
182,192,94011,1,0,0:0:0:0:
256,192,94011,1,0,0:0:0:0:
475,192,94011,1,0,0:0:0:0:
402,192,94011,128,0,94177:0:0:0:0:
109,192,94177,1,0,0:0:0:0:
329,192,94177,128,0,94343:0:0:0:0:
182,192,94177,1,0,0:0:0:0:
36,192,94177,1,0,0:0:0:0:
475,192,94177,1,0,0:0:0:0:
109,192,94343,1,0,0:0:0:0:
256,192,94343,1,0,0:0:0:0:
329,192,94509,1,0,0:0:0:0:
182,192,94509,128,0,94676:0:0:0:0:
475,192,94509,1,0,0:0:0:0:
402,192,94509,1,0,0:0:0:0:
36,192,94509,128,0,94676:0:0:0:0:
475,192,94842,128,0,95008:0:0:0:0:
109,192,94842,128,0,95008:0:0:0:0:
256,192,95008,128,0,95175:0:0:0:0:
402,192,95008,128,0,95175:0:0:0:0:
329,192,95341,128,0,95507:0:0:0:0:
109,192,95341,128,0,95507:0:0:0:0:
402,192,95674,128,0,95840:0:0:0:0:
182,192,95674,128,0,95840:0:0:0:0:
36,192,95674,1,0,0:0:0:0:
475,192,95674,1,0,0:0:0:0:
329,192,95840,1,0,0:0:0:0:
109,192,96006,5,0,0:0:0:0:
475,192,96006,1,0,0:0:0:0:
256,192,96006,1,0,0:0:0:0:
36,192,96006,1,0,0:0:0:0:
402,192,96006,1,0,0:0:0:0:
182,192,96089,1,0,0:0:0:0:
329,192,96172,1,0,0:0:0:0:
402,192,96172,1,0,0:0:0:0:
109,192,96256,1,0,0:0:0:0:
475,192,96339,1,0,0:0:0:0:
402,192,96339,1,0,0:0:0:0:
256,192,96339,1,0,0:0:0:0:
36,192,96339,1,0,0:0:0:0:
182,192,96422,1,0,0:0:0:0:
109,192,96505,1,0,0:0:0:0:
329,192,96505,1,0,0:0:0:0:
402,192,96588,1,0,0:0:0:0:
256,192,96671,1,0,0:0:0:0:
109,192,96671,1,0,0:0:0:0:
475,192,96671,1,0,0:0:0:0:
36,192,96671,1,0,0:0:0:0:
329,192,96754,1,0,0:0:0:0:
402,192,96838,1,0,0:0:0:0:
182,192,96838,1,0,0:0:0:0:
109,192,96838,1,0,0:0:0:0:
256,192,96921,1,0,0:0:0:0:
36,192,97004,1,0,0:0:0:0:
402,192,97004,1,0,0:0:0:0:
182,192,97004,1,0,0:0:0:0:
475,192,97004,1,0,0:0:0:0:
329,192,97087,1,0,0:0:0:0:
256,192,97170,1,0,0:0:0:0:
109,192,97170,1,0,0:0:0:0:
475,192,97170,1,0,0:0:0:0:
182,192,97253,1,0,0:0:0:0:
329,192,97337,1,0,0:0:0:0:
475,192,97337,1,0,0:0:0:0:
36,192,97337,1,0,0:0:0:0:
402,192,97337,1,0,0:0:0:0:
109,192,97420,1,0,0:0:0:0:
182,192,97503,1,0,0:0:0:0:
329,192,97503,1,0,0:0:0:0:
402,192,97503,1,0,0:0:0:0:
256,192,97586,1,0,0:0:0:0:
182,192,97669,1,0,0:0:0:0:
36,192,97669,1,0,0:0:0:0:
402,192,97669,1,0,0:0:0:0:
475,192,97669,1,0,0:0:0:0:
329,192,97752,1,0,0:0:0:0:
256,192,97835,1,0,0:0:0:0:
109,192,97835,1,0,0:0:0:0:
36,192,97835,1,0,0:0:0:0:
402,192,97919,1,0,0:0:0:0:
329,192,98002,1,0,0:0:0:0:
182,192,98002,1,0,0:0:0:0:
36,192,98002,1,0,0:0:0:0:
475,192,98002,1,0,0:0:0:0:
109,192,98085,1,0,0:0:0:0:
256,192,98168,1,0,0:0:0:0:
402,192,98168,1,0,0:0:0:0:
329,192,98251,1,0,0:0:0:0:
182,192,98334,1,0,0:0:0:0:
36,192,98334,1,0,0:0:0:0:
475,192,98334,1,0,0:0:0:0:
402,192,98334,1,0,0:0:0:0:
256,192,98417,1,0,0:0:0:0:
329,192,98501,1,0,0:0:0:0:
109,192,98501,1,0,0:0:0:0:
402,192,98501,1,0,0:0:0:0:
182,192,98584,1,0,0:0:0:0:
36,192,98667,1,0,0:0:0:0:
109,192,98667,1,0,0:0:0:0:
256,192,98667,1,0,0:0:0:0:
475,192,98667,1,0,0:0:0:0:
402,192,98750,1,0,0:0:0:0:
329,192,98833,1,0,0:0:0:0:
475,192,98833,1,0,0:0:0:0:
109,192,98833,1,0,0:0:0:0:
182,192,98916,1,0,0:0:0:0:
256,192,98999,1,0,0:0:0:0:
475,192,98999,1,0,0:0:0:0:
402,192,98999,1,0,0:0:0:0:
36,192,98999,1,0,0:0:0:0:
182,192,99083,1,0,0:0:0:0:
109,192,99166,1,0,0:0:0:0:
329,192,99166,1,0,0:0:0:0:
256,192,99249,1,0,0:0:0:0:
182,192,99332,1,0,0:0:0:0:
402,192,99332,1,0,0:0:0:0:
36,192,99332,1,0,0:0:0:0:
475,192,99332,1,0,0:0:0:0:
329,192,99415,1,0,0:0:0:0:
402,192,99498,1,0,0:0:0:0:
109,192,99498,1,0,0:0:0:0:
475,192,99498,1,0,0:0:0:0:
256,192,99582,1,0,0:0:0:0:
182,192,99665,1,0,0:0:0:0:
329,192,99665,1,0,0:0:0:0:
475,192,99665,1,0,0:0:0:0:
36,192,99665,1,0,0:0:0:0:
402,192,99748,1,0,0:0:0:0:
256,192,99831,1,0,0:0:0:0:
109,192,99831,1,0,0:0:0:0:
475,192,99831,1,0,0:0:0:0:
36,192,99914,1,0,0:0:0:0:
182,192,99997,1,0,0:0:0:0:
329,192,99997,1,0,0:0:0:0:
402,192,99997,1,0,0:0:0:0:
475,192,99997,1,0,0:0:0:0:
256,192,100080,1,0,0:0:0:0:
109,192,100164,1,0,0:0:0:0:
402,192,100164,1,0,0:0:0:0:
329,192,100247,1,0,0:0:0:0:
256,192,100330,1,0,0:0:0:0:
36,192,100330,1,0,0:0:0:0:
109,192,100330,1,0,0:0:0:0:
475,192,100330,1,0,0:0:0:0:
182,192,100413,1,0,0:0:0:0:
329,192,100496,1,0,0:0:0:0:
402,192,100496,1,0,0:0:0:0:
182,192,100579,1,0,0:0:0:0:
256,192,100662,1,0,0:0:0:0:
329,192,100662,1,0,0:0:0:0:
36,192,100662,1,0,0:0:0:0:
475,192,100662,1,0,0:0:0:0:
109,192,100746,1,0,0:0:0:0:
182,192,100829,1,0,0:0:0:0:
402,192,100829,1,0,0:0:0:0:
329,192,100912,1,0,0:0:0:0:
256,192,100995,1,0,0:0:0:0:
109,192,100995,1,0,0:0:0:0:
36,192,100995,1,0,0:0:0:0:
475,192,100995,1,0,0:0:0:0:
182,192,101078,1,0,0:0:0:0:
402,192,101161,1,0,0:0:0:0:
256,192,101161,1,0,0:0:0:0:
36,192,101161,1,0,0:0:0:0:
109,192,101244,1,0,0:0:0:0:
182,192,101328,1,0,0:0:0:0:
329,192,101328,1,0,0:0:0:0:
475,192,101328,1,0,0:0:0:0:
36,192,101328,1,0,0:0:0:0:
402,192,101411,1,0,0:0:0:0:
256,192,101494,1,0,0:0:0:0:
109,192,101494,1,0,0:0:0:0:
329,192,101577,1,0,0:0:0:0:
402,192,101660,1,0,0:0:0:0:
475,192,101660,1,0,0:0:0:0:
36,192,101660,1,0,0:0:0:0:
182,192,101660,1,0,0:0:0:0:
256,192,101743,1,0,0:0:0:0:
109,192,101827,1,0,0:0:0:0:
402,192,101827,1,0,0:0:0:0:
329,192,101910,1,0,0:0:0:0:
256,192,101993,1,0,0:0:0:0:
109,192,101993,1,0,0:0:0:0:
36,192,101993,1,0,0:0:0:0:
475,192,101993,1,0,0:0:0:0:
402,192,102076,1,0,0:0:0:0:
329,192,102159,1,0,0:0:0:0:
109,192,102159,1,0,0:0:0:0:
182,192,102159,1,0,0:0:0:0:
256,192,102242,1,0,0:0:0:0:
329,192,102325,1,0,0:0:0:0:
36,192,102325,1,0,0:0:0:0:
182,192,102325,1,0,0:0:0:0:
475,192,102325,1,0,0:0:0:0:
109,192,102409,1,0,0:0:0:0:
256,192,102492,1,0,0:0:0:0:
402,192,102492,1,0,0:0:0:0:
475,192,102492,1,0,0:0:0:0:
182,192,102575,1,0,0:0:0:0:
402,192,102658,1,0,0:0:0:0:
36,192,102658,1,0,0:0:0:0:
109,192,102658,1,0,0:0:0:0:
475,192,102658,1,0,0:0:0:0:
256,192,102741,1,0,0:0:0:0:
329,192,102824,1,0,0:0:0:0:
36,192,102824,1,0,0:0:0:0:
109,192,102824,1,0,0:0:0:0:
182,192,102907,1,0,0:0:0:0:
109,192,102991,1,0,0:0:0:0:
256,192,102991,1,0,0:0:0:0:
402,192,102991,1,0,0:0:0:0:
475,192,102991,1,0,0:0:0:0:
329,192,103074,1,0,0:0:0:0:
36,192,103157,1,0,0:0:0:0:
182,192,103157,1,0,0:0:0:0:
475,192,103157,1,0,0:0:0:0:
256,192,103240,1,0,0:0:0:0:
109,192,103323,1,0,0:0:0:0:
329,192,103323,1,0,0:0:0:0:
402,192,103323,1,0,0:0:0:0:
36,192,103323,1,0,0:0:0:0:
256,192,103406,1,0,0:0:0:0:
109,192,103490,1,0,0:0:0:0:
475,192,103490,1,0,0:0:0:0:
402,192,103573,1,0,0:0:0:0:
329,192,103656,1,0,0:0:0:0:
36,192,103656,1,0,0:0:0:0:
182,192,103656,1,0,0:0:0:0:
475,192,103656,1,0,0:0:0:0:
256,192,103739,1,0,0:0:0:0:
109,192,103822,1,0,0:0:0:0:
36,192,103822,1,0,0:0:0:0:
402,192,103822,1,0,0:0:0:0:
182,192,103905,1,0,0:0:0:0:
256,192,103988,1,0,0:0:0:0:
475,192,103988,1,0,0:0:0:0:
402,192,103988,1,0,0:0:0:0:
36,192,103988,1,0,0:0:0:0:
182,192,104072,1,0,0:0:0:0:
329,192,104155,1,0,0:0:0:0:
109,192,104155,1,0,0:0:0:0:
256,192,104238,1,0,0:0:0:0:
182,192,104321,1,0,0:0:0:0:
402,192,104321,1,0,0:0:0:0:
475,192,104321,1,0,0:0:0:0:
36,192,104321,1,0,0:0:0:0:
329,192,104404,1,0,0:0:0:0:
475,192,104487,1,0,0:0:0:0:
109,192,104487,1,0,0:0:0:0:
256,192,104570,1,0,0:0:0:0:
402,192,104654,1,0,0:0:0:0:
329,192,104654,1,0,0:0:0:0:
182,192,104654,1,0,0:0:0:0:
36,192,104654,1,0,0:0:0:0:
475,192,104737,1,0,0:0:0:0:
109,192,104820,1,0,0:0:0:0:
256,192,104820,1,0,0:0:0:0:
402,192,104820,1,0,0:0:0:0:
182,192,104903,1,0,0:0:0:0:
36,192,104986,1,0,0:0:0:0:
329,192,104986,1,0,0:0:0:0:
475,192,104986,1,0,0:0:0:0:
402,192,104986,1,0,0:0:0:0:
109,192,105069,1,0,0:0:0:0:
256,192,105152,1,0,0:0:0:0:
182,192,105152,1,0,0:0:0:0:
475,192,105152,1,0,0:0:0:0:
402,192,105236,1,0,0:0:0:0:
329,192,105319,1,0,0:0:0:0:
109,192,105319,1,0,0:0:0:0:
182,192,105319,1,0,0:0:0:0:
36,192,105319,1,0,0:0:0:0:
475,192,105402,1,0,0:0:0:0:
109,192,105485,1,0,0:0:0:0:
256,192,105485,1,0,0:0:0:0:
402,192,105568,1,0,0:0:0:0:
182,192,105651,1,0,0:0:0:0:
329,192,105651,1,0,0:0:0:0:
475,192,105651,1,0,0:0:0:0:
36,192,105651,1,0,0:0:0:0:
256,192,105735,1,0,0:0:0:0:
109,192,105818,1,0,0:0:0:0:
402,192,105818,1,0,0:0:0:0:
182,192,105901,1,0,0:0:0:0:
36,192,105984,1,0,0:0:0:0:
109,192,105984,1,0,0:0:0:0:
475,192,105984,1,0,0:0:0:0:
256,192,105984,1,0,0:0:0:0:
402,192,106067,1,0,0:0:0:0:
182,192,106150,1,0,0:0:0:0:
329,192,106150,1,0,0:0:0:0:
256,192,106233,1,0,0:0:0:0:
182,192,106317,1,0,0:0:0:0:
36,192,106317,1,0,0:0:0:0:
109,192,106317,1,0,0:0:0:0:
475,192,106317,1,0,0:0:0:0:
402,192,106317,1,0,0:0:0:0:
329,192,106317,1,0,0:0:0:0:
109,192,106483,1,0,0:0:0:0:
329,192,106483,1,0,0:0:0:0:
402,192,106483,1,0,0:0:0:0:
182,192,106483,1,0,0:0:0:0:
109,192,106649,5,0,0:0:0:0:
36,192,106649,1,0,0:0:0:0:
256,192,106649,1,0,0:0:0:0:
475,192,106649,1,0,0:0:0:0:
402,192,106649,1,0,0:0:0:0:
182,192,106732,1,0,0:0:0:0:
329,192,106815,1,0,0:0:0:0:
109,192,106815,1,0,0:0:0:0:
256,192,106899,1,0,0:0:0:0:
182,192,106982,1,0,0:0:0:0:
36,192,106982,1,0,0:0:0:0:
475,192,106982,1,0,0:0:0:0:
402,192,106982,1,0,0:0:0:0:
329,192,107065,1,0,0:0:0:0:
402,192,107148,1,0,0:0:0:0:
109,192,107148,1,0,0:0:0:0:
256,192,107231,1,0,0:0:0:0:
475,192,107314,1,0,0:0:0:0:
36,192,107314,1,0,0:0:0:0:
329,192,107314,1,0,0:0:0:0:
182,192,107314,1,0,0:0:0:0:
402,192,107397,1,0,0:0:0:0:
109,192,107481,1,0,0:0:0:0:
256,192,107481,1,0,0:0:0:0:
475,192,107481,1,0,0:0:0:0:
329,192,107564,1,0,0:0:0:0:
182,192,107647,1,0,0:0:0:0:
475,192,107647,1,0,0:0:0:0:
36,192,107647,1,0,0:0:0:0:
402,192,107647,1,0,0:0:0:0:
109,192,107730,1,0,0:0:0:0:
402,192,107813,1,0,0:0:0:0:
256,192,107813,1,0,0:0:0:0:
36,192,107813,1,0,0:0:0:0:
182,192,107896,1,0,0:0:0:0:
329,192,107980,1,0,0:0:0:0:
109,192,107980,1,0,0:0:0:0:
475,192,107980,1,0,0:0:0:0:
36,192,107980,1,0,0:0:0:0:
256,192,108063,1,0,0:0:0:0:
402,192,108146,1,0,0:0:0:0:
109,192,108146,1,0,0:0:0:0:
475,192,108146,1,0,0:0:0:0:
329,192,108229,1,0,0:0:0:0:
256,192,108312,1,0,0:0:0:0:
475,192,108312,1,0,0:0:0:0:
182,192,108312,1,0,0:0:0:0:
36,192,108312,1,0,0:0:0:0:
402,192,108395,1,0,0:0:0:0:
36,192,108478,1,0,0:0:0:0:
256,192,108478,1,0,0:0:0:0:
109,192,108478,1,0,0:0:0:0:
182,192,108562,1,0,0:0:0:0:
36,192,108645,1,0,0:0:0:0:
475,192,108645,1,0,0:0:0:0:
402,192,108645,1,0,0:0:0:0:
329,192,108645,1,0,0:0:0:0:
256,192,108728,1,0,0:0:0:0:
402,192,108811,1,0,0:0:0:0:
109,192,108811,1,0,0:0:0:0:
329,192,108894,1,0,0:0:0:0:
475,192,108977,1,0,0:0:0:0:
256,192,108977,1,0,0:0:0:0:
182,192,108977,1,0,0:0:0:0:
36,192,108977,1,0,0:0:0:0:
402,192,109060,1,0,0:0:0:0:
109,192,109144,1,0,0:0:0:0:
36,192,109144,1,0,0:0:0:0:
329,192,109144,1,0,0:0:0:0:
182,192,109227,1,0,0:0:0:0:
256,192,109310,1,0,0:0:0:0:
475,192,109310,1,0,0:0:0:0:
402,192,109310,1,0,0:0:0:0:
36,192,109310,1,0,0:0:0:0:
329,192,109393,1,0,0:0:0:0:
182,192,109476,1,0,0:0:0:0:
402,192,109476,1,0,0:0:0:0:
109,192,109476,1,0,0:0:0:0:
256,192,109559,1,0,0:0:0:0:
329,192,109642,1,0,0:0:0:0:
36,192,109642,1,0,0:0:0:0:
182,192,109642,1,0,0:0:0:0:
475,192,109642,1,0,0:0:0:0:
402,192,109726,1,0,0:0:0:0:
329,192,109809,1,0,0:0:0:0:
109,192,109809,1,0,0:0:0:0:
256,192,109892,1,0,0:0:0:0:
36,192,109975,1,0,0:0:0:0:
475,192,109975,1,0,0:0:0:0:
182,192,109975,1,0,0:0:0:0:
402,192,109975,1,0,0:0:0:0:
329,192,110058,1,0,0:0:0:0:
402,192,110141,1,0,0:0:0:0:
109,192,110141,1,0,0:0:0:0:
182,192,110141,1,0,0:0:0:0:
256,192,110225,1,0,0:0:0:0:
475,192,110308,1,0,0:0:0:0:
36,192,110308,1,0,0:0:0:0:
109,192,110308,1,0,0:0:0:0:
402,192,110308,1,0,0:0:0:0:
329,192,110391,1,0,0:0:0:0:
402,192,110474,1,0,0:0:0:0:
109,192,110474,1,0,0:0:0:0:
256,192,110474,1,0,0:0:0:0:
182,192,110557,1,0,0:0:0:0:
402,192,110640,1,0,0:0:0:0:
475,192,110640,1,0,0:0:0:0:
36,192,110640,1,0,0:0:0:0:
256,192,110640,1,0,0:0:0:0:
109,192,110723,1,0,0:0:0:0:
329,192,110807,1,0,0:0:0:0:
182,192,110807,1,0,0:0:0:0:
475,192,110807,1,0,0:0:0:0:
402,192,110890,1,0,0:0:0:0:
109,192,110973,1,0,0:0:0:0:
475,192,110973,1,0,0:0:0:0:
256,192,110973,1,0,0:0:0:0:
36,192,110973,1,0,0:0:0:0:
182,192,111056,1,0,0:0:0:0:
402,192,111139,1,0,0:0:0:0:
329,192,111139,1,0,0:0:0:0:
109,192,111139,1,0,0:0:0:0:
256,192,111222,1,0,0:0:0:0:
36,192,111305,1,0,0:0:0:0:
475,192,111305,1,0,0:0:0:0:
182,192,111305,1,0,0:0:0:0:
329,192,111305,1,0,0:0:0:0:
109,192,111389,1,0,0:0:0:0:
402,192,111472,1,0,0:0:0:0:
182,192,111472,1,0,0:0:0:0:
329,192,111555,1,0,0:0:0:0:
36,192,111638,1,0,0:0:0:0:
475,192,111638,1,0,0:0:0:0:
256,192,111638,1,0,0:0:0:0:
109,192,111638,1,0,0:0:0:0:
402,192,111721,1,0,0:0:0:0:
109,192,111804,1,0,0:0:0:0:
182,192,111804,1,0,0:0:0:0:
329,192,111804,1,0,0:0:0:0:
402,192,111888,1,0,0:0:0:0:
475,192,111971,1,0,0:0:0:0:
36,192,111971,1,0,0:0:0:0:
182,192,111971,1,0,0:0:0:0:
256,192,111971,1,0,0:0:0:0:
109,192,112054,1,0,0:0:0:0:
402,192,112137,1,0,0:0:0:0:
256,192,112137,1,0,0:0:0:0:
182,192,112220,1,0,0:0:0:0:
36,192,112303,1,0,0:0:0:0:
109,192,112303,1,0,0:0:0:0:
329,192,112303,1,0,0:0:0:0:
475,192,112303,1,0,0:0:0:0:
256,192,112386,1,0,0:0:0:0:
402,192,112470,1,0,0:0:0:0:
182,192,112470,1,0,0:0:0:0:
329,192,112553,1,0,0:0:0:0:
36,192,112636,1,0,0:0:0:0:
475,192,112636,1,0,0:0:0:0:
402,192,112636,1,0,0:0:0:0:
109,192,112636,1,0,0:0:0:0:
256,192,112719,1,0,0:0:0:0:
182,192,112802,1,0,0:0:0:0:
109,192,112802,1,0,0:0:0:0:
329,192,112802,1,0,0:0:0:0:
402,192,112885,1,0,0:0:0:0:
109,192,112968,1,0,0:0:0:0:
475,192,112968,1,0,0:0:0:0:
256,192,112968,1,0,0:0:0:0:
36,192,112968,1,0,0:0:0:0:
329,192,113052,1,0,0:0:0:0:
402,192,113135,1,0,0:0:0:0:
36,192,113135,1,0,0:0:0:0:
182,192,113135,1,0,0:0:0:0:
109,192,113218,1,0,0:0:0:0:
402,192,113301,1,0,0:0:0:0:
36,192,113301,1,0,0:0:0:0:
475,192,113301,1,0,0:0:0:0:
329,192,113301,1,0,0:0:0:0:
256,192,113301,1,0,0:0:0:0:
182,192,113384,1,0,0:0:0:0:
109,192,113467,1,0,0:0:0:0:
475,192,113467,1,0,0:0:0:0:
329,192,113467,1,0,0:0:0:0:
402,192,113550,1,0,0:0:0:0:
36,192,113634,1,0,0:0:0:0:
475,192,113634,1,0,0:0:0:0:
109,192,113634,1,0,0:0:0:0:
256,192,113634,1,0,0:0:0:0:
329,192,113717,1,0,0:0:0:0:
475,192,113800,1,0,0:0:0:0:
182,192,113800,1,0,0:0:0:0:
36,192,113800,1,0,0:0:0:0:
256,192,113883,1,0,0:0:0:0:
402,192,113966,1,0,0:0:0:0:
36,192,113966,1,0,0:0:0:0:
109,192,113966,1,0,0:0:0:0:
329,192,113966,1,0,0:0:0:0:
182,192,114049,1,0,0:0:0:0:
475,192,114133,1,0,0:0:0:0:
109,192,114133,1,0,0:0:0:0:
329,192,114133,1,0,0:0:0:0:
256,192,114216,1,0,0:0:0:0:
182,192,114299,1,0,0:0:0:0:
475,192,114299,1,0,0:0:0:0:
402,192,114299,1,0,0:0:0:0:
36,192,114299,1,0,0:0:0:0:
329,192,114382,1,0,0:0:0:0:
402,192,114465,1,0,0:0:0:0:
256,192,114465,1,0,0:0:0:0:
36,192,114465,1,0,0:0:0:0:
109,192,114548,1,0,0:0:0:0:
329,192,114631,1,0,0:0:0:0:
36,192,114631,1,0,0:0:0:0:
182,192,114631,1,0,0:0:0:0:
475,192,114631,1,0,0:0:0:0:
256,192,114715,1,0,0:0:0:0:
109,192,114798,1,0,0:0:0:0:
402,192,114798,1,0,0:0:0:0:
329,192,114881,1,0,0:0:0:0:
475,192,114964,1,0,0:0:0:0:
36,192,114964,1,0,0:0:0:0:
109,192,114964,1,0,0:0:0:0:
256,192,114964,1,0,0:0:0:0:
329,192,115047,1,0,0:0:0:0:
182,192,115130,1,0,0:0:0:0:
402,192,115130,1,0,0:0:0:0:
256,192,115213,1,0,0:0:0:0:
109,192,115297,1,0,0:0:0:0:
36,192,115297,1,0,0:0:0:0:
475,192,115297,1,0,0:0:0:0:
329,192,115297,1,0,0:0:0:0:
402,192,115380,1,0,0:0:0:0:
475,192,115463,1,0,0:0:0:0:
256,192,115463,1,0,0:0:0:0:
109,192,115463,1,0,0:0:0:0:
182,192,115546,1,0,0:0:0:0:
475,192,115629,1,0,0:0:0:0:
402,192,115629,1,0,0:0:0:0:
36,192,115629,1,0,0:0:0:0:
256,192,115629,1,0,0:0:0:0:
329,192,115712,1,0,0:0:0:0:
36,192,115795,1,0,0:0:0:0:
182,192,115795,1,0,0:0:0:0:
402,192,115795,1,0,0:0:0:0:
109,192,115879,1,0,0:0:0:0:
402,192,115962,1,0,0:0:0:0:
36,192,115962,1,0,0:0:0:0:
475,192,115962,1,0,0:0:0:0:
256,192,115962,1,0,0:0:0:0:
329,192,116045,1,0,0:0:0:0:
402,192,116128,1,0,0:0:0:0:
109,192,116128,1,0,0:0:0:0:
256,192,116211,1,0,0:0:0:0:
475,192,116294,1,0,0:0:0:0:
36,192,116294,1,0,0:0:0:0:
182,192,116294,1,0,0:0:0:0:
329,192,116294,1,0,0:0:0:0:
402,192,116378,1,0,0:0:0:0:
256,192,116461,1,0,0:0:0:0:
109,192,116461,1,0,0:0:0:0:
182,192,116544,1,0,0:0:0:0:
475,192,116627,1,0,0:0:0:0:
329,192,116627,1,0,0:0:0:0:
36,192,116627,1,0,0:0:0:0:
109,192,116627,1,0,0:0:0:0:
256,192,116710,1,0,0:0:0:0:
402,192,116793,1,0,0:0:0:0:
182,192,116793,1,0,0:0:0:0:
329,192,116876,1,0,0:0:0:0:
36,192,116960,1,0,0:0:0:0:
402,192,116960,1,0,0:0:0:0:
109,192,116960,1,0,0:0:0:0:
256,192,116960,1,0,0:0:0:0:
475,192,116960,1,0,0:0:0:0:
36,192,117126,1,0,0:0:0:0:
256,192,117126,1,0,0:0:0:0:
475,192,117126,1,0,0:0:0:0:
109,192,117126,1,0,0:0:0:0:
402,192,117126,1,0,0:0:0:0:
329,192,117292,1,0,0:0:0:0:
475,192,117292,1,0,0:0:0:0:
182,192,117292,128,0,117458:0:0:0:0:
36,192,117292,128,0,117458:0:0:0:0:
402,192,117625,128,0,117791:0:0:0:0:
109,192,117625,128,0,117791:0:0:0:0:
182,192,117957,128,0,118124:0:0:0:0:
475,192,117957,128,0,118124:0:0:0:0:
36,192,118124,128,0,118290:0:0:0:0:
329,192,118124,128,0,118290:0:0:0:0:
109,192,118456,128,0,119121:0:0:0:0:
402,192,118456,128,0,119121:0:0:0:0:
36,192,119288,128,0,119454:0:0:0:0:
329,192,119288,128,0,119454:0:0:0:0:
182,192,119454,128,0,119620:0:0:0:0:
402,192,119454,128,0,119620:0:0:0:0:
256,192,119620,1,0,0:0:0:0:
109,192,119620,1,0,0:0:0:0:
329,192,119787,128,0,119953:0:0:0:0:
182,192,119787,128,0,119953:0:0:0:0:
475,192,119953,1,0,0:0:0:0:
36,192,119953,1,0,0:0:0:0:
256,192,119953,1,0,0:0:0:0:
402,192,119953,1,0,0:0:0:0:
329,192,120036,1,0,0:0:0:0:
109,192,120036,1,0,0:0:0:0:
402,192,120119,1,0,0:0:0:0:
182,192,120119,1,0,0:0:0:0:
256,192,120202,1,0,0:0:0:0:
475,192,120202,1,0,0:0:0:0:
182,192,120286,1,0,0:0:0:0:
329,192,120286,1,0,0:0:0:0:
402,192,120286,1,0,0:0:0:0:
36,192,120286,1,0,0:0:0:0:
402,192,120452,1,0,0:0:0:0:
36,192,120452,1,0,0:0:0:0:
109,192,120452,1,0,0:0:0:0:
256,192,120452,1,0,0:0:0:0:
36,192,120618,1,0,0:0:0:0:
256,192,120618,1,0,0:0:0:0:
475,192,120618,1,0,0:0:0:0:
402,192,120701,1,0,0:0:0:0:
182,192,120701,1,0,0:0:0:0:
329,192,120784,1,0,0:0:0:0:
109,192,120784,1,0,0:0:0:0:
256,192,120868,1,0,0:0:0:0:
475,192,120868,1,0,0:0:0:0:
402,192,120951,1,0,0:0:0:0:
329,192,120951,1,0,0:0:0:0:
36,192,120951,1,0,0:0:0:0:
182,192,120951,1,0,0:0:0:0:
182,192,121117,1,0,0:0:0:0:
109,192,121117,1,0,0:0:0:0:
329,192,121117,1,0,0:0:0:0:
475,192,121117,1,0,0:0:0:0:
36,192,121283,1,0,0:0:0:0:
256,192,121283,1,0,0:0:0:0:
402,192,121283,1,0,0:0:0:0:
475,192,121283,1,0,0:0:0:0:
109,192,121283,1,0,0:0:0:0:
182,192,121450,1,0,0:0:0:0:
329,192,121450,1,0,0:0:0:0:
36,192,121450,1,0,0:0:0:0:
402,192,121450,1,0,0:0:0:0:
256,192,121616,1,0,0:0:0:0:
329,192,121616,1,0,0:0:0:0:
109,192,121616,1,0,0:0:0:0:
475,192,121616,1,0,0:0:0:0:
475,192,121782,1,0,0:0:0:0:
36,192,121782,1,0,0:0:0:0:
182,192,121782,1,0,0:0:0:0:
402,192,121782,1,0,0:0:0:0:
109,192,121948,1,0,0:0:0:0:
256,192,121948,1,0,0:0:0:0:
182,192,122115,1,0,0:0:0:0:
329,192,122115,1,0,0:0:0:0:
475,192,122115,1,0,0:0:0:0:
402,192,122115,1,0,0:0:0:0:
36,192,122281,1,0,0:0:0:0:
256,192,122281,1,0,0:0:0:0:
402,192,122281,1,0,0:0:0:0:
109,192,122281,1,0,0:0:0:0:
182,192,122447,1,0,0:0:0:0:
36,192,122447,1,0,0:0:0:0:
329,192,122447,1,0,0:0:0:0:
475,192,122447,1,0,0:0:0:0:
109,192,122614,1,0,0:0:0:0:
36,192,122614,1,0,0:0:0:0:
256,192,122614,1,0,0:0:0:0:
475,192,122614,1,0,0:0:0:0:
402,192,122697,1,0,0:0:0:0:
182,192,122697,1,0,0:0:0:0:
329,192,122780,1,0,0:0:0:0:
109,192,122780,1,0,0:0:0:0:
256,192,122863,1,0,0:0:0:0:
36,192,122863,1,0,0:0:0:0:
182,192,122946,1,0,0:0:0:0:
329,192,122946,1,0,0:0:0:0:
475,192,122946,1,0,0:0:0:0:
109,192,122946,1,0,0:0:0:0:
36,192,123113,1,0,0:0:0:0:
182,192,123113,1,0,0:0:0:0:
329,192,123113,1,0,0:0:0:0:
402,192,123113,1,0,0:0:0:0:
256,192,123279,1,0,0:0:0:0:
402,192,123279,1,0,0:0:0:0:
36,192,123279,1,0,0:0:0:0:
329,192,123362,1,0,0:0:0:0:
109,192,123362,1,0,0:0:0:0:
182,192,123445,1,0,0:0:0:0:
475,192,123445,1,0,0:0:0:0:
402,192,123528,1,0,0:0:0:0:
256,192,123528,1,0,0:0:0:0:
109,192,123611,1,0,0:0:0:0:
329,192,123611,1,0,0:0:0:0:
402,192,123695,1,0,0:0:0:0:
182,192,123695,1,0,0:0:0:0:
36,192,123778,1,0,0:0:0:0:
256,192,123778,1,0,0:0:0:0:
109,192,123861,1,0,0:0:0:0:
329,192,123861,1,0,0:0:0:0:
475,192,123944,1,0,0:0:0:0:
182,192,123944,1,0,0:0:0:0:
36,192,123944,1,0,0:0:0:0:
402,192,123944,1,0,0:0:0:0:
182,192,124110,1,0,0:0:0:0:
256,192,124277,1,0,0:0:0:0:
402,192,124277,1,0,0:0:0:0:
475,192,124277,1,0,0:0:0:0:
109,192,124277,1,0,0:0:0:0:
36,192,124277,1,0,0:0:0:0:
329,192,124277,1,0,0:0:0:0:
402,192,124443,1,0,0:0:0:0:
256,192,124609,1,0,0:0:0:0:
182,192,124609,1,0,0:0:0:0:
36,192,124609,1,0,0:0:0:0:
329,192,124609,1,0,0:0:0:0:
475,192,124609,1,0,0:0:0:0:
109,192,124609,1,0,0:0:0:0:
182,192,124776,1,0,0:0:0:0:
402,192,124942,1,0,0:0:0:0:
329,192,124942,1,0,0:0:0:0:
36,192,124942,1,0,0:0:0:0:
109,192,124942,1,0,0:0:0:0:
256,192,124942,1,0,0:0:0:0:
475,192,124942,1,0,0:0:0:0:
329,192,125108,1,0,0:0:0:0:
36,192,125274,1,0,0:0:0:0:
109,192,125274,1,0,0:0:0:0:
475,192,125274,1,0,0:0:0:0:
256,192,125274,1,0,0:0:0:0:
402,192,125358,1,0,0:0:0:0:
182,192,125358,1,0,0:0:0:0:
329,192,125441,1,0,0:0:0:0:
36,192,125441,1,0,0:0:0:0:
256,192,125524,1,0,0:0:0:0:
109,192,125524,1,0,0:0:0:0:
36,192,125607,1,0,0:0:0:0:
182,192,125607,1,0,0:0:0:0:
402,192,125607,1,0,0:0:0:0:
475,192,125607,1,0,0:0:0:0:
329,192,125690,1,0,0:0:0:0:
256,192,125773,1,0,0:0:0:0:
402,192,125773,1,0,0:0:0:0:
109,192,125773,1,0,0:0:0:0:
475,192,125773,1,0,0:0:0:0:
182,192,125856,1,0,0:0:0:0:
256,192,125940,1,0,0:0:0:0:
402,192,125940,1,0,0:0:0:0:
36,192,125940,1,0,0:0:0:0:
475,192,125940,1,0,0:0:0:0:
329,192,126023,1,0,0:0:0:0:
109,192,126023,1,0,0:0:0:0:
182,192,126106,1,0,0:0:0:0:
402,192,126106,1,0,0:0:0:0:
256,192,126189,1,0,0:0:0:0:
475,192,126189,1,0,0:0:0:0:
329,192,126272,1,0,0:0:0:0:
402,192,126272,1,0,0:0:0:0:
109,192,126272,1,0,0:0:0:0:
36,192,126272,1,0,0:0:0:0:
182,192,126355,1,0,0:0:0:0:
475,192,126439,1,0,0:0:0:0:
256,192,126439,1,0,0:0:0:0:
402,192,126439,1,0,0:0:0:0:
109,192,126439,1,0,0:0:0:0:
329,192,126522,1,0,0:0:0:0:
256,192,126605,1,0,0:0:0:0:
36,192,126605,1,0,0:0:0:0:
475,192,126605,1,0,0:0:0:0:
402,192,126605,1,0,0:0:0:0:
109,192,126688,1,0,0:0:0:0:
182,192,126771,1,0,0:0:0:0:
36,192,126771,1,0,0:0:0:0:
475,192,126771,1,0,0:0:0:0:
329,192,126771,1,0,0:0:0:0:
256,192,126854,1,0,0:0:0:0:
109,192,126937,1,0,0:0:0:0:
182,192,126937,1,0,0:0:0:0:
402,192,126937,1,0,0:0:0:0:
475,192,126937,1,0,0:0:0:0:
329,192,127021,1,0,0:0:0:0:
256,192,127104,1,0,0:0:0:0:
109,192,127104,1,0,0:0:0:0:
36,192,127104,1,0,0:0:0:0:
475,192,127104,1,0,0:0:0:0:
402,192,127187,1,0,0:0:0:0:
182,192,127270,1,0,0:0:0:0:
329,192,127270,1,0,0:0:0:0:
36,192,127353,1,0,0:0:0:0:
109,192,127436,1,0,0:0:0:0:
256,192,127436,1,0,0:0:0:0:
402,192,127436,1,0,0:0:0:0:
475,192,127436,1,0,0:0:0:0:
329,192,127519,1,0,0:0:0:0:
256,192,127603,1,0,0:0:0:0:
36,192,127603,1,0,0:0:0:0:
109,192,127603,1,0,0:0:0:0:
475,192,127603,1,0,0:0:0:0:
402,192,127686,1,0,0:0:0:0:
475,192,127769,1,0,0:0:0:0:
182,192,127769,1,0,0:0:0:0:
36,192,127769,1,0,0:0:0:0:
329,192,127769,1,0,0:0:0:0:
256,192,127852,1,0,0:0:0:0:
109,192,127935,1,0,0:0:0:0:
36,192,127935,1,0,0:0:0:0:
402,192,127935,1,0,0:0:0:0:
475,192,127935,1,0,0:0:0:0:
182,192,128018,1,0,0:0:0:0:
256,192,128101,1,0,0:0:0:0:
402,192,128101,1,0,0:0:0:0:
36,192,128101,1,0,0:0:0:0:
329,192,128185,1,0,0:0:0:0:
109,192,128268,1,0,0:0:0:0:
182,192,128268,1,0,0:0:0:0:
402,192,128268,1,0,0:0:0:0:
475,192,128268,1,0,0:0:0:0:
36,192,128351,1,0,0:0:0:0:
256,192,128434,1,0,0:0:0:0:
475,192,128434,1,0,0:0:0:0:
329,192,128434,1,0,0:0:0:0:
182,192,128517,1,0,0:0:0:0:
109,192,128600,1,0,0:0:0:0:
402,192,128600,1,0,0:0:0:0:
475,192,128600,1,0,0:0:0:0:
36,192,128600,1,0,0:0:0:0:
256,192,128684,1,0,0:0:0:0:
402,192,128767,1,0,0:0:0:0:
109,192,128767,1,0,0:0:0:0:
329,192,128767,1,0,0:0:0:0:
475,192,128767,1,0,0:0:0:0:
182,192,128850,1,0,0:0:0:0:
256,192,128933,1,0,0:0:0:0:
475,192,128933,1,0,0:0:0:0:
36,192,128933,1,0,0:0:0:0:
109,192,128933,1,0,0:0:0:0:
402,192,129016,1,0,0:0:0:0:
329,192,129099,1,0,0:0:0:0:
182,192,129099,1,0,0:0:0:0:
36,192,129099,1,0,0:0:0:0:
475,192,129099,1,0,0:0:0:0:
256,192,129182,1,0,0:0:0:0:
182,192,129266,1,0,0:0:0:0:
109,192,129266,1,0,0:0:0:0:
402,192,129266,1,0,0:0:0:0:
329,192,129349,1,0,0:0:0:0:
256,192,129432,1,0,0:0:0:0:
36,192,129432,1,0,0:0:0:0:
402,192,129432,1,0,0:0:0:0:
475,192,129432,1,0,0:0:0:0:
109,192,129515,1,0,0:0:0:0:
182,192,129598,1,0,0:0:0:0:
329,192,129598,1,0,0:0:0:0:
402,192,129598,1,0,0:0:0:0:
36,192,129598,1,0,0:0:0:0:
256,192,129681,1,0,0:0:0:0:
182,192,129764,1,0,0:0:0:0:
109,192,129764,1,0,0:0:0:0:
402,192,129764,1,0,0:0:0:0:
475,192,129764,1,0,0:0:0:0:
329,192,129848,1,0,0:0:0:0:
402,192,129931,1,0,0:0:0:0:
36,192,129931,1,0,0:0:0:0:
109,192,129931,1,0,0:0:0:0:
475,192,129931,1,0,0:0:0:0:
256,192,129931,1,0,0:0:0:0:
182,192,129931,1,0,0:0:0:0:
256,192,130263,128,0,130374:0:0:0:0:
36,192,130263,128,0,130346:0:0:0:0:
402,192,130319,128,0,130430:0:0:0:0:
109,192,130346,128,0,130430:0:0:0:0:
329,192,130374,128,0,130485:0:0:0:0:
182,192,130430,128,0,130513:0:0:0:0:
475,192,130430,128,0,130541:0:0:0:0:
256,192,130596,1,0,0:0:0:0:
109,192,130596,1,0,0:0:0:0:
402,192,130596,1,0,0:0:0:0:
36,192,130596,128,0,131095:0:0:0:0:
329,192,130762,1,0,0:0:0:0:
475,192,130929,1,0,0:0:0:0:
256,192,130929,1,0,0:0:0:0:
109,192,130929,1,0,0:0:0:0:
182,192,131095,1,0,0:0:0:0:
402,192,131095,128,0,131594:0:0:0:0:
329,192,131261,1,0,0:0:0:0:
36,192,131261,1,0,0:0:0:0:
475,192,131261,1,0,0:0:0:0:
182,192,131427,1,0,0:0:0:0:
256,192,131594,1,0,0:0:0:0:
109,192,131594,1,0,0:0:0:0:
475,192,131594,1,0,0:0:0:0:
329,192,131760,1,0,0:0:0:0:
36,192,131926,128,0,132093:0:0:0:0:
256,192,131926,1,0,0:0:0:0:
475,192,131926,1,0,0:0:0:0:
109,192,131926,1,0,0:0:0:0:
182,192,132093,128,0,132259:0:0:0:0:
402,192,132093,1,0,0:0:0:0:
36,192,132259,1,0,0:0:0:0:
256,192,132259,1,0,0:0:0:0:
475,192,132259,1,0,0:0:0:0:
329,192,132425,128,0,132924:0:0:0:0:
109,192,132425,1,0,0:0:0:0:
182,192,132591,1,0,0:0:0:0:
36,192,132591,1,0,0:0:0:0:
402,192,132591,1,0,0:0:0:0:
475,192,132758,1,0,0:0:0:0:
109,192,132924,128,0,133090:0:0:0:0:
402,192,132924,1,0,0:0:0:0:
256,192,132924,1,0,0:0:0:0:
36,192,132924,1,0,0:0:0:0:
182,192,133090,1,0,0:0:0:0:
402,192,133257,128,0,133423:0:0:0:0:
256,192,133257,1,0,0:0:0:0:
109,192,133257,1,0,0:0:0:0:
475,192,133257,1,0,0:0:0:0:
329,192,133423,1,0,0:0:0:0:
182,192,133589,128,0,133756:0:0:0:0:
36,192,133589,1,0,0:0:0:0:
256,192,133589,1,0,0:0:0:0:
475,192,133589,1,0,0:0:0:0:
329,192,133756,1,0,0:0:0:0:
475,192,133922,128,0,134254:0:0:0:0:
109,192,133922,1,0,0:0:0:0:
256,192,133922,1,0,0:0:0:0:
402,192,133922,1,0,0:0:0:0:
182,192,134088,1,0,0:0:0:0:
36,192,134254,128,0,134421:0:0:0:0:
256,192,134254,1,0,0:0:0:0:
402,192,134254,1,0,0:0:0:0:
109,192,134254,1,0,0:0:0:0:
329,192,134421,1,0,0:0:0:0:
402,192,134587,128,0,134920:0:0:0:0:
182,192,134587,1,0,0:0:0:0:
36,192,134587,1,0,0:0:0:0:
475,192,134587,1,0,0:0:0:0:
329,192,134753,1,0,0:0:0:0:
109,192,134920,128,0,135086:0:0:0:0:
256,192,134920,1,0,0:0:0:0:
475,192,134920,1,0,0:0:0:0:
36,192,134920,1,0,0:0:0:0:
182,192,135086,128,0,135252:0:0:0:0:
402,192,135086,1,0,0:0:0:0:
329,192,135252,1,0,0:0:0:0:
36,192,135252,1,0,0:0:0:0:
475,192,135252,1,0,0:0:0:0:
402,192,135419,128,0,135585:0:0:0:0:
182,192,135419,1,0,0:0:0:0:
256,192,135585,128,0,135751:0:0:0:0:
109,192,135585,1,0,0:0:0:0:
329,192,135585,1,0,0:0:0:0:
475,192,135585,1,0,0:0:0:0:
182,192,135751,1,0,0:0:0:0:
329,192,135917,128,0,136084:0:0:0:0:
36,192,135917,1,0,0:0:0:0:
256,192,135917,1,0,0:0:0:0:
475,192,135917,1,0,0:0:0:0:
182,192,136084,1,0,0:0:0:0:
109,192,136250,128,0,136416:0:0:0:0:
256,192,136250,1,0,0:0:0:0:
402,192,136250,1,0,0:0:0:0:
475,192,136250,1,0,0:0:0:0:
329,192,136416,1,0,0:0:0:0:
256,192,136583,128,0,136749:0:0:0:0:
182,192,136583,1,0,0:0:0:0:
475,192,136583,1,0,0:0:0:0:
36,192,136583,1,0,0:0:0:0:
402,192,136749,1,0,0:0:0:0:
256,192,136915,128,0,137082:0:0:0:0:
109,192,136915,1,0,0:0:0:0:
475,192,136915,1,0,0:0:0:0:
329,192,136915,1,0,0:0:0:0:
182,192,137082,1,0,0:0:0:0:
475,192,137248,128,0,137414:0:0:0:0:
256,192,137248,1,0,0:0:0:0:
36,192,137248,1,0,0:0:0:0:
402,192,137248,1,0,0:0:0:0:
182,192,137414,128,0,137580:0:0:0:0:
329,192,137414,1,0,0:0:0:0:
36,192,137580,1,0,0:0:0:0:
256,192,137580,1,0,0:0:0:0:
402,192,137580,1,0,0:0:0:0:
329,192,137747,128,0,138079:0:0:0:0:
109,192,137747,1,0,0:0:0:0:
36,192,137913,1,0,0:0:0:0:
182,192,137913,1,0,0:0:0:0:
475,192,137913,1,0,0:0:0:0:
256,192,138079,1,0,0:0:0:0:
109,192,138246,128,0,138412:0:0:0:0:
329,192,138246,1,0,0:0:0:0:
475,192,138246,1,0,0:0:0:0:
182,192,138246,1,0,0:0:0:0:
256,192,138412,128,0,138578:0:0:0:0:
36,192,138412,1,0,0:0:0:0:
402,192,138578,128,0,138744:0:0:0:0:
109,192,138578,1,0,0:0:0:0:
329,192,138578,1,0,0:0:0:0:
475,192,138578,1,0,0:0:0:0:
256,192,138744,1,0,0:0:0:0:
182,192,138911,128,0,139077:0:0:0:0:
329,192,138911,1,0,0:0:0:0:
36,192,138911,1,0,0:0:0:0:
475,192,138911,1,0,0:0:0:0:
109,192,139077,1,0,0:0:0:0:
475,192,139243,128,0,139410:0:0:0:0:
256,192,139243,1,0,0:0:0:0:
402,192,139243,1,0,0:0:0:0:
36,192,139243,1,0,0:0:0:0:
182,192,139410,1,0,0:0:0:0:
109,192,139576,128,0,139742:0:0:0:0:
36,192,139576,1,0,0:0:0:0:
329,192,139576,1,0,0:0:0:0:
475,192,139576,1,0,0:0:0:0:
256,192,139742,1,0,0:0:0:0:
329,192,139909,1,0,0:0:0:0:
475,192,139909,1,0,0:0:0:0:
182,192,139909,1,0,0:0:0:0:
36,192,139909,1,0,0:0:0:0:
402,192,139909,1,0,0:0:0:0:
109,192,139909,1,0,0:0:0:0:
256,192,140075,1,0,0:0:0:0:
402,192,140075,1,0,0:0:0:0:
475,192,140075,1,0,0:0:0:0:
109,192,140075,1,0,0:0:0:0:
36,192,140075,1,0,0:0:0:0:
109,192,140407,1,0,0:0:0:0:
182,192,140407,1,0,0:0:0:0:
329,192,140407,1,0,0:0:0:0:
402,192,140407,1,0,0:0:0:0:
475,192,140407,1,0,0:0:0:0:
109,192,140740,1,0,0:0:0:0:
36,192,140740,1,0,0:0:0:0:
329,192,140740,1,0,0:0:0:0:
256,192,140740,1,0,0:0:0:0:
475,192,140740,1,0,0:0:0:0:
182,192,140906,1,0,0:0:0:0:
402,192,140906,1,0,0:0:0:0:
256,192,141239,1,0,0:0:0:0:
475,192,141239,1,0,0:0:0:0:
402,192,141239,128,0,141738:0:0:0:0:
109,192,141239,1,0,0:0:0:0:
36,192,141239,1,0,0:0:0:0:
182,192,141405,1,0,0:0:0:0:
329,192,141405,1,0,0:0:0:0:
36,192,141572,1,0,0:0:0:0:
256,192,141572,1,0,0:0:0:0:
475,192,141572,1,0,0:0:0:0:
329,192,141738,1,0,0:0:0:0:
182,192,141738,128,0,142237:0:0:0:0:
109,192,141738,1,0,0:0:0:0:
256,192,141904,1,0,0:0:0:0:
475,192,141904,1,0,0:0:0:0:
36,192,141904,1,0,0:0:0:0:
402,192,142070,1,0,0:0:0:0:
329,192,142070,1,0,0:0:0:0:
475,192,142237,1,0,0:0:0:0:
256,192,142237,1,0,0:0:0:0:
36,192,142237,1,0,0:0:0:0:
109,192,142403,1,0,0:0:0:0:
329,192,142403,1,0,0:0:0:0:
475,192,142569,128,0,142736:0:0:0:0:
182,192,142569,1,0,0:0:0:0:
36,192,142569,1,0,0:0:0:0:
402,192,142569,1,0,0:0:0:0:
256,192,142736,128,0,142902:0:0:0:0:
109,192,142736,1,0,0:0:0:0:
329,192,142736,1,0,0:0:0:0:
475,192,142902,1,0,0:0:0:0:
402,192,142902,1,0,0:0:0:0:
36,192,142902,1,0,0:0:0:0:
329,192,143068,128,0,143567:0:0:0:0:
256,192,143068,1,0,0:0:0:0:
109,192,143068,1,0,0:0:0:0:
182,192,143235,1,0,0:0:0:0:
475,192,143235,1,0,0:0:0:0:
36,192,143235,1,0,0:0:0:0:
256,192,143401,1,0,0:0:0:0:
402,192,143401,1,0,0:0:0:0:
182,192,143567,128,0,143733:0:0:0:0:
109,192,143567,1,0,0:0:0:0:
475,192,143567,1,0,0:0:0:0:
36,192,143567,1,0,0:0:0:0:
402,192,143733,1,0,0:0:0:0:
256,192,143733,1,0,0:0:0:0:
36,192,143900,128,0,144066:0:0:0:0:
329,192,143900,1,0,0:0:0:0:
475,192,143900,1,0,0:0:0:0:
182,192,143900,1,0,0:0:0:0:
109,192,144066,1,0,0:0:0:0:
256,192,144066,1,0,0:0:0:0:
402,192,144232,128,0,144399:0:0:0:0:
329,192,144232,1,0,0:0:0:0:
182,192,144232,1,0,0:0:0:0:
36,192,144232,1,0,0:0:0:0:
256,192,144399,1,0,0:0:0:0:
475,192,144399,1,0,0:0:0:0:
182,192,144565,128,0,144897:0:0:0:0:
402,192,144565,1,0,0:0:0:0:
36,192,144565,1,0,0:0:0:0:
109,192,144565,1,0,0:0:0:0:
329,192,144731,1,0,0:0:0:0:
256,192,144731,1,0,0:0:0:0:
36,192,144897,128,0,145064:0:0:0:0:
475,192,144897,1,0,0:0:0:0:
109,192,144897,1,0,0:0:0:0:
402,192,144897,1,0,0:0:0:0:
182,192,145064,1,0,0:0:0:0:
329,192,145064,1,0,0:0:0:0:
256,192,145230,128,0,145563:0:0:0:0:
402,192,145230,1,0,0:0:0:0:
475,192,145230,1,0,0:0:0:0:
36,192,145230,1,0,0:0:0:0:
109,192,145396,1,0,0:0:0:0:
329,192,145396,1,0,0:0:0:0:
182,192,145563,128,0,145729:0:0:0:0:
475,192,145563,1,0,0:0:0:0:
402,192,145563,1,0,0:0:0:0:
36,192,145563,1,0,0:0:0:0:
329,192,145729,128,0,145895:0:0:0:0:
109,192,145729,1,0,0:0:0:0:
256,192,145729,1,0,0:0:0:0:
475,192,145895,1,0,0:0:0:0:
182,192,145895,1,0,0:0:0:0:
402,192,145895,1,0,0:0:0:0:
109,192,146062,128,0,146228:0:0:0:0:
256,192,146062,1,0,0:0:0:0:
36,192,146062,1,0,0:0:0:0:
329,192,146228,128,0,146394:0:0:0:0:
402,192,146228,1,0,0:0:0:0:
182,192,146228,1,0,0:0:0:0:
475,192,146228,1,0,0:0:0:0:
256,192,146394,1,0,0:0:0:0:
109,192,146394,1,0,0:0:0:0:
36,192,146560,128,0,146727:0:0:0:0:
475,192,146560,1,0,0:0:0:0:
329,192,146560,1,0,0:0:0:0:
182,192,146560,1,0,0:0:0:0:
256,192,146727,1,0,0:0:0:0:
402,192,146727,1,0,0:0:0:0:
475,192,146893,128,0,147059:0:0:0:0:
329,192,146893,1,0,0:0:0:0:
182,192,146893,1,0,0:0:0:0:
36,192,146893,1,0,0:0:0:0:
109,192,147059,1,0,0:0:0:0:
256,192,147059,1,0,0:0:0:0:
182,192,147226,128,0,147392:0:0:0:0:
402,192,147226,1,0,0:0:0:0:
36,192,147226,1,0,0:0:0:0:
475,192,147226,1,0,0:0:0:0:
109,192,147392,1,0,0:0:0:0:
329,192,147392,1,0,0:0:0:0:
256,192,147558,128,0,147725:0:0:0:0:
402,192,147558,1,0,0:0:0:0:
36,192,147558,1,0,0:0:0:0:
182,192,147558,1,0,0:0:0:0:
329,192,147725,1,0,0:0:0:0:
475,192,147725,1,0,0:0:0:0:
109,192,147891,128,0,148057:0:0:0:0:
256,192,147891,1,0,0:0:0:0:
402,192,147891,1,0,0:0:0:0:
36,192,147891,1,0,0:0:0:0:
329,192,148057,128,0,148223:0:0:0:0:
182,192,148057,1,0,0:0:0:0:
475,192,148057,1,0,0:0:0:0:
402,192,148223,1,0,0:0:0:0:
36,192,148223,1,0,0:0:0:0:
109,192,148223,1,0,0:0:0:0:
256,192,148390,128,0,148722:0:0:0:0:
329,192,148390,1,0,0:0:0:0:
182,192,148390,1,0,0:0:0:0:
475,192,148556,1,0,0:0:0:0:
402,192,148556,1,0,0:0:0:0:
109,192,148556,1,0,0:0:0:0:
182,192,148722,1,0,0:0:0:0:
36,192,148722,1,0,0:0:0:0:
402,192,148889,128,0,149055:0:0:0:0:
256,192,148889,1,0,0:0:0:0:
109,192,148889,1,0,0:0:0:0:
475,192,148889,1,0,0:0:0:0:
182,192,149055,128,0,149221:0:0:0:0:
329,192,149055,1,0,0:0:0:0:
36,192,149055,1,0,0:0:0:0:
256,192,149221,128,0,149388:0:0:0:0:
475,192,149221,1,0,0:0:0:0:
109,192,149221,1,0,0:0:0:0:
402,192,149221,1,0,0:0:0:0:
182,192,149388,1,0,0:0:0:0:
329,192,149388,1,0,0:0:0:0:
109,192,149554,128,0,149720:0:0:0:0:
256,192,149554,1,0,0:0:0:0:
475,192,149554,1,0,0:0:0:0:
402,192,149554,1,0,0:0:0:0:
329,192,149720,1,0,0:0:0:0:
36,192,149720,1,0,0:0:0:0:
182,192,149886,128,0,150053:0:0:0:0:
256,192,149886,1,0,0:0:0:0:
109,192,149886,1,0,0:0:0:0:
475,192,149886,1,0,0:0:0:0:
402,192,149886,1,0,0:0:0:0:
36,192,150053,1,0,0:0:0:0:
329,192,150053,128,0,150385:0:0:0:0:
402,192,150053,1,0,0:0:0:0:
475,192,150053,1,0,0:0:0:0:
182,192,150219,1,0,0:0:0:0:
109,192,150219,1,0,0:0:0:0:
256,192,150385,1,0,0:0:0:0:
402,192,150385,1,0,0:0:0:0:
109,192,150385,1,0,0:0:0:0:
36,192,150385,1,0,0:0:0:0:
475,192,150385,128,0,151217:0:0:0:0:
256,192,150718,1,0,0:0:0:0:
109,192,150718,1,0,0:0:0:0:
36,192,150718,1,0,0:0:0:0:
402,192,150718,1,0,0:0:0:0:
109,192,151050,1,0,0:0:0:0:
182,192,151050,1,0,0:0:0:0:
329,192,151050,1,0,0:0:0:0:
402,192,151050,1,0,0:0:0:0:
36,192,151050,1,0,0:0:0:0:
402,192,151217,1,0,0:0:0:0:
329,192,151217,1,0,0:0:0:0:
182,192,151217,1,0,0:0:0:0:
109,192,151217,1,0,0:0:0:0:
36,192,151217,1,0,0:0:0:0:
109,192,151549,128,0,151633:0:0:0:0:
402,192,151549,128,0,151633:0:0:0:0:
329,192,151716,128,0,151799:0:0:0:0:
182,192,151716,128,0,151799:0:0:0:0:
402,192,151882,128,0,152381:0:0:0:0:
109,192,151882,1,0,0:0:0:0:
36,192,151882,1,0,0:0:0:0:
256,192,151882,128,0,152381:0:0:0:0:
475,192,151882,1,0,0:0:0:0:
36,192,152547,128,0,152880:0:0:0:0:
182,192,152547,128,0,152880:0:0:0:0:
402,192,152713,1,0,0:0:0:0:
475,192,152713,1,0,0:0:0:0:
109,192,153046,128,0,153212:0:0:0:0:
256,192,153046,128,0,153212:0:0:0:0:
402,192,153212,1,0,0:0:0:0:
475,192,153212,1,0,0:0:0:0:
329,192,153379,128,0,153545:0:0:0:0:
182,192,153379,128,0,153545:0:0:0:0:
256,192,153711,128,0,153878:0:0:0:0:
402,192,153711,128,0,153878:0:0:0:0:
36,192,153878,128,0,154044:0:0:0:0:
109,192,153878,128,0,154044:0:0:0:0:
402,192,154044,1,0,0:0:0:0:
475,192,154044,1,0,0:0:0:0:
329,192,154210,1,0,0:0:0:0:
402,192,154210,1,0,0:0:0:0:
475,192,154210,1,0,0:0:0:0:
36,192,154210,1,0,0:0:0:0:
182,192,154210,1,0,0:0:0:0:
109,192,154376,1,0,0:0:0:0:
256,192,154543,128,0,155042:0:0:0:0:
109,192,154543,128,0,155042:0:0:0:0:
402,192,154543,1,0,0:0:0:0:
475,192,154543,1,0,0:0:0:0:
402,192,154875,1,0,0:0:0:0:
329,192,154875,1,0,0:0:0:0:
475,192,154875,1,0,0:0:0:0:
329,192,155208,128,0,155541:0:0:0:0:
475,192,155208,128,0,155541:0:0:0:0:
36,192,155374,1,0,0:0:0:0:
182,192,155374,1,0,0:0:0:0:
182,192,155541,1,0,0:0:0:0:
109,192,155541,1,0,0:0:0:0:
36,192,155541,1,0,0:0:0:0:
402,192,155707,128,0,155873:0:0:0:0:
475,192,155707,128,0,155873:0:0:0:0:
36,192,155873,1,0,0:0:0:0:
182,192,155873,1,0,0:0:0:0:
329,192,156039,128,0,156206:0:0:0:0:
402,192,156039,128,0,156206:0:0:0:0:
182,192,156206,1,0,0:0:0:0:
36,192,156206,1,0,0:0:0:0:
109,192,156206,1,0,0:0:0:0:
329,192,156372,128,0,156538:0:0:0:0:
256,192,156372,128,0,156538:0:0:0:0:
109,192,156538,128,0,156705:0:0:0:0:
36,192,156538,128,0,156705:0:0:0:0:
475,192,156705,1,0,0:0:0:0:
402,192,156705,1,0,0:0:0:0:
256,192,156871,1,0,0:0:0:0:
402,192,156871,1,0,0:0:0:0:
475,192,156871,1,0,0:0:0:0:
109,192,156871,1,0,0:0:0:0:
36,192,156871,1,0,0:0:0:0:
256,192,157037,1,0,0:0:0:0:
36,192,157203,1,0,0:0:0:0:
182,192,157203,1,0,0:0:0:0:
475,192,157203,1,0,0:0:0:0:
329,192,157203,1,0,0:0:0:0:
402,192,157287,1,0,0:0:0:0:
109,192,157370,1,0,0:0:0:0:
256,192,157453,1,0,0:0:0:0:
182,192,157536,1,0,0:0:0:0:
402,192,157536,1,0,0:0:0:0:
475,192,157536,1,0,0:0:0:0:
36,192,157536,1,0,0:0:0:0:
329,192,157619,1,0,0:0:0:0:
109,192,157702,1,0,0:0:0:0:
256,192,157786,1,0,0:0:0:0:
475,192,157869,1,0,0:0:0:0:
329,192,157952,1,0,0:0:0:0:
182,192,158035,1,0,0:0:0:0:
402,192,158035,1,0,0:0:0:0:
109,192,158035,1,0,0:0:0:0:
36,192,158035,1,0,0:0:0:0:
256,192,158118,1,0,0:0:0:0:
402,192,158201,1,0,0:0:0:0:
475,192,158201,1,0,0:0:0:0:
109,192,158201,1,0,0:0:0:0:
36,192,158201,1,0,0:0:0:0:
182,192,158284,1,0,0:0:0:0:
329,192,158368,1,0,0:0:0:0:
256,192,158451,1,0,0:0:0:0:
402,192,158534,1,0,0:0:0:0:
109,192,158534,1,0,0:0:0:0:
36,192,158534,1,0,0:0:0:0:
475,192,158534,1,0,0:0:0:0:
329,192,158617,1,0,0:0:0:0:
182,192,158700,1,0,0:0:0:0:
256,192,158783,1,0,0:0:0:0:
329,192,158866,1,0,0:0:0:0:
475,192,158866,1,0,0:0:0:0:
402,192,158866,1,0,0:0:0:0:
36,192,158866,1,0,0:0:0:0:
182,192,158950,1,0,0:0:0:0:
109,192,159033,1,0,0:0:0:0:
256,192,159116,1,0,0:0:0:0:
402,192,159199,1,0,0:0:0:0:
182,192,159282,1,0,0:0:0:0:
329,192,159365,1,0,0:0:0:0:
475,192,159365,1,0,0:0:0:0:
109,192,159365,1,0,0:0:0:0:
36,192,159365,1,0,0:0:0:0:
256,192,159448,1,0,0:0:0:0:
36,192,159532,1,0,0:0:0:0:
109,192,159532,1,0,0:0:0:0:
402,192,159532,1,0,0:0:0:0:
475,192,159532,1,0,0:0:0:0:
182,192,159615,1,0,0:0:0:0:
402,192,159698,1,0,0:0:0:0:
256,192,159781,1,0,0:0:0:0:
329,192,159864,1,0,0:0:0:0:
36,192,159864,1,0,0:0:0:0:
109,192,159864,1,0,0:0:0:0:
475,192,159864,1,0,0:0:0:0:
182,192,159864,1,0,0:0:0:0:
402,192,159947,1,0,0:0:0:0:
109,192,160031,1,0,0:0:0:0:
256,192,160114,1,0,0:0:0:0:
402,192,160197,1,0,0:0:0:0:
182,192,160197,1,0,0:0:0:0:
36,192,160197,1,0,0:0:0:0:
329,192,160280,1,0,0:0:0:0:
475,192,160363,1,0,0:0:0:0:
109,192,160363,1,0,0:0:0:0:
182,192,160446,1,0,0:0:0:0:
402,192,160529,1,0,0:0:0:0:
36,192,160529,1,0,0:0:0:0:
256,192,160529,1,0,0:0:0:0:
329,192,160613,1,0,0:0:0:0:
402,192,160696,1,0,0:0:0:0:
182,192,160696,1,0,0:0:0:0:
109,192,160779,1,0,0:0:0:0:
475,192,160862,1,0,0:0:0:0:
36,192,160862,1,0,0:0:0:0:
329,192,160862,1,0,0:0:0:0:
256,192,160945,1,0,0:0:0:0:
109,192,161028,1,0,0:0:0:0:
402,192,161028,1,0,0:0:0:0:
329,192,161111,1,0,0:0:0:0:
36,192,161195,1,0,0:0:0:0:
475,192,161195,1,0,0:0:0:0:
182,192,161195,1,0,0:0:0:0:
256,192,161278,1,0,0:0:0:0:
109,192,161361,1,0,0:0:0:0:
402,192,161361,1,0,0:0:0:0:
329,192,161444,1,0,0:0:0:0:
475,192,161527,1,0,0:0:0:0:
36,192,161527,1,0,0:0:0:0:
256,192,161527,1,0,0:0:0:0:
109,192,161610,1,0,0:0:0:0:
329,192,161693,1,0,0:0:0:0:
402,192,161693,1,0,0:0:0:0:
182,192,161777,1,0,0:0:0:0:
475,192,161860,1,0,0:0:0:0:
36,192,161860,1,0,0:0:0:0:
256,192,161860,1,0,0:0:0:0:
329,192,161943,1,0,0:0:0:0:
109,192,162026,1,0,0:0:0:0:
182,192,162026,1,0,0:0:0:0:
402,192,162109,1,0,0:0:0:0:
36,192,162192,1,0,0:0:0:0:
256,192,162192,1,0,0:0:0:0:
475,192,162192,1,0,0:0:0:0:
182,192,162276,1,0,0:0:0:0:
109,192,162359,1,0,0:0:0:0:
329,192,162359,1,0,0:0:0:0:
475,192,162442,1,0,0:0:0:0:
182,192,162525,1,0,0:0:0:0:
402,192,162525,1,0,0:0:0:0:
36,192,162525,1,0,0:0:0:0:
256,192,162608,1,0,0:0:0:0:
109,192,162608,1,0,0:0:0:0:
402,192,162691,1,0,0:0:0:0:
475,192,162691,1,0,0:0:0:0:
329,192,162774,1,0,0:0:0:0:
182,192,162774,1,0,0:0:0:0:
475,192,162858,1,0,0:0:0:0:
36,192,162858,1,0,0:0:0:0:
109,192,162858,1,0,0:0:0:0:
256,192,162941,1,0,0:0:0:0:
402,192,162941,1,0,0:0:0:0:
182,192,163024,1,0,0:0:0:0:
109,192,163024,1,0,0:0:0:0:
329,192,163107,1,0,0:0:0:0:
475,192,163107,1,0,0:0:0:0:
256,192,163190,1,0,0:0:0:0:
36,192,163190,1,0,0:0:0:0:
109,192,163190,1,0,0:0:0:0:
402,192,163273,1,0,0:0:0:0:
475,192,163273,1,0,0:0:0:0:
182,192,163356,1,0,0:0:0:0:
329,192,163356,1,0,0:0:0:0:
109,192,163440,1,0,0:0:0:0:
36,192,163440,1,0,0:0:0:0:
475,192,163523,1,0,0:0:0:0:
402,192,163523,1,0,0:0:0:0:
256,192,163523,1,0,0:0:0:0:
329,192,163606,1,0,0:0:0:0:
182,192,163606,1,0,0:0:0:0:
36,192,163689,1,0,0:0:0:0:
475,192,163689,1,0,0:0:0:0:
256,192,163689,1,0,0:0:0:0:
109,192,163689,1,0,0:0:0:0:
402,192,163689,1,0,0:0:0:0:
402,192,164022,5,0,0:0:0:0:
256,192,164022,1,0,0:0:0:0:
475,192,164022,1,0,0:0:0:0:
109,192,164022,1,0,0:0:0:0:
36,192,164022,1,0,0:0:0:0:
36,192,164354,1,0,0:0:0:0:
475,192,164354,1,0,0:0:0:0:
182,192,164354,1,0,0:0:0:0:
329,192,164354,1,0,0:0:0:0:
402,192,164521,1,0,0:0:0:0:
475,192,164521,1,0,0:0:0:0:
36,192,164521,1,0,0:0:0:0:
109,192,164521,1,0,0:0:0:0:
182,192,164521,1,0,0:0:0:0:
329,192,164521,1,0,0:0:0:0:
182,192,164853,128,0,164936:0:0:0:0:
402,192,164853,1,0,0:0:0:0:
256,192,164936,128,0,165019:0:0:0:0:
475,192,164936,128,0,165019:0:0:0:0:
402,192,165019,128,0,165103:0:0:0:0:
109,192,165019,1,0,0:0:0:0:
329,192,165103,128,0,165186:0:0:0:0:
182,192,165103,1,0,0:0:0:0:
256,192,165186,1,0,0:0:0:0:
475,192,165186,1,0,0:0:0:0:
36,192,165186,128,0,165352:0:0:0:0:
182,192,165352,128,0,165518:0:0:0:0:
402,192,165518,128,0,165685:0:0:0:0:
109,192,165518,1,0,0:0:0:0:
329,192,165685,128,0,165851:0:0:0:0:
109,192,165851,128,0,166017:0:0:0:0:
475,192,165851,1,0,0:0:0:0:
256,192,166017,128,0,166184:0:0:0:0:
36,192,166017,1,0,0:0:0:0:
475,192,166184,128,0,166350:0:0:0:0:
402,192,166350,128,0,166516:0:0:0:0:
182,192,166350,1,0,0:0:0:0:
36,192,166516,128,0,166682:0:0:0:0:
182,192,166682,128,0,166849:0:0:0:0:
475,192,166682,1,0,0:0:0:0:
329,192,166849,128,0,167015:0:0:0:0:
256,192,167015,128,0,167181:0:0:0:0:
36,192,167015,1,0,0:0:0:0:
109,192,167181,128,0,167348:0:0:0:0:
402,192,167181,1,0,0:0:0:0:
256,192,167348,128,0,167514:0:0:0:0:
402,192,167514,128,0,167680:0:0:0:0:
109,192,167514,1,0,0:0:0:0:
329,192,167680,128,0,167846:0:0:0:0:
182,192,167680,1,0,0:0:0:0:
36,192,167846,128,0,168013:0:0:0:0:
256,192,167846,1,0,0:0:0:0:
109,192,168013,128,0,168179:0:0:0:0:
256,192,168179,128,0,168345:0:0:0:0:
475,192,168179,1,0,0:0:0:0:
329,192,168345,128,0,168512:0:0:0:0:
109,192,168512,128,0,168678:0:0:0:0:
402,192,168512,1,0,0:0:0:0:
182,192,168678,128,0,168844:0:0:0:0:
402,192,168678,1,0,0:0:0:0:
329,192,168844,128,0,169011:0:0:0:0:
402,192,169011,128,0,169177:0:0:0:0:
36,192,169011,128,0,169842:0:0:0:0:
182,192,169177,128,0,169343:0:0:0:0:
256,192,169343,128,0,169509:0:0:0:0:
475,192,169509,128,0,169676:0:0:0:0:
402,192,169676,128,0,169842:0:0:0:0:
256,192,169842,128,0,170008:0:0:0:0:
329,192,170008,128,0,170175:0:0:0:0:
475,192,170175,128,0,170341:0:0:0:0:
182,192,170175,1,0,0:0:0:0:
402,192,170341,128,0,170507:0:0:0:0:
182,192,170341,1,0,0:0:0:0:
36,192,170507,128,0,170674:0:0:0:0:
329,192,170507,1,0,0:0:0:0:
256,192,170674,128,0,170840:0:0:0:0:
182,192,170840,128,0,171006:0:0:0:0:
475,192,170840,1,0,0:0:0:0:
402,192,171006,128,0,171172:0:0:0:0:
109,192,171172,128,0,171339:0:0:0:0:
256,192,171172,1,0,0:0:0:0:
329,192,171339,128,0,171505:0:0:0:0:
36,192,171339,1,0,0:0:0:0:
256,192,171505,128,0,171671:0:0:0:0:
475,192,171671,128,0,171838:0:0:0:0:
182,192,171671,1,0,0:0:0:0:
36,192,171838,128,0,172004:0:0:0:0:
182,192,172004,128,0,172170:0:0:0:0:
329,192,172004,1,0,0:0:0:0:
402,192,172170,128,0,172337:0:0:0:0:
329,192,172337,128,0,172503:0:0:0:0:
182,192,172337,1,0,0:0:0:0:
109,192,172503,128,0,172669:0:0:0:0:
475,192,172503,1,0,0:0:0:0:
256,192,172669,128,0,172835:0:0:0:0:
475,192,172835,128,0,173002:0:0:0:0:
36,192,172835,1,0,0:0:0:0:
402,192,173002,128,0,173168:0:0:0:0:
182,192,173002,1,0,0:0:0:0:
329,192,173168,1,0,0:0:0:0:
36,192,173168,128,0,173334:0:0:0:0:
256,192,173334,128,0,173501:0:0:0:0:
182,192,173501,128,0,173667:0:0:0:0:
109,192,173501,1,0,0:0:0:0:
402,192,173667,128,0,173833:0:0:0:0:
109,192,173833,128,0,173999:0:0:0:0:
256,192,173833,1,0,0:0:0:0:
329,192,173999,128,0,174166:0:0:0:0:
475,192,173999,1,0,0:0:0:0:
256,192,174166,128,0,174332:0:0:0:0:
475,192,174332,128,0,174498:0:0:0:0:
36,192,174332,128,0,175164:0:0:0:0:
182,192,174498,128,0,174665:0:0:0:0:
329,192,174665,128,0,174831:0:0:0:0:
256,192,174831,128,0,174997:0:0:0:0:
402,192,174997,128,0,175164:0:0:0:0:
475,192,175164,128,0,175330:0:0:0:0:
329,192,175330,128,0,175496:0:0:0:0:
182,192,175496,128,0,175662:0:0:0:0:
36,192,175662,128,0,175829:0:0:0:0:
109,192,175829,1,0,0:0:0:0:
256,192,175829,1,0,0:0:0:0:
402,192,175829,1,0,0:0:0:0:
475,192,175829,1,0,0:0:0:0:
109,192,175995,1,0,0:0:0:0:
182,192,175995,1,0,0:0:0:0:
329,192,175995,1,0,0:0:0:0:
36,192,176161,1,0,0:0:0:0:
329,192,176161,1,0,0:0:0:0:
256,192,176161,1,0,0:0:0:0:
475,192,176161,1,0,0:0:0:0:
182,192,176328,1,0,0:0:0:0:
36,192,176328,1,0,0:0:0:0:
402,192,176328,1,0,0:0:0:0:
402,192,176494,1,0,0:0:0:0:
109,192,176494,1,0,0:0:0:0:
256,192,176494,1,0,0:0:0:0:
109,192,176660,1,0,0:0:0:0:
329,192,176660,1,0,0:0:0:0:
475,192,176660,1,0,0:0:0:0:
256,192,176827,1,0,0:0:0:0:
329,192,176827,1,0,0:0:0:0:
182,192,176827,1,0,0:0:0:0:
36,192,176827,1,0,0:0:0:0:
402,192,176993,1,0,0:0:0:0:
182,192,176993,1,0,0:0:0:0:
475,192,176993,1,0,0:0:0:0:
36,192,177159,1,0,0:0:0:0:
402,192,177159,1,0,0:0:0:0:
256,192,177159,1,0,0:0:0:0:
109,192,177159,1,0,0:0:0:0:
109,192,177325,1,0,0:0:0:0:
329,192,177325,1,0,0:0:0:0:
475,192,177325,1,0,0:0:0:0:
329,192,177492,1,0,0:0:0:0:
182,192,177492,1,0,0:0:0:0:
36,192,177492,1,0,0:0:0:0:
402,192,177492,1,0,0:0:0:0:
475,192,177658,1,0,0:0:0:0:
182,192,177658,1,0,0:0:0:0:
256,192,177658,1,0,0:0:0:0:
402,192,177824,1,0,0:0:0:0:
109,192,177824,1,0,0:0:0:0:
36,192,177824,1,0,0:0:0:0:
256,192,177824,1,0,0:0:0:0:
402,192,177991,1,0,0:0:0:0:
182,192,177991,1,0,0:0:0:0:
329,192,177991,1,0,0:0:0:0:
109,192,178157,1,0,0:0:0:0:
329,192,178157,1,0,0:0:0:0:
36,192,178157,1,0,0:0:0:0:
475,192,178157,1,0,0:0:0:0:
109,192,178323,1,0,0:0:0:0:
256,192,178323,1,0,0:0:0:0:
402,192,178323,1,0,0:0:0:0:
402,192,178490,1,0,0:0:0:0:
329,192,178490,1,0,0:0:0:0:
182,192,178490,1,0,0:0:0:0:
36,192,178490,1,0,0:0:0:0:
182,192,178656,1,0,0:0:0:0:
256,192,178656,1,0,0:0:0:0:
475,192,178656,1,0,0:0:0:0:
109,192,178822,1,0,0:0:0:0:
402,192,178822,1,0,0:0:0:0:
256,192,178822,1,0,0:0:0:0:
36,192,178822,1,0,0:0:0:0:
329,192,178988,1,0,0:0:0:0:
402,192,178988,1,0,0:0:0:0:
182,192,178988,1,0,0:0:0:0:
182,192,179155,1,0,0:0:0:0:
256,192,179155,1,0,0:0:0:0:
475,192,179155,1,0,0:0:0:0:
36,192,179155,1,0,0:0:0:0:
109,192,179321,1,0,0:0:0:0:
256,192,179321,1,0,0:0:0:0:
402,192,179321,1,0,0:0:0:0:
402,192,179487,1,0,0:0:0:0:
182,192,179487,1,0,0:0:0:0:
329,192,179487,1,0,0:0:0:0:
36,192,179487,1,0,0:0:0:0:
329,192,179654,1,0,0:0:0:0:
109,192,179654,1,0,0:0:0:0:
475,192,179654,1,0,0:0:0:0:
109,192,179820,1,0,0:0:0:0:
256,192,179820,1,0,0:0:0:0:
402,192,179820,1,0,0:0:0:0:
36,192,179820,1,0,0:0:0:0:
182,192,179986,1,0,0:0:0:0:
256,192,179986,1,0,0:0:0:0:
475,192,179986,1,0,0:0:0:0:
182,192,180152,1,0,0:0:0:0:
329,192,180152,1,0,0:0:0:0:
475,192,180152,1,0,0:0:0:0:
36,192,180152,1,0,0:0:0:0:
109,192,180319,1,0,0:0:0:0:
256,192,180319,1,0,0:0:0:0:
329,192,180319,1,0,0:0:0:0:
109,192,180485,1,0,0:0:0:0:
182,192,180485,1,0,0:0:0:0:
402,192,180485,1,0,0:0:0:0:
475,192,180485,1,0,0:0:0:0:
182,192,180651,1,0,0:0:0:0:
36,192,180651,1,0,0:0:0:0:
329,192,180651,1,0,0:0:0:0:
256,192,180818,1,0,0:0:0:0:
329,192,180818,1,0,0:0:0:0:
475,192,180818,1,0,0:0:0:0:
109,192,180818,1,0,0:0:0:0:
109,192,180984,1,0,0:0:0:0:
182,192,180984,1,0,0:0:0:0:
402,192,180984,1,0,0:0:0:0:
402,192,181150,1,0,0:0:0:0:
256,192,181150,1,0,0:0:0:0:
36,192,181150,1,0,0:0:0:0:
475,192,181150,1,0,0:0:0:0:
36,192,181317,1,0,0:0:0:0:
109,192,181317,1,0,0:0:0:0:
182,192,181317,1,0,0:0:0:0:
329,192,181317,1,0,0:0:0:0:
182,192,181483,1,0,0:0:0:0:
256,192,181483,1,0,0:0:0:0:
402,192,181483,1,0,0:0:0:0:
475,192,181483,1,0,0:0:0:0:
402,192,181649,1,0,0:0:0:0:
109,192,181649,1,0,0:0:0:0:
329,192,181649,1,0,0:0:0:0:
36,192,181649,1,0,0:0:0:0:
109,192,181815,1,0,0:0:0:0:
256,192,181815,1,0,0:0:0:0:
182,192,181815,1,0,0:0:0:0:
475,192,181815,1,0,0:0:0:0:
256,192,181982,1,0,0:0:0:0:
402,192,181982,1,0,0:0:0:0:
36,192,181982,1,0,0:0:0:0:
329,192,181982,1,0,0:0:0:0:
36,192,182148,1,0,0:0:0:0:
182,192,182148,1,0,0:0:0:0:
475,192,182148,1,0,0:0:0:0:
109,192,182148,1,0,0:0:0:0:
475,192,182314,1,0,0:0:0:0:
256,192,182314,1,0,0:0:0:0:
329,192,182314,1,0,0:0:0:0:
402,192,182314,1,0,0:0:0:0:
256,192,182481,1,0,0:0:0:0:
109,192,182481,1,0,0:0:0:0:
36,192,182481,1,0,0:0:0:0:
182,192,182481,1,0,0:0:0:0:
109,192,182647,1,0,0:0:0:0:
329,192,182647,1,0,0:0:0:0:
402,192,182647,1,0,0:0:0:0:
475,192,182647,1,0,0:0:0:0:
182,192,182813,1,0,0:0:0:0:
256,192,182813,1,0,0:0:0:0:
36,192,182813,1,0,0:0:0:0:
402,192,182813,1,0,0:0:0:0:
182,192,182980,1,0,0:0:0:0:
109,192,182980,1,0,0:0:0:0:
329,192,182980,1,0,0:0:0:0:
475,192,182980,1,0,0:0:0:0:
36,192,183146,1,0,0:0:0:0:
256,192,183146,1,0,0:0:0:0:
402,192,183146,1,0,0:0:0:0:
475,192,183146,1,0,0:0:0:0:
36,192,183312,1,0,0:0:0:0:
182,192,183312,1,0,0:0:0:0:
109,192,183312,1,0,0:0:0:0:
329,192,183312,1,0,0:0:0:0:
256,192,183478,1,0,0:0:0:0:
182,192,183478,1,0,0:0:0:0:
402,192,183478,1,0,0:0:0:0:
475,192,183478,1,0,0:0:0:0:
109,192,183645,1,0,0:0:0:0:
256,192,183645,1,0,0:0:0:0:
36,192,183645,1,0,0:0:0:0:
329,192,183645,1,0,0:0:0:0:
402,192,183811,1,0,0:0:0:0:
475,192,183811,1,0,0:0:0:0:
182,192,183894,1,0,0:0:0:0:
109,192,183894,1,0,0:0:0:0:
329,192,183977,1,0,0:0:0:0:
402,192,183977,1,0,0:0:0:0:
36,192,184060,1,0,0:0:0:0:
109,192,184060,1,0,0:0:0:0:
256,192,184144,1,0,0:0:0:0:
329,192,184144,1,0,0:0:0:0:
109,192,184227,1,0,0:0:0:0:
182,192,184227,1,0,0:0:0:0:
402,192,184310,1,0,0:0:0:0:
475,192,184310,1,0,0:0:0:0:
182,192,184393,1,0,0:0:0:0:
256,192,184393,1,0,0:0:0:0:
402,192,184476,1,0,0:0:0:0:
475,192,184476,1,0,0:0:0:0:
36,192,184559,1,0,0:0:0:0:
109,192,184559,1,0,0:0:0:0:
256,192,184642,1,0,0:0:0:0:
329,192,184642,1,0,0:0:0:0:
182,192,184726,1,0,0:0:0:0:
109,192,184726,1,0,0:0:0:0:
402,192,184809,1,0,0:0:0:0:
475,192,184809,1,0,0:0:0:0:
182,192,184892,1,0,0:0:0:0:
256,192,184892,1,0,0:0:0:0:
109,192,184975,1,0,0:0:0:0:
36,192,184975,1,0,0:0:0:0:
329,192,185058,1,0,0:0:0:0:
402,192,185058,1,0,0:0:0:0:
109,192,185141,1,0,0:0:0:0:
182,192,185141,1,0,0:0:0:0:
36,192,185141,1,0,0:0:0:0:
256,192,185225,1,0,0:0:0:0:
329,192,185225,1,0,0:0:0:0:
402,192,185308,1,0,0:0:0:0:
475,192,185308,1,0,0:0:0:0:
36,192,185308,1,0,0:0:0:0:
109,192,185391,1,0,0:0:0:0:
182,192,185391,1,0,0:0:0:0:
475,192,185474,1,0,0:0:0:0:
329,192,185474,1,0,0:0:0:0:
402,192,185474,1,0,0:0:0:0:
182,192,185557,1,0,0:0:0:0:
256,192,185557,1,0,0:0:0:0:
109,192,185640,1,0,0:0:0:0:
36,192,185640,1,0,0:0:0:0:
475,192,185640,1,0,0:0:0:0:
329,192,185723,1,0,0:0:0:0:
402,192,185723,1,0,0:0:0:0:
36,192,185807,1,0,0:0:0:0:
109,192,185807,1,0,0:0:0:0:
256,192,185807,1,0,0:0:0:0:
475,192,185890,1,0,0:0:0:0:
402,192,185890,1,0,0:0:0:0:
109,192,185973,1,0,0:0:0:0:
182,192,185973,1,0,0:0:0:0:
402,192,186056,1,0,0:0:0:0:
329,192,186056,1,0,0:0:0:0:
256,192,186139,1,0,0:0:0:0:
109,192,186139,1,0,0:0:0:0:
36,192,186139,1,0,0:0:0:0:
475,192,186222,1,0,0:0:0:0:
329,192,186222,1,0,0:0:0:0:
402,192,186222,1,0,0:0:0:0:
182,192,186305,1,0,0:0:0:0:
109,192,186305,1,0,0:0:0:0:
36,192,186305,1,0,0:0:0:0:
329,192,186389,1,0,0:0:0:0:
402,192,186389,1,0,0:0:0:0:
475,192,186389,1,0,0:0:0:0:
36,192,186472,128,0,186638:0:0:0:0:
109,192,186638,128,0,186804:0:0:0:0:
256,192,186804,128,0,186971:0:0:0:0:
329,192,186971,128,0,187137:0:0:0:0:
109,192,187137,128,0,187303:0:0:0:0:
182,192,187303,128,0,187470:0:0:0:0:
329,192,187470,128,0,187636:0:0:0:0:
402,192,187636,128,0,187802:0:0:0:0:
182,192,187802,128,0,187968:0:0:0:0:
256,192,187968,128,0,188135:0:0:0:0:
402,192,188135,128,0,188301:0:0:0:0:
475,192,188301,128,0,188467:0:0:0:0:
329,192,188467,1,0,0:0:0:0:
182,192,188467,1,0,0:0:0:0:
109,192,188467,1,0,0:0:0:0:
36,192,188467,1,0,0:0:0:0:
402,192,188467,1,0,0:0:0:0:
182,192,188800,1,0,0:0:0:0:
329,192,188800,1,0,0:0:0:0:
36,192,189133,1,0,0:0:0:0:
109,192,189133,1,0,0:0:0:0:
182,192,189133,1,0,0:0:0:0:
402,192,189133,1,0,0:0:0:0:
475,192,189133,1,0,0:0:0:0:
256,192,189133,128,0,189299:0:0:0:0:
109,192,189299,1,0,0:0:0:0:
402,192,189299,1,0,0:0:0:0:
475,192,189465,1,0,0:0:0:0:
182,192,189465,1,0,0:0:0:0:
256,192,189465,1,0,0:0:0:0:
36,192,189465,1,0,0:0:0:0:
329,192,189465,128,0,189631:0:0:0:0:
182,192,189631,1,0,0:0:0:0:
402,192,189631,1,0,0:0:0:0:
36,192,189798,1,0,0:0:0:0:
256,192,189798,1,0,0:0:0:0:
475,192,189798,1,0,0:0:0:0:
329,192,189798,1,0,0:0:0:0:
109,192,189798,128,0,189964:0:0:0:0:
256,192,189964,128,0,190130:0:0:0:0:
402,192,189964,1,0,0:0:0:0:
329,192,190130,1,0,0:0:0:0:
475,192,190130,1,0,0:0:0:0:
182,192,190130,1,0,0:0:0:0:
36,192,190130,1,0,0:0:0:0:
109,192,190130,1,0,0:0:0:0:
109,192,190297,1,0,0:0:0:0:
329,192,190297,128,0,190463:0:0:0:0:
475,192,190463,1,0,0:0:0:0:
402,192,190463,1,0,0:0:0:0:
182,192,190463,1,0,0:0:0:0:
36,192,190463,1,0,0:0:0:0:
256,192,190463,1,0,0:0:0:0:
256,192,190629,1,0,0:0:0:0:
109,192,190629,128,0,190795:0:0:0:0:
182,192,190795,1,0,0:0:0:0:
402,192,190795,1,0,0:0:0:0:
36,192,190795,1,0,0:0:0:0:
329,192,190795,1,0,0:0:0:0:
475,192,190795,128,0,190962:0:0:0:0:
109,192,190962,1,0,0:0:0:0:
256,192,190962,128,0,191128:0:0:0:0:
182,192,191128,1,0,0:0:0:0:
36,192,191128,1,0,0:0:0:0:
475,192,191128,1,0,0:0:0:0:
109,192,191128,1,0,0:0:0:0:
329,192,191128,1,0,0:0:0:0:
182,192,191294,1,0,0:0:0:0:
329,192,191294,128,0,191461:0:0:0:0:
256,192,191461,1,0,0:0:0:0:
36,192,191461,1,0,0:0:0:0:
475,192,191461,1,0,0:0:0:0:
402,192,191461,1,0,0:0:0:0:
109,192,191461,128,0,191627:0:0:0:0:
402,192,191627,128,0,191793:0:0:0:0:
182,192,191627,1,0,0:0:0:0:
475,192,191793,1,0,0:0:0:0:
109,192,191793,1,0,0:0:0:0:
36,192,191793,1,0,0:0:0:0:
329,192,191793,1,0,0:0:0:0:
256,192,191793,128,0,191960:0:0:0:0:
182,192,191960,1,0,0:0:0:0:
329,192,191960,1,0,0:0:0:0:
36,192,192126,1,0,0:0:0:0:
256,192,192126,1,0,0:0:0:0:
402,192,192126,1,0,0:0:0:0:
475,192,192126,1,0,0:0:0:0:
109,192,192126,128,0,192292:0:0:0:0:
182,192,192292,1,0,0:0:0:0:
329,192,192292,1,0,0:0:0:0:
36,192,192458,1,0,0:0:0:0:
109,192,192458,1,0,0:0:0:0:
475,192,192458,1,0,0:0:0:0:
182,192,192458,1,0,0:0:0:0:
402,192,192458,128,0,192625:0:0:0:0:
329,192,192625,1,0,0:0:0:0:
256,192,192625,128,0,192791:0:0:0:0:
36,192,192791,1,0,0:0:0:0:
109,192,192791,1,0,0:0:0:0:
182,192,192791,1,0,0:0:0:0:
475,192,192791,1,0,0:0:0:0:
402,192,192791,1,0,0:0:0:0:
182,192,192957,1,0,0:0:0:0:
329,192,192957,128,0,193124:0:0:0:0:
256,192,193124,1,0,0:0:0:0:
109,192,193124,1,0,0:0:0:0:
402,192,193124,1,0,0:0:0:0:
475,192,193124,1,0,0:0:0:0:
36,192,193124,1,0,0:0:0:0:
256,192,193290,1,0,0:0:0:0:
36,192,193290,128,0,193456:0:0:0:0:
182,192,193456,1,0,0:0:0:0:
329,192,193456,1,0,0:0:0:0:
402,192,193456,1,0,0:0:0:0:
475,192,193456,1,0,0:0:0:0:
109,192,193456,1,0,0:0:0:0:
109,192,193623,1,0,0:0:0:0:
402,192,193623,128,0,193789:0:0:0:0:
256,192,193789,1,0,0:0:0:0:
182,192,193789,1,0,0:0:0:0:
36,192,193789,1,0,0:0:0:0:
329,192,193789,1,0,0:0:0:0:
475,192,193789,1,0,0:0:0:0:
402,192,193955,1,0,0:0:0:0:
182,192,193955,128,0,194121:0:0:0:0:
109,192,194121,1,0,0:0:0:0:
475,192,194121,1,0,0:0:0:0:
256,192,194121,1,0,0:0:0:0:
36,192,194121,1,0,0:0:0:0:
402,192,194121,1,0,0:0:0:0:
256,192,194288,1,0,0:0:0:0:
109,192,194288,128,0,194454:0:0:0:0:
36,192,194454,1,0,0:0:0:0:
182,192,194454,1,0,0:0:0:0:
475,192,194454,1,0,0:0:0:0:
402,192,194454,1,0,0:0:0:0:
329,192,194454,128,0,194620:0:0:0:0:
109,192,194620,1,0,0:0:0:0:
256,192,194620,1,0,0:0:0:0:
402,192,194787,1,0,0:0:0:0:
329,192,194787,1,0,0:0:0:0:
475,192,194787,1,0,0:0:0:0:
36,192,194787,1,0,0:0:0:0:
182,192,194787,128,0,194953:0:0:0:0:
109,192,194953,1,0,0:0:0:0:
329,192,194953,1,0,0:0:0:0:
256,192,195119,1,0,0:0:0:0:
182,192,195119,1,0,0:0:0:0:
36,192,195119,1,0,0:0:0:0:
475,192,195119,1,0,0:0:0:0:
402,192,195119,128,0,195286:0:0:0:0:
329,192,195286,128,0,195452:0:0:0:0:
109,192,195286,1,0,0:0:0:0:
109,192,195452,1,0,0:0:0:0:
475,192,195452,1,0,0:0:0:0:
402,192,195452,1,0,0:0:0:0:
256,192,195452,1,0,0:0:0:0:
36,192,195452,1,0,0:0:0:0:
329,192,195618,1,0,0:0:0:0:
182,192,195618,128,0,195784:0:0:0:0:
36,192,195784,1,0,0:0:0:0:
109,192,195784,1,0,0:0:0:0:
256,192,195784,1,0,0:0:0:0:
475,192,195784,1,0,0:0:0:0:
402,192,195784,1,0,0:0:0:0:
182,192,195951,1,0,0:0:0:0:
329,192,195951,128,0,196117:0:0:0:0:
475,192,196117,1,0,0:0:0:0:
402,192,196117,1,0,0:0:0:0:
36,192,196117,1,0,0:0:0:0:
256,192,196117,1,0,0:0:0:0:
109,192,196117,128,0,196283:0:0:0:0:
402,192,196283,1,0,0:0:0:0:
182,192,196283,128,0,196450:0:0:0:0:
256,192,196450,1,0,0:0:0:0:
329,192,196450,1,0,0:0:0:0:
109,192,196450,1,0,0:0:0:0:
36,192,196450,1,0,0:0:0:0:
475,192,196450,1,0,0:0:0:0:
182,192,196616,1,0,0:0:0:0:
329,192,196616,128,0,196782:0:0:0:0:
402,192,196782,1,0,0:0:0:0:
475,192,196782,1,0,0:0:0:0:
182,192,196782,1,0,0:0:0:0:
36,192,196782,1,0,0:0:0:0:
256,192,196782,128,0,196948:0:0:0:0:
329,192,196948,1,0,0:0:0:0:
109,192,196948,128,0,197115:0:0:0:0:
182,192,197115,1,0,0:0:0:0:
475,192,197115,1,0,0:0:0:0:
36,192,197115,1,0,0:0:0:0:
329,192,197115,1,0,0:0:0:0:
402,192,197115,128,0,197281:0:0:0:0:
109,192,197281,1,0,0:0:0:0:
256,192,197281,1,0,0:0:0:0:
36,192,197447,1,0,0:0:0:0:
109,192,197447,1,0,0:0:0:0:
475,192,197447,1,0,0:0:0:0:
329,192,197447,1,0,0:0:0:0:
182,192,197447,128,0,197614:0:0:0:0:
402,192,197614,1,0,0:0:0:0:
256,192,197614,1,0,0:0:0:0:
256,192,197780,1,0,0:0:0:0:
109,192,197780,1,0,0:0:0:0:
402,192,197780,1,0,0:0:0:0:
475,192,197780,1,0,0:0:0:0:
36,192,197780,128,0,197946:0:0:0:0:
182,192,197946,1,0,0:0:0:0:
329,192,197946,128,0,198113:0:0:0:0:
109,192,198113,1,0,0:0:0:0:
36,192,198113,1,0,0:0:0:0:
256,192,198113,1,0,0:0:0:0:
402,192,198113,1,0,0:0:0:0:
475,192,198113,1,0,0:0:0:0:
329,192,198279,1,0,0:0:0:0:
182,192,198279,128,0,198445:0:0:0:0:
475,192,198445,1,0,0:0:0:0:
402,192,198445,1,0,0:0:0:0:
329,192,198445,1,0,0:0:0:0:
109,192,198445,1,0,0:0:0:0:
36,192,198445,1,0,0:0:0:0:
109,192,198611,1,0,0:0:0:0:
256,192,198611,128,0,198778:0:0:0:0:
182,192,198778,1,0,0:0:0:0:
329,192,198778,1,0,0:0:0:0:
36,192,198778,1,0,0:0:0:0:
475,192,198778,1,0,0:0:0:0:
402,192,198778,128,0,198944:0:0:0:0:
256,192,198944,1,0,0:0:0:0:
109,192,198944,1,0,0:0:0:0:
36,192,199110,1,0,0:0:0:0:
182,192,199110,1,0,0:0:0:0:
329,192,199110,1,0,0:0:0:0:
475,192,199110,1,0,0:0:0:0:
109,192,199110,128,0,199277:0:0:0:0:
256,192,199277,1,0,0:0:0:0:
402,192,199277,1,0,0:0:0:0:
109,192,199443,1,0,0:0:0:0:
36,192,199443,1,0,0:0:0:0:
402,192,199443,1,0,0:0:0:0:
475,192,199443,1,0,0:0:0:0:
256,192,199443,128,0,199609:0:0:0:0:
182,192,199609,1,0,0:0:0:0:
329,192,199609,1,0,0:0:0:0:
36,192,199776,1,0,0:0:0:0:
182,192,199776,1,0,0:0:0:0:
329,192,199776,1,0,0:0:0:0:
475,192,199776,1,0,0:0:0:0:
402,192,199776,128,0,199942:0:0:0:0:
256,192,199942,1,0,0:0:0:0:
109,192,199942,1,0,0:0:0:0:
36,192,200108,1,0,0:0:0:0:
475,192,200108,1,0,0:0:0:0:
182,192,200108,1,0,0:0:0:0:
329,192,200108,1,0,0:0:0:0:
109,192,200108,128,0,200274:0:0:0:0:
256,192,200274,1,0,0:0:0:0:
475,192,200274,1,0,0:0:0:0:
109,192,200441,1,0,0:0:0:0:
256,192,200441,1,0,0:0:0:0:
329,192,200441,1,0,0:0:0:0:
36,192,200441,1,0,0:0:0:0:
402,192,200441,128,0,200607:0:0:0:0:
182,192,200607,128,0,200773:0:0:0:0:
329,192,200607,1,0,0:0:0:0:
402,192,200773,1,0,0:0:0:0:
475,192,200773,1,0,0:0:0:0:
256,192,200773,1,0,0:0:0:0:
36,192,200773,1,0,0:0:0:0:
109,192,200773,1,0,0:0:0:0:
36,192,200940,1,0,0:0:0:0:
329,192,200940,128,0,201106:0:0:0:0:
475,192,201106,1,0,0:0:0:0:
182,192,201106,1,0,0:0:0:0:
256,192,201106,1,0,0:0:0:0:
402,192,201106,1,0,0:0:0:0:
109,192,201106,1,0,0:0:0:0:
256,192,201272,1,0,0:0:0:0:
109,192,201272,128,0,201439:0:0:0:0:
182,192,201439,1,0,0:0:0:0:
402,192,201439,1,0,0:0:0:0:
36,192,201439,1,0,0:0:0:0:
329,192,201439,1,0,0:0:0:0:
475,192,201439,128,0,201605:0:0:0:0:
109,192,201605,1,0,0:0:0:0:
256,192,201605,128,0,201771:0:0:0:0:
109,192,201771,1,0,0:0:0:0:
402,192,201771,1,0,0:0:0:0:
475,192,201771,1,0,0:0:0:0:
36,192,201771,1,0,0:0:0:0:
329,192,201771,1,0,0:0:0:0:
329,192,201937,1,0,0:0:0:0:
182,192,201937,128,0,202104:0:0:0:0:
109,192,202104,1,0,0:0:0:0:
475,192,202104,1,0,0:0:0:0:
36,192,202104,1,0,0:0:0:0:
256,192,202104,1,0,0:0:0:0:
402,192,202104,128,0,202270:0:0:0:0:
329,192,202270,128,0,202436:0:0:0:0:
109,192,202270,1,0,0:0:0:0:
475,192,202436,1,0,0:0:0:0:
182,192,202436,1,0,0:0:0:0:
402,192,202436,1,0,0:0:0:0:
256,192,202436,1,0,0:0:0:0:
36,192,202436,128,0,202603:0:0:0:0:
182,192,202603,1,0,0:0:0:0:
329,192,202603,1,0,0:0:0:0:
109,192,202769,1,0,0:0:0:0:
36,192,202769,1,0,0:0:0:0:
329,192,202769,1,0,0:0:0:0:
475,192,202769,1,0,0:0:0:0:
256,192,202769,128,0,202935:0:0:0:0:
182,192,202935,1,0,0:0:0:0:
402,192,202935,1,0,0:0:0:0:
36,192,203101,1,0,0:0:0:0:
109,192,203101,1,0,0:0:0:0:
475,192,203101,1,0,0:0:0:0:
182,192,203101,1,0,0:0:0:0:
329,192,203101,128,0,203268:0:0:0:0:
256,192,203268,1,0,0:0:0:0:
109,192,203268,128,0,203434:0:0:0:0:
182,192,203434,1,0,0:0:0:0:
36,192,203434,1,0,0:0:0:0:
329,192,203434,1,0,0:0:0:0:
402,192,203434,1,0,0:0:0:0:
475,192,203434,1,0,0:0:0:0:
36,192,203600,1,0,0:0:0:0:
329,192,203600,128,0,203767:0:0:0:0:
182,192,203767,1,0,0:0:0:0:
109,192,203767,1,0,0:0:0:0:
256,192,203767,1,0,0:0:0:0:
475,192,203767,1,0,0:0:0:0:
402,192,203767,1,0,0:0:0:0:
256,192,203933,1,0,0:0:0:0:
109,192,203933,128,0,204099:0:0:0:0:
182,192,204099,1,0,0:0:0:0:
402,192,204099,1,0,0:0:0:0:
329,192,204099,1,0,0:0:0:0:
475,192,204099,1,0,0:0:0:0:
36,192,204099,1,0,0:0:0:0:
256,192,204266,1,0,0:0:0:0:
402,192,204266,128,0,204432:0:0:0:0:
256,192,204432,1,0,0:0:0:0:
109,192,204432,1,0,0:0:0:0:
36,192,204432,1,0,0:0:0:0:
329,192,204432,1,0,0:0:0:0:
475,192,204432,1,0,0:0:0:0:
109,192,204598,1,0,0:0:0:0:
329,192,204598,128,0,204764:0:0:0:0:
182,192,204764,1,0,0:0:0:0:
256,192,204764,1,0,0:0:0:0:
402,192,204764,1,0,0:0:0:0:
36,192,204764,1,0,0:0:0:0:
475,192,204764,1,0,0:0:0:0:
256,192,204931,1,0,0:0:0:0:
109,192,204931,128,0,205097:0:0:0:0:
182,192,205097,1,0,0:0:0:0:
475,192,205097,1,0,0:0:0:0:
329,192,205097,1,0,0:0:0:0:
36,192,205097,1,0,0:0:0:0:
402,192,205097,128,0,205263:0:0:0:0:
256,192,205263,1,0,0:0:0:0:
109,192,205263,1,0,0:0:0:0:
329,192,205430,1,0,0:0:0:0:
402,192,205430,1,0,0:0:0:0:
182,192,205430,1,0,0:0:0:0:
109,192,205430,1,0,0:0:0:0:
475,192,205430,128,0,205596:0:0:0:0:
256,192,205596,1,0,0:0:0:0:
36,192,205596,1,0,0:0:0:0:
329,192,205762,1,0,0:0:0:0:
402,192,205762,1,0,0:0:0:0:
182,192,205762,1,0,0:0:0:0:
475,192,205762,1,0,0:0:0:0:
36,192,205762,128,0,205929:0:0:0:0:
256,192,205929,128,0,206095:0:0:0:0:
109,192,205929,1,0,0:0:0:0:
109,192,206095,1,0,0:0:0:0:
475,192,206095,1,0,0:0:0:0:
402,192,206095,1,0,0:0:0:0:
329,192,206095,1,0,0:0:0:0:
36,192,206095,1,0,0:0:0:0:
329,192,206261,1,0,0:0:0:0:
182,192,206261,128,0,206427:0:0:0:0:
36,192,206427,1,0,0:0:0:0:
402,192,206427,1,0,0:0:0:0:
109,192,206427,1,0,0:0:0:0:
256,192,206427,1,0,0:0:0:0:
475,192,206427,1,0,0:0:0:0:
182,192,206594,1,0,0:0:0:0:
329,192,206594,128,0,206760:0:0:0:0:
475,192,206760,1,0,0:0:0:0:
402,192,206760,1,0,0:0:0:0:
256,192,206760,1,0,0:0:0:0:
36,192,206760,1,0,0:0:0:0:
109,192,206760,128,0,206926:0:0:0:0:
256,192,206926,1,0,0:0:0:0:
475,192,206926,128,0,207093:0:0:0:0:
182,192,207093,1,0,0:0:0:0:
402,192,207093,1,0,0:0:0:0:
109,192,207093,1,0,0:0:0:0:
36,192,207093,1,0,0:0:0:0:
329,192,207093,1,0,0:0:0:0:
109,192,207259,1,0,0:0:0:0:
329,192,207259,128,0,207425:0:0:0:0:
402,192,207425,1,0,0:0:0:0:
475,192,207425,1,0,0:0:0:0:
182,192,207425,1,0,0:0:0:0:
36,192,207425,1,0,0:0:0:0:
256,192,207425,128,0,207591:0:0:0:0:
402,192,207591,1,0,0:0:0:0:
109,192,207591,128,0,207758:0:0:0:0:
182,192,207758,1,0,0:0:0:0:
36,192,207758,1,0,0:0:0:0:
329,192,207758,1,0,0:0:0:0:
256,192,207758,1,0,0:0:0:0:
475,192,207758,128,0,207924:0:0:0:0:
109,192,207924,1,0,0:0:0:0:
329,192,207924,1,0,0:0:0:0:
109,192,208090,1,0,0:0:0:0:
36,192,208090,1,0,0:0:0:0:
475,192,208090,1,0,0:0:0:0:
402,192,208090,1,0,0:0:0:0:
256,192,208090,128,0,208257:0:0:0:0:
182,192,208257,1,0,0:0:0:0:
329,192,208257,1,0,0:0:0:0:
402,192,208423,1,0,0:0:0:0:
109,192,208423,1,0,0:0:0:0:
256,192,208423,1,0,0:0:0:0:
475,192,208423,1,0,0:0:0:0:
36,192,208423,128,0,208589:0:0:0:0:
256,192,208589,1,0,0:0:0:0:
329,192,208589,128,0,208756:0:0:0:0:
182,192,208589,1,0,0:0:0:0:
402,192,208589,1,0,0:0:0:0:
475,192,208589,1,0,0:0:0:0:
36,192,208756,1,0,0:0:0:0:
182,192,208756,1,0,0:0:0:0:
109,192,208922,1,0,0:0:0:0:
256,192,208922,128,0,209088:0:0:0:0:
36,192,208922,1,0,0:0:0:0:
475,192,208922,1,0,0:0:0:0:
402,192,208922,128,0,209088:0:0:0:0:
475,192,209254,128,0,209421:0:0:0:0:
109,192,209254,128,0,209421:0:0:0:0:
182,192,209421,128,0,209587:0:0:0:0:
329,192,209421,128,0,209587:0:0:0:0:
182,192,209753,128,0,209920:0:0:0:0:
36,192,209753,128,0,209920:0:0:0:0:
256,192,210086,128,0,210252:0:0:0:0:
109,192,210086,128,0,210252:0:0:0:0:
402,192,210086,1,0,0:0:0:0:
475,192,210086,1,0,0:0:0:0:
329,192,210252,1,0,0:0:0:0:
109,192,210419,5,0,0:0:0:0:
36,192,210419,1,0,0:0:0:0:
402,192,210419,1,0,0:0:0:0:
256,192,210419,1,0,0:0:0:0:
475,192,210419,1,0,0:0:0:0:
182,192,210502,1,0,0:0:0:0:
402,192,210585,1,0,0:0:0:0:
109,192,210585,1,0,0:0:0:0:
256,192,210668,1,0,0:0:0:0:
182,192,210751,1,0,0:0:0:0:
36,192,210751,1,0,0:0:0:0:
475,192,210751,1,0,0:0:0:0:
329,192,210751,1,0,0:0:0:0:
402,192,210834,1,0,0:0:0:0:
256,192,210917,1,0,0:0:0:0:
109,192,210917,1,0,0:0:0:0:
329,192,211001,1,0,0:0:0:0:
475,192,211084,1,0,0:0:0:0:
36,192,211084,1,0,0:0:0:0:
182,192,211084,1,0,0:0:0:0:
402,192,211084,1,0,0:0:0:0:
256,192,211167,1,0,0:0:0:0:
402,192,211250,1,0,0:0:0:0:
109,192,211250,1,0,0:0:0:0:
182,192,211250,1,0,0:0:0:0:
329,192,211333,1,0,0:0:0:0:
256,192,211416,1,0,0:0:0:0:
475,192,211416,1,0,0:0:0:0:
36,192,211416,1,0,0:0:0:0:
402,192,211416,1,0,0:0:0:0:
182,192,211499,1,0,0:0:0:0:
475,192,211583,1,0,0:0:0:0:
109,192,211583,1,0,0:0:0:0:
329,192,211583,1,0,0:0:0:0:
256,192,211666,1,0,0:0:0:0:
36,192,211749,1,0,0:0:0:0:
329,192,211749,1,0,0:0:0:0:
402,192,211749,1,0,0:0:0:0:
182,192,211749,1,0,0:0:0:0:
109,192,211832,1,0,0:0:0:0:
475,192,211915,1,0,0:0:0:0:
256,192,211915,1,0,0:0:0:0:
36,192,211915,1,0,0:0:0:0:
402,192,211998,1,0,0:0:0:0:
329,192,212082,1,0,0:0:0:0:
475,192,212082,1,0,0:0:0:0:
36,192,212082,1,0,0:0:0:0:
182,192,212082,1,0,0:0:0:0:
256,192,212165,1,0,0:0:0:0:
109,192,212248,1,0,0:0:0:0:
402,192,212248,1,0,0:0:0:0:
329,192,212248,1,0,0:0:0:0:
182,192,212331,1,0,0:0:0:0:
36,192,212414,1,0,0:0:0:0:
475,192,212414,1,0,0:0:0:0:
256,192,212414,1,0,0:0:0:0:
402,192,212414,1,0,0:0:0:0:
109,192,212497,1,0,0:0:0:0:
329,192,212580,1,0,0:0:0:0:
402,192,212580,1,0,0:0:0:0:
182,192,212664,1,0,0:0:0:0:
36,192,212747,1,0,0:0:0:0:
402,192,212747,1,0,0:0:0:0:
256,192,212747,1,0,0:0:0:0:
475,192,212747,1,0,0:0:0:0:
109,192,212830,1,0,0:0:0:0:
329,192,212913,1,0,0:0:0:0:
475,192,212913,1,0,0:0:0:0:
182,192,212913,1,0,0:0:0:0:
402,192,212996,1,0,0:0:0:0:
475,192,213079,1,0,0:0:0:0:
256,192,213079,1,0,0:0:0:0:
36,192,213079,1,0,0:0:0:0:
109,192,213079,1,0,0:0:0:0:
329,192,213162,1,0,0:0:0:0:
36,192,213246,1,0,0:0:0:0:
402,192,213246,1,0,0:0:0:0:
182,192,213246,1,0,0:0:0:0:
109,192,213329,1,0,0:0:0:0:
329,192,213412,1,0,0:0:0:0:
36,192,213412,1,0,0:0:0:0:
256,192,213412,1,0,0:0:0:0:
475,192,213412,1,0,0:0:0:0:
182,192,213495,1,0,0:0:0:0:
402,192,213578,1,0,0:0:0:0:
109,192,213578,1,0,0:0:0:0:
329,192,213661,1,0,0:0:0:0:
36,192,213744,1,0,0:0:0:0:
475,192,213744,1,0,0:0:0:0:
402,192,213744,1,0,0:0:0:0:
182,192,213744,1,0,0:0:0:0:
256,192,213828,1,0,0:0:0:0:
475,192,213911,1,0,0:0:0:0:
109,192,213911,1,0,0:0:0:0:
329,192,213911,1,0,0:0:0:0:
182,192,213994,1,0,0:0:0:0:
475,192,214077,1,0,0:0:0:0:
36,192,214077,1,0,0:0:0:0:
256,192,214077,1,0,0:0:0:0:
402,192,214077,1,0,0:0:0:0:
329,192,214160,1,0,0:0:0:0:
402,192,214243,1,0,0:0:0:0:
109,192,214243,1,0,0:0:0:0:
256,192,214243,1,0,0:0:0:0:
182,192,214327,1,0,0:0:0:0:
329,192,214410,1,0,0:0:0:0:
475,192,214410,1,0,0:0:0:0:
36,192,214410,1,0,0:0:0:0:
109,192,214410,1,0,0:0:0:0:
256,192,214493,1,0,0:0:0:0:
402,192,214576,1,0,0:0:0:0:
182,192,214576,1,0,0:0:0:0:
329,192,214659,1,0,0:0:0:0:
182,192,214742,1,0,0:0:0:0:
475,192,214742,1,0,0:0:0:0:
402,192,214742,1,0,0:0:0:0:
36,192,214742,1,0,0:0:0:0:
256,192,214825,1,0,0:0:0:0:
329,192,214909,1,0,0:0:0:0:
109,192,214909,1,0,0:0:0:0:
402,192,214992,1,0,0:0:0:0:
36,192,215075,1,0,0:0:0:0:
475,192,215075,1,0,0:0:0:0:
182,192,215075,1,0,0:0:0:0:
329,192,215075,1,0,0:0:0:0:
109,192,215158,1,0,0:0:0:0:
402,192,215241,1,0,0:0:0:0:
182,192,215241,1,0,0:0:0:0:
329,192,215324,1,0,0:0:0:0:
36,192,215407,1,0,0:0:0:0:
475,192,215407,1,0,0:0:0:0:
256,192,215407,1,0,0:0:0:0:
109,192,215407,1,0,0:0:0:0:
402,192,215491,1,0,0:0:0:0:
36,192,215574,1,0,0:0:0:0:
182,192,215574,1,0,0:0:0:0:
329,192,215574,1,0,0:0:0:0:
109,192,215657,1,0,0:0:0:0:
475,192,215740,1,0,0:0:0:0:
36,192,215740,1,0,0:0:0:0:
256,192,215740,1,0,0:0:0:0:
402,192,215740,1,0,0:0:0:0:
329,192,215823,1,0,0:0:0:0:
109,192,215906,1,0,0:0:0:0:
402,192,215906,1,0,0:0:0:0:
256,192,215990,1,0,0:0:0:0:
36,192,216073,1,0,0:0:0:0:
182,192,216073,1,0,0:0:0:0:
329,192,216073,1,0,0:0:0:0:
475,192,216073,1,0,0:0:0:0:
402,192,216156,1,0,0:0:0:0:
256,192,216239,1,0,0:0:0:0:
109,192,216239,1,0,0:0:0:0:
182,192,216322,1,0,0:0:0:0:
36,192,216405,1,0,0:0:0:0:
475,192,216405,1,0,0:0:0:0:
402,192,216405,1,0,0:0:0:0:
329,192,216405,1,0,0:0:0:0:
256,192,216488,1,0,0:0:0:0:
109,192,216572,1,0,0:0:0:0:
402,192,216572,1,0,0:0:0:0:
36,192,216572,1,0,0:0:0:0:
182,192,216655,1,0,0:0:0:0:
256,192,216738,1,0,0:0:0:0:
475,192,216738,1,0,0:0:0:0:
402,192,216738,1,0,0:0:0:0:
36,192,216738,1,0,0:0:0:0:
109,192,216821,1,0,0:0:0:0:
475,192,216904,1,0,0:0:0:0:
329,192,216904,1,0,0:0:0:0:
182,192,216904,1,0,0:0:0:0:
36,192,216987,1,0,0:0:0:0:
109,192,217070,1,0,0:0:0:0:
475,192,217070,1,0,0:0:0:0:
329,192,217070,1,0,0:0:0:0:
182,192,217070,1,0,0:0:0:0:
256,192,217154,1,0,0:0:0:0:
182,192,217237,1,0,0:0:0:0:
36,192,217237,1,0,0:0:0:0:
329,192,217237,1,0,0:0:0:0:
402,192,217320,1,0,0:0:0:0:
36,192,217403,1,0,0:0:0:0:
475,192,217403,1,0,0:0:0:0:
109,192,217403,1,0,0:0:0:0:
256,192,217403,1,0,0:0:0:0:
182,192,217486,1,0,0:0:0:0:
475,192,217569,1,0,0:0:0:0:
329,192,217569,1,0,0:0:0:0:
109,192,217569,1,0,0:0:0:0:
256,192,217652,1,0,0:0:0:0:
402,192,217736,1,0,0:0:0:0:
36,192,217736,1,0,0:0:0:0:
109,192,217736,1,0,0:0:0:0:
329,192,217736,1,0,0:0:0:0:
182,192,217819,1,0,0:0:0:0:
402,192,217902,1,0,0:0:0:0:
256,192,217902,1,0,0:0:0:0:
109,192,217985,1,0,0:0:0:0:
182,192,218068,1,0,0:0:0:0:
475,192,218068,1,0,0:0:0:0:
329,192,218068,1,0,0:0:0:0:
36,192,218068,1,0,0:0:0:0:
402,192,218151,1,0,0:0:0:0:
329,192,218235,1,0,0:0:0:0:
36,192,218235,1,0,0:0:0:0:
109,192,218235,1,0,0:0:0:0:
256,192,218318,1,0,0:0:0:0:
402,192,218401,1,0,0:0:0:0:
109,192,218401,1,0,0:0:0:0:
182,192,218401,1,0,0:0:0:0:
475,192,218401,1,0,0:0:0:0:
329,192,218484,1,0,0:0:0:0:
36,192,218567,1,0,0:0:0:0:
256,192,218567,1,0,0:0:0:0:
109,192,218650,1,0,0:0:0:0:
475,192,218733,1,0,0:0:0:0:
329,192,218733,1,0,0:0:0:0:
182,192,218733,1,0,0:0:0:0:
402,192,218733,1,0,0:0:0:0:
256,192,218817,1,0,0:0:0:0:
109,192,218900,1,0,0:0:0:0:
402,192,218900,1,0,0:0:0:0:
329,192,218983,1,0,0:0:0:0:
109,192,219066,1,0,0:0:0:0:
36,192,219066,1,0,0:0:0:0:
475,192,219066,1,0,0:0:0:0:
256,192,219066,1,0,0:0:0:0:
182,192,219149,1,0,0:0:0:0:
402,192,219232,1,0,0:0:0:0:
329,192,219232,1,0,0:0:0:0:
109,192,219232,1,0,0:0:0:0:
256,192,219315,1,0,0:0:0:0:
475,192,219399,1,0,0:0:0:0:
329,192,219399,1,0,0:0:0:0:
36,192,219399,1,0,0:0:0:0:
182,192,219399,1,0,0:0:0:0:
402,192,219482,1,0,0:0:0:0:
475,192,219565,1,0,0:0:0:0:
109,192,219565,1,0,0:0:0:0:
256,192,219565,1,0,0:0:0:0:
182,192,219648,1,0,0:0:0:0:
402,192,219731,1,0,0:0:0:0:
36,192,219731,1,0,0:0:0:0:
329,192,219731,1,0,0:0:0:0:
109,192,219731,1,0,0:0:0:0:
256,192,219814,1,0,0:0:0:0:
475,192,219897,1,0,0:0:0:0:
182,192,219897,1,0,0:0:0:0:
329,192,219981,1,0,0:0:0:0:
475,192,220064,1,0,0:0:0:0:
36,192,220064,1,0,0:0:0:0:
182,192,220064,1,0,0:0:0:0:
402,192,220064,1,0,0:0:0:0:
256,192,220147,1,0,0:0:0:0:
402,192,220230,1,0,0:0:0:0:
109,192,220230,1,0,0:0:0:0:
182,192,220313,1,0,0:0:0:0:
475,192,220396,1,0,0:0:0:0:
329,192,220396,1,0,0:0:0:0:
36,192,220396,1,0,0:0:0:0:
109,192,220396,1,0,0:0:0:0:
256,192,220480,1,0,0:0:0:0:
402,192,220563,1,0,0:0:0:0:
109,192,220563,1,0,0:0:0:0:
182,192,220646,1,0,0:0:0:0:
475,192,220729,1,0,0:0:0:0:
256,192,220729,1,0,0:0:0:0:
402,192,220729,1,0,0:0:0:0:
36,192,220729,1,0,0:0:0:0:
109,192,220729,1,0,0:0:0:0:
329,192,220729,1,0,0:0:0:0:
475,192,220895,1,0,0:0:0:0:
182,192,220895,1,0,0:0:0:0:
109,192,220895,1,0,0:0:0:0:
329,192,220895,1,0,0:0:0:0:
36,192,220895,1,0,0:0:0:0:
109,192,221062,5,0,0:0:0:0:
475,192,221062,1,0,0:0:0:0:
402,192,221062,1,0,0:0:0:0:
256,192,221062,1,0,0:0:0:0:
36,192,221062,1,0,0:0:0:0:
329,192,221145,1,0,0:0:0:0:
182,192,221228,1,0,0:0:0:0:
402,192,221228,1,0,0:0:0:0:
256,192,221311,1,0,0:0:0:0:
475,192,221394,1,0,0:0:0:0:
329,192,221394,1,0,0:0:0:0:
109,192,221394,1,0,0:0:0:0:
36,192,221394,1,0,0:0:0:0:
182,192,221477,1,0,0:0:0:0:
109,192,221560,1,0,0:0:0:0:
402,192,221560,1,0,0:0:0:0:
256,192,221644,1,0,0:0:0:0:
402,192,221727,1,0,0:0:0:0:
182,192,221727,1,0,0:0:0:0:
475,192,221727,1,0,0:0:0:0:
36,192,221727,1,0,0:0:0:0:
329,192,221810,1,0,0:0:0:0:
475,192,221893,1,0,0:0:0:0:
256,192,221893,1,0,0:0:0:0:
109,192,221893,1,0,0:0:0:0:
182,192,221976,1,0,0:0:0:0:
36,192,222059,1,0,0:0:0:0:
402,192,222059,1,0,0:0:0:0:
329,192,222059,1,0,0:0:0:0:
475,192,222059,1,0,0:0:0:0:
109,192,222142,1,0,0:0:0:0:
36,192,222226,1,0,0:0:0:0:
256,192,222226,1,0,0:0:0:0:
402,192,222226,1,0,0:0:0:0:
182,192,222309,1,0,0:0:0:0:
475,192,222392,1,0,0:0:0:0:
36,192,222392,1,0,0:0:0:0:
329,192,222392,1,0,0:0:0:0:
109,192,222392,1,0,0:0:0:0:
402,192,222475,1,0,0:0:0:0:
256,192,222558,1,0,0:0:0:0:
109,192,222558,1,0,0:0:0:0:
475,192,222558,1,0,0:0:0:0:
182,192,222641,1,0,0:0:0:0:
329,192,222725,1,0,0:0:0:0:
36,192,222725,1,0,0:0:0:0:
402,192,222725,1,0,0:0:0:0:
475,192,222725,1,0,0:0:0:0:
109,192,222808,1,0,0:0:0:0:
329,192,222891,1,0,0:0:0:0:
182,192,222891,1,0,0:0:0:0:
36,192,222891,1,0,0:0:0:0:
256,192,222974,1,0,0:0:0:0:
402,192,223057,1,0,0:0:0:0:
475,192,223057,1,0,0:0:0:0:
36,192,223057,1,0,0:0:0:0:
182,192,223057,1,0,0:0:0:0:
329,192,223140,1,0,0:0:0:0:
109,192,223223,1,0,0:0:0:0:
256,192,223223,1,0,0:0:0:0:
402,192,223307,1,0,0:0:0:0:
329,192,223390,1,0,0:0:0:0:
36,192,223390,1,0,0:0:0:0:
475,192,223390,1,0,0:0:0:0:
182,192,223390,1,0,0:0:0:0:
256,192,223473,1,0,0:0:0:0:
402,192,223556,1,0,0:0:0:0:
36,192,223556,1,0,0:0:0:0:
109,192,223556,1,0,0:0:0:0:
182,192,223639,1,0,0:0:0:0:
256,192,223722,1,0,0:0:0:0:
402,192,223722,1,0,0:0:0:0:
36,192,223722,1,0,0:0:0:0:
475,192,223722,1,0,0:0:0:0:
329,192,223805,1,0,0:0:0:0:
182,192,223889,1,0,0:0:0:0:
475,192,223889,1,0,0:0:0:0:
109,192,223889,1,0,0:0:0:0:
402,192,223972,1,0,0:0:0:0:
475,192,224055,1,0,0:0:0:0:
329,192,224055,1,0,0:0:0:0:
182,192,224055,1,0,0:0:0:0:
36,192,224055,1,0,0:0:0:0:
256,192,224138,1,0,0:0:0:0:
109,192,224221,1,0,0:0:0:0:
402,192,224221,1,0,0:0:0:0:
182,192,224304,1,0,0:0:0:0:
256,192,224388,1,0,0:0:0:0:
329,192,224388,1,0,0:0:0:0:
36,192,224388,1,0,0:0:0:0:
475,192,224388,1,0,0:0:0:0:
182,192,224471,1,0,0:0:0:0:
109,192,224554,1,0,0:0:0:0:
329,192,224554,1,0,0:0:0:0:
402,192,224554,1,0,0:0:0:0:
256,192,224637,1,0,0:0:0:0:
182,192,224720,1,0,0:0:0:0:
402,192,224720,1,0,0:0:0:0:
475,192,224720,1,0,0:0:0:0:
36,192,224720,1,0,0:0:0:0:
329,192,224803,1,0,0:0:0:0:
256,192,224886,1,0,0:0:0:0:
109,192,224886,1,0,0:0:0:0:
402,192,224886,1,0,0:0:0:0:
182,192,224970,1,0,0:0:0:0:
36,192,225053,1,0,0:0:0:0:
109,192,225053,1,0,0:0:0:0:
402,192,225053,1,0,0:0:0:0:
475,192,225053,1,0,0:0:0:0:
256,192,225136,1,0,0:0:0:0:
329,192,225219,1,0,0:0:0:0:
109,192,225219,1,0,0:0:0:0:
182,192,225219,1,0,0:0:0:0:
402,192,225302,1,0,0:0:0:0:
256,192,225385,1,0,0:0:0:0:
36,192,225385,1,0,0:0:0:0:
109,192,225385,1,0,0:0:0:0:
475,192,225385,1,0,0:0:0:0:
182,192,225468,1,0,0:0:0:0:
109,192,225552,1,0,0:0:0:0:
329,192,225552,1,0,0:0:0:0:
402,192,225552,1,0,0:0:0:0:
256,192,225635,1,0,0:0:0:0:
182,192,225718,1,0,0:0:0:0:
402,192,225718,1,0,0:0:0:0:
36,192,225718,1,0,0:0:0:0:
475,192,225718,1,0,0:0:0:0:
256,192,225801,1,0,0:0:0:0:
109,192,225884,1,0,0:0:0:0:
329,192,225884,1,0,0:0:0:0:
402,192,225967,1,0,0:0:0:0:
256,192,226050,1,0,0:0:0:0:
109,192,226050,1,0,0:0:0:0:
36,192,226050,1,0,0:0:0:0:
475,192,226050,1,0,0:0:0:0:
182,192,226134,1,0,0:0:0:0:
329,192,226217,1,0,0:0:0:0:
402,192,226217,1,0,0:0:0:0:
109,192,226217,1,0,0:0:0:0:
36,192,226217,1,0,0:0:0:0:
256,192,226300,1,0,0:0:0:0:
182,192,226383,1,0,0:0:0:0:
402,192,226383,1,0,0:0:0:0:
475,192,226383,1,0,0:0:0:0:
36,192,226383,1,0,0:0:0:0:
109,192,226466,1,0,0:0:0:0:
256,192,226549,1,0,0:0:0:0:
402,192,226549,1,0,0:0:0:0:
475,192,226549,1,0,0:0:0:0:
36,192,226549,1,0,0:0:0:0:
182,192,226633,1,0,0:0:0:0:
329,192,226716,1,0,0:0:0:0:
109,192,226716,1,0,0:0:0:0:
475,192,226716,1,0,0:0:0:0:
36,192,226716,1,0,0:0:0:0:
402,192,226799,1,0,0:0:0:0:
182,192,226882,1,0,0:0:0:0:
329,192,226882,1,0,0:0:0:0:
109,192,226882,1,0,0:0:0:0:
475,192,226882,1,0,0:0:0:0:
256,192,226965,1,0,0:0:0:0:
109,192,227048,1,0,0:0:0:0:
402,192,227048,1,0,0:0:0:0:
475,192,227048,1,0,0:0:0:0:
36,192,227048,1,0,0:0:0:0:
329,192,227131,1,0,0:0:0:0:
256,192,227215,1,0,0:0:0:0:
475,192,227215,1,0,0:0:0:0:
109,192,227215,1,0,0:0:0:0:
36,192,227215,1,0,0:0:0:0:
182,192,227298,1,0,0:0:0:0:
109,192,227381,1,0,0:0:0:0:
402,192,227381,1,0,0:0:0:0:
329,192,227381,1,0,0:0:0:0:
36,192,227381,1,0,0:0:0:0:
475,192,227464,1,0,0:0:0:0:
182,192,227547,1,0,0:0:0:0:
36,192,227547,1,0,0:0:0:0:
329,192,227547,1,0,0:0:0:0:
402,192,227547,1,0,0:0:0:0:
256,192,227630,1,0,0:0:0:0:
182,192,227713,1,0,0:0:0:0:
109,192,227713,1,0,0:0:0:0:
475,192,227713,1,0,0:0:0:0:
402,192,227713,1,0,0:0:0:0:
36,192,227713,1,0,0:0:0:0:
329,192,227797,1,0,0:0:0:0:
256,192,227880,1,0,0:0:0:0:
475,192,227880,1,0,0:0:0:0:
109,192,227880,1,0,0:0:0:0:
36,192,227880,1,0,0:0:0:0:
402,192,227963,1,0,0:0:0:0:
109,192,228046,1,0,0:0:0:0:
182,192,228046,1,0,0:0:0:0:
36,192,228046,1,0,0:0:0:0:
329,192,228046,1,0,0:0:0:0:
475,192,228129,1,0,0:0:0:0:
36,192,228212,1,0,0:0:0:0:
182,192,228212,1,0,0:0:0:0:
329,192,228212,1,0,0:0:0:0:
402,192,228212,1,0,0:0:0:0:
256,192,228295,1,0,0:0:0:0:
402,192,228379,1,0,0:0:0:0:
329,192,228379,1,0,0:0:0:0:
475,192,228379,1,0,0:0:0:0:
109,192,228379,1,0,0:0:0:0:
182,192,228462,1,0,0:0:0:0:
256,192,228545,1,0,0:0:0:0:
109,192,228545,1,0,0:0:0:0:
475,192,228545,1,0,0:0:0:0:
36,192,228545,1,0,0:0:0:0:
402,192,228628,1,0,0:0:0:0:
329,192,228711,1,0,0:0:0:0:
182,192,228711,1,0,0:0:0:0:
36,192,228711,1,0,0:0:0:0:
475,192,228711,1,0,0:0:0:0:
256,192,228794,1,0,0:0:0:0:
109,192,228878,1,0,0:0:0:0:
182,192,228878,1,0,0:0:0:0:
402,192,228878,1,0,0:0:0:0:
475,192,228878,1,0,0:0:0:0:
329,192,228961,1,0,0:0:0:0:
256,192,229044,1,0,0:0:0:0:
475,192,229044,1,0,0:0:0:0:
109,192,229044,1,0,0:0:0:0:
36,192,229044,1,0,0:0:0:0:
329,192,229127,1,0,0:0:0:0:
402,192,229127,1,0,0:0:0:0:
109,192,229210,1,0,0:0:0:0:
182,192,229210,1,0,0:0:0:0:
402,192,229293,1,0,0:0:0:0:
475,192,229293,1,0,0:0:0:0:
36,192,229376,1,0,0:0:0:0:
256,192,229376,1,0,0:0:0:0:
109,192,229376,1,0,0:0:0:0:
402,192,229460,1,0,0:0:0:0:
329,192,229460,1,0,0:0:0:0:
109,192,229543,1,0,0:0:0:0:
182,192,229543,1,0,0:0:0:0:
402,192,229626,1,0,0:0:0:0:
475,192,229626,1,0,0:0:0:0:
256,192,229709,1,0,0:0:0:0:
36,192,229709,1,0,0:0:0:0:
109,192,229709,1,0,0:0:0:0:
329,192,229792,1,0,0:0:0:0:
402,192,229792,1,0,0:0:0:0:
36,192,229875,1,0,0:0:0:0:
109,192,229875,1,0,0:0:0:0:
182,192,229958,1,0,0:0:0:0:
256,192,229958,1,0,0:0:0:0:
475,192,230042,1,0,0:0:0:0:
402,192,230042,1,0,0:0:0:0:
329,192,230042,1,0,0:0:0:0:
182,192,230125,1,0,0:0:0:0:
109,192,230125,1,0,0:0:0:0:
402,192,230208,1,0,0:0:0:0:
329,192,230208,1,0,0:0:0:0:
182,192,230291,1,0,0:0:0:0:
256,192,230291,1,0,0:0:0:0:
36,192,230374,1,0,0:0:0:0:
109,192,230374,1,0,0:0:0:0:
475,192,230374,1,0,0:0:0:0:
329,192,230457,1,0,0:0:0:0:
402,192,230457,1,0,0:0:0:0:
256,192,230541,1,0,0:0:0:0:
109,192,230541,1,0,0:0:0:0:
182,192,230541,1,0,0:0:0:0:
402,192,230624,1,0,0:0:0:0:
475,192,230624,1,0,0:0:0:0:
36,192,230707,1,0,0:0:0:0:
109,192,230707,1,0,0:0:0:0:
182,192,230707,1,0,0:0:0:0:
329,192,230790,1,0,0:0:0:0:
256,192,230790,1,0,0:0:0:0:
402,192,230873,1,0,0:0:0:0:
475,192,230873,1,0,0:0:0:0:
36,192,230956,1,0,0:0:0:0:
109,192,230956,1,0,0:0:0:0:
182,192,230956,1,0,0:0:0:0:
329,192,231039,1,0,0:0:0:0:
475,192,231039,1,0,0:0:0:0:
402,192,231039,1,0,0:0:0:0:
256,192,231123,1,0,0:0:0:0:
182,192,231123,1,0,0:0:0:0:
36,192,231206,1,0,0:0:0:0:
109,192,231206,1,0,0:0:0:0:
475,192,231206,1,0,0:0:0:0:
402,192,231289,1,0,0:0:0:0:
329,192,231289,1,0,0:0:0:0:
256,192,231289,1,0,0:0:0:0:
109,192,231372,1,0,0:0:0:0:
36,192,231372,1,0,0:0:0:0:
182,192,231372,1,0,0:0:0:0:
475,192,231455,1,0,0:0:0:0:
402,192,231455,1,0,0:0:0:0:
329,192,231455,1,0,0:0:0:0:
109,192,231538,1,0,0:0:0:0:
182,192,231538,1,0,0:0:0:0:
36,192,231538,1,0,0:0:0:0:
475,192,231621,1,0,0:0:0:0:
329,192,231621,1,0,0:0:0:0:
402,192,231621,1,0,0:0:0:0:
36,192,231705,1,0,0:0:0:0:
109,192,231705,1,0,0:0:0:0:
256,192,231705,128,0,232037:0:0:0:0:
402,192,232037,128,0,232370:0:0:0:0:
109,192,232370,128,0,232536:0:0:0:0:
475,192,232370,128,0,233700:0:0:0:0:
329,192,232536,128,0,232702:0:0:0:0:
182,192,232869,128,0,233368:0:0:0:0:
329,192,233700,128,0,233866:0:0:0:0:
109,192,233700,128,0,233866:0:0:0:0:
256,192,233866,128,0,234033:0:0:0:0:
36,192,233866,128,0,234033:0:0:0:0:
402,192,234199,128,0,234365:0:0:0:0:
182,192,234199,128,0,234365:0:0:0:0:
256,192,234365,1,0,0:0:0:0:
109,192,234365,1,0,0:0:0:0:
36,192,234365,1,0,0:0:0:0:
475,192,234365,1,0,0:0:0:0:
329,192,234448,1,0,0:0:0:0:
182,192,234448,1,0,0:0:0:0:
402,192,234532,1,0,0:0:0:0:
36,192,234532,1,0,0:0:0:0:
109,192,234615,1,0,0:0:0:0:
256,192,234615,1,0,0:0:0:0:
36,192,234698,1,0,0:0:0:0:
475,192,234698,1,0,0:0:0:0:
329,192,234698,1,0,0:0:0:0:
182,192,234698,1,0,0:0:0:0:
402,192,234864,1,0,0:0:0:0:
256,192,234864,1,0,0:0:0:0:
109,192,234864,1,0,0:0:0:0:
475,192,234864,1,0,0:0:0:0:
329,192,235031,1,0,0:0:0:0:
182,192,235031,1,0,0:0:0:0:
36,192,235031,1,0,0:0:0:0:
256,192,235114,1,0,0:0:0:0:
402,192,235114,1,0,0:0:0:0:
109,192,235197,1,0,0:0:0:0:
475,192,235197,1,0,0:0:0:0:
329,192,235280,1,0,0:0:0:0:
182,192,235280,1,0,0:0:0:0:
36,192,235363,1,0,0:0:0:0:
256,192,235363,1,0,0:0:0:0:
402,192,235363,1,0,0:0:0:0:
475,192,235363,1,0,0:0:0:0:
329,192,235529,1,0,0:0:0:0:
402,192,235529,1,0,0:0:0:0:
182,192,235529,1,0,0:0:0:0:
109,192,235529,1,0,0:0:0:0:
475,192,235696,1,0,0:0:0:0:
109,192,235696,1,0,0:0:0:0:
402,192,235696,1,0,0:0:0:0:
36,192,235696,1,0,0:0:0:0:
256,192,235696,1,0,0:0:0:0:
182,192,235862,1,0,0:0:0:0:
402,192,235862,1,0,0:0:0:0:
36,192,235862,1,0,0:0:0:0:
329,192,235862,1,0,0:0:0:0:
109,192,236028,1,0,0:0:0:0:
475,192,236028,1,0,0:0:0:0:
256,192,236028,1,0,0:0:0:0:
329,192,236028,1,0,0:0:0:0:
109,192,236195,1,0,0:0:0:0:
36,192,236195,1,0,0:0:0:0:
256,192,236195,1,0,0:0:0:0:
402,192,236195,1,0,0:0:0:0:
182,192,236361,1,0,0:0:0:0:
329,192,236361,1,0,0:0:0:0:
402,192,236527,1,0,0:0:0:0:
109,192,236527,1,0,0:0:0:0:
256,192,236527,1,0,0:0:0:0:
36,192,236527,1,0,0:0:0:0:
475,192,236693,1,0,0:0:0:0:
109,192,236693,1,0,0:0:0:0:
182,192,236693,1,0,0:0:0:0:
329,192,236693,1,0,0:0:0:0:
402,192,236860,1,0,0:0:0:0:
36,192,236860,1,0,0:0:0:0:
256,192,236860,1,0,0:0:0:0:
182,192,236860,1,0,0:0:0:0:
182,192,237026,1,0,0:0:0:0:
475,192,237026,1,0,0:0:0:0:
329,192,237026,1,0,0:0:0:0:
36,192,237026,1,0,0:0:0:0:
109,192,237109,1,0,0:0:0:0:
256,192,237109,1,0,0:0:0:0:
182,192,237192,1,0,0:0:0:0:
329,192,237192,1,0,0:0:0:0:
402,192,237276,1,0,0:0:0:0:
256,192,237276,1,0,0:0:0:0:
475,192,237359,1,0,0:0:0:0:
36,192,237359,1,0,0:0:0:0:
109,192,237359,1,0,0:0:0:0:
329,192,237359,1,0,0:0:0:0:
256,192,237525,1,0,0:0:0:0:
402,192,237525,1,0,0:0:0:0:
109,192,237525,1,0,0:0:0:0:
182,192,237525,1,0,0:0:0:0:
36,192,237691,1,0,0:0:0:0:
475,192,237691,1,0,0:0:0:0:
256,192,237691,1,0,0:0:0:0:
182,192,237774,1,0,0:0:0:0:
402,192,237774,1,0,0:0:0:0:
329,192,237858,1,0,0:0:0:0:
109,192,237858,1,0,0:0:0:0:
36,192,237941,1,0,0:0:0:0:
256,192,237941,1,0,0:0:0:0:
182,192,238024,1,0,0:0:0:0:
402,192,238024,1,0,0:0:0:0:
109,192,238107,1,0,0:0:0:0:
329,192,238107,1,0,0:0:0:0:
475,192,238190,1,0,0:0:0:0:
36,192,238190,1,0,0:0:0:0:
256,192,238190,1,0,0:0:0:0:
182,192,238273,1,0,0:0:0:0:
402,192,238273,1,0,0:0:0:0:
109,192,238356,128,0,238523:0:0:0:0:
36,192,238356,128,0,238523:0:0:0:0:
329,192,238356,128,0,238689:0:0:0:0:
402,192,238523,128,0,238689:0:0:0:0:
475,192,238523,128,0,238689:0:0:0:0:
182,192,238523,128,0,238689:0:0:0:0:
109,192,238689,128,0,238855:0:0:0:0:
36,192,238689,128,0,238855:0:0:0:0:
256,192,238689,128,0,239022:0:0:0:0:
182,192,239022,128,0,239354:0:0:0:0:
36,192,239022,128,0,239354:0:0:0:0:
475,192,239022,128,0,239687:0:0:0:0:
329,192,239022,128,0,239188:0:0:0:0:
402,192,239022,128,0,239188:0:0:0:0:
256,192,239354,128,0,239521:0:0:0:0:
402,192,239354,128,0,239687:0:0:0:0:
109,192,239354,128,0,239521:0:0:0:0:
36,192,239687,1,0,0:0:0:0:
256,192,239687,1,0,0:0:0:0:
109,192,239770,1,0,0:0:0:0:
329,192,239770,1,0,0:0:0:0:
402,192,239853,1,0,0:0:0:0:
182,192,239853,1,0,0:0:0:0:
256,192,239936,1,0,0:0:0:0:
475,192,239936,1,0,0:0:0:0:
402,192,240019,1,0,0:0:0:0:
329,192,240019,1,0,0:0:0:0:
36,192,240019,1,0,0:0:0:0:
182,192,240019,1,0,0:0:0:0:
109,192,240186,1,0,0:0:0:0:
402,192,240186,1,0,0:0:0:0:
256,192,240186,1,0,0:0:0:0:
36,192,240186,1,0,0:0:0:0:
329,192,240352,1,0,0:0:0:0:
182,192,240352,1,0,0:0:0:0:
36,192,240352,1,0,0:0:0:0:
475,192,240435,1,0,0:0:0:0:
256,192,240435,1,0,0:0:0:0:
402,192,240518,1,0,0:0:0:0:
182,192,240518,1,0,0:0:0:0:
329,192,240601,1,0,0:0:0:0:
109,192,240601,1,0,0:0:0:0:
475,192,240685,1,0,0:0:0:0:
36,192,240685,1,0,0:0:0:0:
256,192,240685,1,0,0:0:0:0:
402,192,240685,1,0,0:0:0:0:
109,192,240851,1,0,0:0:0:0:
182,192,240851,1,0,0:0:0:0:
36,192,240851,1,0,0:0:0:0:
329,192,240851,1,0,0:0:0:0:
109,192,241017,1,0,0:0:0:0:
256,192,241017,1,0,0:0:0:0:
402,192,241017,1,0,0:0:0:0:
475,192,241017,1,0,0:0:0:0:
182,192,241184,1,0,0:0:0:0:
329,192,241184,1,0,0:0:0:0:
36,192,241184,1,0,0:0:0:0:
402,192,241184,1,0,0:0:0:0:
182,192,241350,1,0,0:0:0:0:
109,192,241350,1,0,0:0:0:0:
256,192,241350,1,0,0:0:0:0:
475,192,241350,1,0,0:0:0:0:
36,192,241516,1,0,0:0:0:0:
109,192,241516,1,0,0:0:0:0:
256,192,241516,1,0,0:0:0:0:
402,192,241516,1,0,0:0:0:0:
182,192,241682,1,0,0:0:0:0:
329,192,241682,1,0,0:0:0:0:
256,192,241849,1,0,0:0:0:0:
109,192,241849,1,0,0:0:0:0:
36,192,241849,1,0,0:0:0:0:
402,192,241849,1,0,0:0:0:0:
329,192,242015,1,0,0:0:0:0:
475,192,242015,1,0,0:0:0:0:
182,192,242015,1,0,0:0:0:0:
36,192,242015,1,0,0:0:0:0:
109,192,242181,1,0,0:0:0:0:
36,192,242181,1,0,0:0:0:0:
256,192,242181,1,0,0:0:0:0:
402,192,242181,1,0,0:0:0:0:
329,192,242348,1,0,0:0:0:0:
475,192,242348,1,0,0:0:0:0:
109,192,242348,1,0,0:0:0:0:
256,192,242431,1,0,0:0:0:0:
36,192,242431,1,0,0:0:0:0:
182,192,242514,1,0,0:0:0:0:
402,192,242514,1,0,0:0:0:0:
329,192,242597,1,0,0:0:0:0:
109,192,242597,1,0,0:0:0:0:
256,192,242680,1,0,0:0:0:0:
36,192,242680,1,0,0:0:0:0:
402,192,242680,1,0,0:0:0:0:
475,192,242680,1,0,0:0:0:0:
109,192,242846,1,0,0:0:0:0:
182,192,242846,1,0,0:0:0:0:
329,192,242846,1,0,0:0:0:0:
402,192,242846,1,0,0:0:0:0:
256,192,243013,1,0,0:0:0:0:
475,192,243013,1,0,0:0:0:0:
36,192,243013,1,0,0:0:0:0:
109,192,243096,1,0,0:0:0:0:
329,192,243096,1,0,0:0:0:0:
182,192,243179,1,0,0:0:0:0:
402,192,243179,1,0,0:0:0:0:
475,192,243262,1,0,0:0:0:0:
256,192,243262,1,0,0:0:0:0:
329,192,243345,1,0,0:0:0:0:
109,192,243345,1,0,0:0:0:0:
402,192,243429,1,0,0:0:0:0:
182,192,243429,1,0,0:0:0:0:
256,192,243512,1,0,0:0:0:0:
36,192,243512,1,0,0:0:0:0:
109,192,243595,1,0,0:0:0:0:
329,192,243595,1,0,0:0:0:0:
182,192,243678,1,0,0:0:0:0:
36,192,243678,1,0,0:0:0:0:
402,192,243678,1,0,0:0:0:0:
475,192,243678,1,0,0:0:0:0:
402,192,243844,1,0,0:0:0:0:
256,192,243844,1,0,0:0:0:0:
109,192,243844,1,0,0:0:0:0:
329,192,244011,1,0,0:0:0:0:
36,192,244011,1,0,0:0:0:0:
182,192,244011,1,0,0:0:0:0:
256,192,244011,1,0,0:0:0:0:
475,192,244011,1,0,0:0:0:0:
109,192,244177,1,0,0:0:0:0:
329,192,244177,1,0,0:0:0:0:
256,192,244343,1,0,0:0:0:0:
402,192,244343,1,0,0:0:0:0:
475,192,244343,1,0,0:0:0:0:
109,192,244343,1,0,0:0:0:0:
36,192,244343,1,0,0:0:0:0:
256,192,244509,1,0,0:0:0:0:
182,192,244509,1,0,0:0:0:0:
402,192,244509,1,0,0:0:0:0:
182,192,244676,1,0,0:0:0:0:
109,192,244676,1,0,0:0:0:0:
329,192,244676,1,0,0:0:0:0:
475,192,244676,1,0,0:0:0:0:
36,192,244676,1,0,0:0:0:0:
256,192,244842,1,0,0:0:0:0:
402,192,244842,1,0,0:0:0:0:
109,192,244842,1,0,0:0:0:0:
182,192,245008,1,0,0:0:0:0:
36,192,245008,1,0,0:0:0:0:
329,192,245008,1,0,0:0:0:0:
402,192,245008,1,0,0:0:0:0:
256,192,245091,1,0,0:0:0:0:
475,192,245091,1,0,0:0:0:0:
109,192,245175,1,0,0:0:0:0:
402,192,245175,1,0,0:0:0:0:
182,192,245258,1,0,0:0:0:0:
329,192,245258,1,0,0:0:0:0:
256,192,245341,1,0,0:0:0:0:
475,192,245341,1,0,0:0:0:0:
109,192,245341,1,0,0:0:0:0:
36,192,245341,1,0,0:0:0:0:
402,192,245424,1,0,0:0:0:0:
329,192,245507,1,0,0:0:0:0:
109,192,245507,1,0,0:0:0:0:
36,192,245507,1,0,0:0:0:0:
475,192,245507,1,0,0:0:0:0:
182,192,245590,1,0,0:0:0:0:
36,192,245674,1,0,0:0:0:0:
256,192,245674,1,0,0:0:0:0:
402,192,245674,1,0,0:0:0:0:
475,192,245674,1,0,0:0:0:0:
329,192,245757,1,0,0:0:0:0:
109,192,245757,1,0,0:0:0:0:
182,192,245840,1,0,0:0:0:0:
402,192,245840,1,0,0:0:0:0:
256,192,245923,1,0,0:0:0:0:
475,192,245923,1,0,0:0:0:0:
329,192,246006,1,0,0:0:0:0:
402,192,246006,1,0,0:0:0:0:
109,192,246006,1,0,0:0:0:0:
36,192,246006,1,0,0:0:0:0:
182,192,246089,1,0,0:0:0:0:
256,192,246172,1,0,0:0:0:0:
109,192,246172,1,0,0:0:0:0:
402,192,246172,1,0,0:0:0:0:
475,192,246172,1,0,0:0:0:0:
329,192,246256,1,0,0:0:0:0:
182,192,246339,1,0,0:0:0:0:
36,192,246339,1,0,0:0:0:0:
402,192,246339,1,0,0:0:0:0:
475,192,246339,1,0,0:0:0:0:
109,192,246339,1,0,0:0:0:0:
256,192,246422,1,0,0:0:0:0:
36,192,246505,1,0,0:0:0:0:
329,192,246505,1,0,0:0:0:0:
475,192,246505,1,0,0:0:0:0:
109,192,246505,1,0,0:0:0:0:
182,192,246588,1,0,0:0:0:0:
109,192,246671,1,0,0:0:0:0:
402,192,246671,1,0,0:0:0:0:
475,192,246671,1,0,0:0:0:0:
329,192,246671,1,0,0:0:0:0:
36,192,246671,1,0,0:0:0:0:
256,192,246754,1,0,0:0:0:0:
109,192,246838,1,0,0:0:0:0:
182,192,246838,1,0,0:0:0:0:
475,192,246838,1,0,0:0:0:0:
402,192,246838,1,0,0:0:0:0:
36,192,246838,1,0,0:0:0:0:
329,192,246921,1,0,0:0:0:0:
256,192,247004,1,0,0:0:0:0:
36,192,247004,1,0,0:0:0:0:
475,192,247004,1,0,0:0:0:0:
109,192,247087,1,0,0:0:0:0:
329,192,247170,1,0,0:0:0:0:
182,192,247170,1,0,0:0:0:0:
475,192,247170,1,0,0:0:0:0:
402,192,247170,1,0,0:0:0:0:
256,192,247253,1,0,0:0:0:0:
182,192,247337,1,0,0:0:0:0:
36,192,247337,1,0,0:0:0:0:
109,192,247337,1,0,0:0:0:0:
402,192,247337,1,0,0:0:0:0:
475,192,247337,1,0,0:0:0:0:
329,192,247420,1,0,0:0:0:0:
256,192,247503,1,0,0:0:0:0:
109,192,247503,1,0,0:0:0:0:
36,192,247503,1,0,0:0:0:0:
402,192,247503,1,0,0:0:0:0:
182,192,247586,1,0,0:0:0:0:
109,192,247669,1,0,0:0:0:0:
36,192,247669,1,0,0:0:0:0:
329,192,247669,1,0,0:0:0:0:
475,192,247669,1,0,0:0:0:0:
402,192,247752,1,0,0:0:0:0:
256,192,247752,1,0,0:0:0:0:
182,192,247835,1,0,0:0:0:0:
329,192,247835,1,0,0:0:0:0:
256,192,247919,1,0,0:0:0:0:
109,192,247919,1,0,0:0:0:0:
182,192,248002,1,0,0:0:0:0:
36,192,248002,1,0,0:0:0:0:
402,192,248002,1,0,0:0:0:0:
475,192,248002,1,0,0:0:0:0:
329,192,248085,1,0,0:0:0:0:
256,192,248168,1,0,0:0:0:0:
109,192,248168,1,0,0:0:0:0:
36,192,248168,1,0,0:0:0:0:
475,192,248168,1,0,0:0:0:0:
402,192,248251,1,0,0:0:0:0:
329,192,248334,1,0,0:0:0:0:
182,192,248334,1,0,0:0:0:0:
36,192,248334,1,0,0:0:0:0:
109,192,248334,1,0,0:0:0:0:
256,192,248417,1,0,0:0:0:0:
329,192,248501,1,0,0:0:0:0:
475,192,248501,1,0,0:0:0:0:
109,192,248501,1,0,0:0:0:0:
402,192,248584,1,0,0:0:0:0:
182,192,248584,1,0,0:0:0:0:
36,192,248584,1,0,0:0:0:0:
256,192,248667,1,0,0:0:0:0:
109,192,248667,1,0,0:0:0:0:
475,192,248667,1,0,0:0:0:0:
182,192,248750,1,0,0:0:0:0:
329,192,248750,1,0,0:0:0:0:
256,192,248833,1,0,0:0:0:0:
402,192,248833,1,0,0:0:0:0:
36,192,248833,1,0,0:0:0:0:
109,192,248833,1,0,0:0:0:0:
329,192,248916,1,0,0:0:0:0:
475,192,248916,1,0,0:0:0:0:
182,192,248999,1,0,0:0:0:0:
109,192,248999,1,0,0:0:0:0:
36,192,248999,1,0,0:0:0:0:
402,192,248999,1,0,0:0:0:0:
182,192,249166,1,0,0:0:0:0:
402,192,249332,1,0,0:0:0:0:
109,192,249332,1,0,0:0:0:0:
256,192,249332,1,0,0:0:0:0:
329,192,249332,1,0,0:0:0:0:
475,192,249332,1,0,0:0:0:0:
36,192,249332,1,0,0:0:0:0:
329,192,249498,1,0,0:0:0:0:
109,192,249498,1,0,0:0:0:0:
36,192,249665,1,0,0:0:0:0:
256,192,249665,1,0,0:0:0:0:
182,192,249665,1,0,0:0:0:0:
402,192,249665,1,0,0:0:0:0:
475,192,249665,1,0,0:0:0:0:
475,192,249831,1,0,0:0:0:0:
256,192,249831,1,0,0:0:0:0:
36,192,249997,1,0,0:0:0:0:
329,192,249997,1,0,0:0:0:0:
109,192,249997,1,0,0:0:0:0:
402,192,249997,1,0,0:0:0:0:
182,192,249997,1,0,0:0:0:0:
182,192,250164,1,0,0:0:0:0:
329,192,250164,1,0,0:0:0:0:
256,192,250330,1,0,0:0:0:0:
36,192,250330,1,0,0:0:0:0:
402,192,250330,1,0,0:0:0:0:
475,192,250330,1,0,0:0:0:0:
109,192,250413,1,0,0:0:0:0:
329,192,250413,1,0,0:0:0:0:
182,192,250496,1,0,0:0:0:0:
402,192,250496,1,0,0:0:0:0:
256,192,250579,1,0,0:0:0:0:
475,192,250579,1,0,0:0:0:0:
329,192,250662,1,0,0:0:0:0:
402,192,250662,1,0,0:0:0:0:
109,192,250662,1,0,0:0:0:0:
36,192,250662,1,0,0:0:0:0:
182,192,250746,1,0,0:0:0:0:
109,192,250829,1,0,0:0:0:0:
256,192,250829,1,0,0:0:0:0:
402,192,250829,1,0,0:0:0:0:
475,192,250829,1,0,0:0:0:0:
329,192,250912,1,0,0:0:0:0:
182,192,250995,1,0,0:0:0:0:
36,192,250995,1,0,0:0:0:0:
475,192,250995,1,0,0:0:0:0:
402,192,250995,1,0,0:0:0:0:
329,192,251078,1,0,0:0:0:0:
109,192,251078,1,0,0:0:0:0:
256,192,251161,1,0,0:0:0:0:
36,192,251161,1,0,0:0:0:0:
475,192,251161,1,0,0:0:0:0:
402,192,251244,1,0,0:0:0:0:
182,192,251244,1,0,0:0:0:0:
109,192,251328,1,0,0:0:0:0:
329,192,251328,1,0,0:0:0:0:
36,192,251328,1,0,0:0:0:0:
475,192,251328,1,0,0:0:0:0:
256,192,251411,1,0,0:0:0:0:
182,192,251494,1,0,0:0:0:0:
109,192,251494,1,0,0:0:0:0:
402,192,251494,1,0,0:0:0:0:
475,192,251494,1,0,0:0:0:0:
329,192,251577,1,0,0:0:0:0:
256,192,251660,1,0,0:0:0:0:
109,192,251660,1,0,0:0:0:0:
36,192,251660,1,0,0:0:0:0:
475,192,251660,1,0,0:0:0:0:
329,192,251743,1,0,0:0:0:0:
402,192,251743,1,0,0:0:0:0:
109,192,251827,1,0,0:0:0:0:
182,192,251827,1,0,0:0:0:0:
36,192,251827,1,0,0:0:0:0:
475,192,251827,1,0,0:0:0:0:
256,192,251910,1,0,0:0:0:0:
329,192,251910,1,0,0:0:0:0:
402,192,251993,1,0,0:0:0:0:
475,192,251993,1,0,0:0:0:0:
36,192,251993,1,0,0:0:0:0:
109,192,252076,1,0,0:0:0:0:
182,192,252076,1,0,0:0:0:0:
475,192,252159,1,0,0:0:0:0:
402,192,252159,1,0,0:0:0:0:
329,192,252159,1,0,0:0:0:0:
36,192,252159,1,0,0:0:0:0:
182,192,252242,1,0,0:0:0:0:
256,192,252242,1,0,0:0:0:0:
109,192,252325,1,0,0:0:0:0:
475,192,252325,1,0,0:0:0:0:
36,192,252325,1,0,0:0:0:0:
402,192,252325,1,0,0:0:0:0:
256,192,252409,1,0,0:0:0:0:
329,192,252409,1,0,0:0:0:0:
109,192,252492,1,0,0:0:0:0:
36,192,252492,1,0,0:0:0:0:
182,192,252492,1,0,0:0:0:0:
475,192,252492,1,0,0:0:0:0:
329,192,252575,1,0,0:0:0:0:
402,192,252575,1,0,0:0:0:0:
36,192,252658,1,0,0:0:0:0:
256,192,252658,1,0,0:0:0:0:
475,192,252658,1,0,0:0:0:0:
182,192,252741,1,0,0:0:0:0:
109,192,252741,1,0,0:0:0:0:
402,192,252824,1,0,0:0:0:0:
329,192,252824,1,0,0:0:0:0:
475,192,252824,1,0,0:0:0:0:
36,192,252824,1,0,0:0:0:0:
182,192,252907,1,0,0:0:0:0:
256,192,252907,1,0,0:0:0:0:
475,192,252991,1,0,0:0:0:0:
109,192,252991,1,0,0:0:0:0:
36,192,252991,1,0,0:0:0:0:
402,192,253074,1,0,0:0:0:0:
256,192,253074,1,0,0:0:0:0:
329,192,253074,1,0,0:0:0:0:
182,192,253157,1,0,0:0:0:0:
36,192,253157,1,0,0:0:0:0:
109,192,253157,1,0,0:0:0:0:
402,192,253240,1,0,0:0:0:0:
475,192,253240,1,0,0:0:0:0:
329,192,253240,1,0,0:0:0:0:
109,192,253323,1,0,0:0:0:0:
36,192,253323,1,0,0:0:0:0:
256,192,253323,1,0,0:0:0:0:
402,192,253406,1,0,0:0:0:0:
475,192,253406,1,0,0:0:0:0:
182,192,253406,1,0,0:0:0:0:
329,192,253490,1,0,0:0:0:0:
36,192,253490,1,0,0:0:0:0:
109,192,253490,1,0,0:0:0:0:
256,192,253573,1,0,0:0:0:0:
475,192,253573,1,0,0:0:0:0:
402,192,253573,1,0,0:0:0:0:
36,192,253656,1,0,0:0:0:0:
182,192,253656,1,0,0:0:0:0:
109,192,253656,1,0,0:0:0:0:
329,192,253739,1,0,0:0:0:0:
402,192,253739,1,0,0:0:0:0:
475,192,253739,1,0,0:0:0:0:
36,192,253822,1,0,0:0:0:0:
109,192,253822,1,0,0:0:0:0:
182,192,253822,1,0,0:0:0:0:
402,192,253905,1,0,0:0:0:0:
256,192,253905,1,0,0:0:0:0:
475,192,253905,1,0,0:0:0:0:
329,192,253988,1,0,0:0:0:0:
109,192,253988,1,0,0:0:0:0:
36,192,253988,1,0,0:0:0:0:
182,192,254072,1,0,0:0:0:0:
402,192,254072,1,0,0:0:0:0:
475,192,254072,1,0,0:0:0:0:
256,192,254155,1,0,0:0:0:0:
36,192,254155,1,0,0:0:0:0:
109,192,254155,1,0,0:0:0:0:
402,192,254238,1,0,0:0:0:0:
329,192,254238,1,0,0:0:0:0:
182,192,254238,1,0,0:0:0:0:
475,192,254238,1,0,0:0:0:0:
182,192,254487,128,0,254570:0:0:0:0:
109,192,254487,128,0,254570:0:0:0:0:
36,192,254487,128,0,254570:0:0:0:0:
329,192,254487,128,0,254570:0:0:0:0:
402,192,254487,128,0,254570:0:0:0:0:
475,192,254487,128,0,254570:0:0:0:0:
36,192,254654,128,0,254737:0:0:0:0:
109,192,254654,128,0,254737:0:0:0:0:
182,192,254654,128,0,254737:0:0:0:0:
475,192,254654,128,0,254737:0:0:0:0:
402,192,254654,128,0,254737:0:0:0:0:
329,192,254654,128,0,254737:0:0:0:0:
182,192,254820,128,0,254903:0:0:0:0:
109,192,254820,128,0,254903:0:0:0:0:
36,192,254820,128,0,254903:0:0:0:0:
329,192,254820,128,0,254903:0:0:0:0:
402,192,254820,128,0,254903:0:0:0:0:
475,192,254820,128,0,254903:0:0:0:0:
329,192,254986,128,0,255236:0:0:0:0:
402,192,254986,128,0,255236:0:0:0:0:
475,192,254986,128,0,255236:0:0:0:0:
182,192,254986,128,0,255236:0:0:0:0:
109,192,254986,128,0,255236:0:0:0:0:
36,192,254986,128,0,255236:0:0:0:0:
109,192,255319,128,0,255374:0:0:0:0:
182,192,255346,128,0,255402:0:0:0:0:
256,192,255374,128,0,255430:0:0:0:0:
329,192,255402,128,0,255457:0:0:0:0:
402,192,255430,128,0,255485:0:0:0:0:
36,192,255430,128,0,255485:0:0:0:0:
475,192,255457,128,0,255513:0:0:0:0:
109,192,255457,128,0,255513:0:0:0:0:
182,192,255485,128,0,255541:0:0:0:0:
256,192,255513,128,0,255568:0:0:0:0:
329,192,255541,128,0,255596:0:0:0:0:
402,192,255568,128,0,255624:0:0:0:0:
475,192,255596,128,0,255651:0:0:0:0:
182,192,255651,1,0,0:0:0:0:
109,192,255651,1,0,0:0:0:0:
36,192,255651,1,0,0:0:0:0:
402,192,255818,1,0,0:0:0:0:
256,192,255818,1,0,0:0:0:0:
329,192,255984,1,0,0:0:0:0:
475,192,255984,1,0,0:0:0:0:
36,192,255984,1,0,0:0:0:0:
109,192,255984,128,0,256067:0:0:0:0:
182,192,256150,1,0,0:0:0:0:
402,192,256150,1,0,0:0:0:0:
256,192,256317,1,0,0:0:0:0:
475,192,256317,1,0,0:0:0:0:
36,192,256317,1,0,0:0:0:0:
182,192,256483,1,0,0:0:0:0:
329,192,256483,1,0,0:0:0:0:
36,192,256649,1,0,0:0:0:0:
256,192,256649,1,0,0:0:0:0:
475,192,256649,1,0,0:0:0:0:
402,192,256649,128,0,256732:0:0:0:0:
109,192,256815,1,0,0:0:0:0:
329,192,256815,1,0,0:0:0:0:
36,192,256982,1,0,0:0:0:0:
256,192,256982,1,0,0:0:0:0:
402,192,256982,1,0,0:0:0:0:
182,192,257148,1,0,0:0:0:0:
475,192,257148,1,0,0:0:0:0:
256,192,257314,1,0,0:0:0:0:
402,192,257314,1,0,0:0:0:0:
36,192,257314,1,0,0:0:0:0:
329,192,257314,128,0,257397:0:0:0:0:
109,192,257481,1,0,0:0:0:0:
475,192,257481,1,0,0:0:0:0:
182,192,257647,1,0,0:0:0:0:
402,192,257647,1,0,0:0:0:0:
36,192,257647,128,0,257813:0:0:0:0:
329,192,257813,1,0,0:0:0:0:
109,192,257813,128,0,257980:0:0:0:0:
182,192,257980,1,0,0:0:0:0:
402,192,257980,1,0,0:0:0:0:
36,192,257980,1,0,0:0:0:0:
256,192,257980,128,0,258063:0:0:0:0:
475,192,258146,128,0,260308:0:0:0:0:
109,192,258146,1,0,0:0:0:0:
329,192,258146,1,0,0:0:0:0:
182,192,258312,1,0,0:0:0:0:
36,192,258312,1,0,0:0:0:0:
402,192,258312,1,0,0:0:0:0:
182,192,258478,1,0,0:0:0:0:
329,192,258478,1,0,0:0:0:0:
256,192,258645,1,0,0:0:0:0:
402,192,258645,1,0,0:0:0:0:
36,192,258645,1,0,0:0:0:0:
109,192,258645,128,0,258728:0:0:0:0:
182,192,258811,1,0,0:0:0:0:
402,192,258811,1,0,0:0:0:0:
109,192,258977,1,0,0:0:0:0:
36,192,258977,1,0,0:0:0:0:
329,192,258977,1,0,0:0:0:0:
109,192,259144,1,0,0:0:0:0:
256,192,259144,1,0,0:0:0:0:
182,192,259310,1,0,0:0:0:0:
36,192,259310,1,0,0:0:0:0:
329,192,259310,1,0,0:0:0:0:
402,192,259310,128,0,259393:0:0:0:0:
109,192,259476,1,0,0:0:0:0:
329,192,259476,1,0,0:0:0:0:
182,192,259642,1,0,0:0:0:0:
36,192,259642,1,0,0:0:0:0:
402,192,259642,1,0,0:0:0:0:
182,192,259809,1,0,0:0:0:0:
329,192,259809,1,0,0:0:0:0:
256,192,259975,1,0,0:0:0:0:
109,192,259975,1,0,0:0:0:0:
402,192,259975,1,0,0:0:0:0:
36,192,259975,128,0,260058:0:0:0:0:
402,192,260141,1,0,0:0:0:0:
182,192,260141,1,0,0:0:0:0:
109,192,260308,1,0,0:0:0:0:
256,192,260308,1,0,0:0:0:0:
36,192,260308,1,0,0:0:0:0:
329,192,260391,1,0,0:0:0:0:
182,192,260474,1,0,0:0:0:0:
402,192,260474,1,0,0:0:0:0:
109,192,260640,1,0,0:0:0:0:
475,192,260640,1,0,0:0:0:0:
36,192,260640,1,0,0:0:0:0:
329,192,260640,128,0,260723:0:0:0:0:
256,192,260807,1,0,0:0:0:0:
402,192,260807,1,0,0:0:0:0:
182,192,260973,1,0,0:0:0:0:
36,192,260973,1,0,0:0:0:0:
329,192,260973,1,0,0:0:0:0:
109,192,261139,1,0,0:0:0:0:
402,192,261139,1,0,0:0:0:0:
256,192,261305,1,0,0:0:0:0:
36,192,261305,1,0,0:0:0:0:
329,192,261305,1,0,0:0:0:0:
475,192,261305,128,0,261389:0:0:0:0:
182,192,261472,1,0,0:0:0:0:
402,192,261472,1,0,0:0:0:0:
256,192,261638,1,0,0:0:0:0:
109,192,261638,1,0,0:0:0:0:
475,192,261638,1,0,0:0:0:0:
182,192,261804,1,0,0:0:0:0:
329,192,261804,1,0,0:0:0:0:
256,192,261971,1,0,0:0:0:0:
402,192,261971,1,0,0:0:0:0:
36,192,261971,1,0,0:0:0:0:
109,192,261971,128,0,262054:0:0:0:0:
182,192,262137,1,0,0:0:0:0:
475,192,262137,1,0,0:0:0:0:
402,192,262303,1,0,0:0:0:0:
36,192,262303,1,0,0:0:0:0:
256,192,262303,1,0,0:0:0:0:
109,192,262470,1,0,0:0:0:0:
329,192,262470,1,0,0:0:0:0:
36,192,262636,1,0,0:0:0:0:
256,192,262636,1,0,0:0:0:0:
475,192,262636,1,0,0:0:0:0:
402,192,262636,128,0,262719:0:0:0:0:
329,192,262802,1,0,0:0:0:0:
182,192,262802,1,0,0:0:0:0:
256,192,262968,128,0,263135:0:0:0:0:
109,192,262968,1,0,0:0:0:0:
402,192,262968,1,0,0:0:0:0:
475,192,263135,128,0,263301:0:0:0:0:
36,192,263135,1,0,0:0:0:0:
182,192,263135,1,0,0:0:0:0:
109,192,263301,1,0,0:0:0:0:
256,192,263301,1,0,0:0:0:0:
402,192,263301,1,0,0:0:0:0:
329,192,263301,128,0,263384:0:0:0:0:
36,192,263467,128,0,265629:0:0:0:0:
182,192,263467,1,0,0:0:0:0:
475,192,263467,1,0,0:0:0:0:
402,192,263634,1,0,0:0:0:0:
256,192,263634,1,0,0:0:0:0:
109,192,263634,1,0,0:0:0:0:
402,192,263800,1,0,0:0:0:0:
182,192,263800,1,0,0:0:0:0:
329,192,263966,1,0,0:0:0:0:
109,192,263966,1,0,0:0:0:0:
475,192,263966,1,0,0:0:0:0:
256,192,263966,128,0,264049:0:0:0:0:
109,192,264133,1,0,0:0:0:0:
402,192,264133,1,0,0:0:0:0:
182,192,264299,1,0,0:0:0:0:
329,192,264299,1,0,0:0:0:0:
475,192,264299,1,0,0:0:0:0:
329,192,264465,1,0,0:0:0:0:
109,192,264465,1,0,0:0:0:0:
256,192,264631,1,0,0:0:0:0:
182,192,264631,1,0,0:0:0:0:
402,192,264631,1,0,0:0:0:0:
475,192,264631,128,0,264715:0:0:0:0:
402,192,264798,1,0,0:0:0:0:
109,192,264798,1,0,0:0:0:0:
182,192,264964,1,0,0:0:0:0:
329,192,264964,1,0,0:0:0:0:
475,192,264964,1,0,0:0:0:0:
182,192,265130,1,0,0:0:0:0:
402,192,265130,1,0,0:0:0:0:
256,192,265297,1,0,0:0:0:0:
329,192,265297,1,0,0:0:0:0:
475,192,265297,1,0,0:0:0:0:
109,192,265297,128,0,265380:0:0:0:0:
256,192,265463,1,0,0:0:0:0:
402,192,265463,1,0,0:0:0:0:
329,192,265629,1,0,0:0:0:0:
475,192,265629,1,0,0:0:0:0:
182,192,265629,1,0,0:0:0:0:
36,192,265712,1,0,0:0:0:0:
109,192,265795,1,0,0:0:0:0:
256,192,265795,1,0,0:0:0:0:
182,192,265962,1,0,0:0:0:0:
475,192,265962,1,0,0:0:0:0:
36,192,265962,1,0,0:0:0:0:
329,192,265962,128,0,266045:0:0:0:0:
402,192,266128,1,0,0:0:0:0:
256,192,266128,1,0,0:0:0:0:
36,192,266294,1,0,0:0:0:0:
182,192,266294,1,0,0:0:0:0:
475,192,266294,1,0,0:0:0:0:
402,192,266336,1,0,0:0:0:0:
329,192,266378,1,0,0:0:0:0:
109,192,266419,1,0,0:0:0:0:
182,192,266461,1,0,0:0:0:0:
402,192,266502,1,0,0:0:0:0:
329,192,266544,1,0,0:0:0:0:
256,192,266585,1,0,0:0:0:0:
36,192,266627,1,0,0:0:0:0:
109,192,266669,1,0,0:0:0:0:
182,192,266710,1,0,0:0:0:0:
402,192,266752,1,0,0:0:0:0:
329,192,266793,1,0,0:0:0:0:
109,192,266835,1,0,0:0:0:0:
182,192,266876,1,0,0:0:0:0:
256,192,266918,1,0,0:0:0:0:
475,192,266960,1,0,0:0:0:0:
402,192,267001,1,0,0:0:0:0:
329,192,267043,1,0,0:0:0:0:
182,192,267084,1,0,0:0:0:0:
109,192,267126,1,0,0:0:0:0:
36,192,267167,1,0,0:0:0:0:
402,192,267209,1,0,0:0:0:0:
329,192,267251,1,0,0:0:0:0:
256,192,267292,1,0,0:0:0:0:
182,192,267334,1,0,0:0:0:0:
475,192,267375,1,0,0:0:0:0:
402,192,267417,1,0,0:0:0:0:
329,192,267458,1,0,0:0:0:0:
36,192,267500,1,0,0:0:0:0:
109,192,267542,1,0,0:0:0:0:
182,192,267583,1,0,0:0:0:0:
329,192,267625,1,0,0:0:0:0:
402,192,267666,1,0,0:0:0:0:
475,192,267708,1,0,0:0:0:0:
256,192,267749,1,0,0:0:0:0:
182,192,267791,1,0,0:0:0:0:
109,192,267833,1,0,0:0:0:0:
402,192,267874,1,0,0:0:0:0:
329,192,267916,1,0,0:0:0:0:
36,192,267957,1,0,0:0:0:0:
109,192,267999,1,0,0:0:0:0:
182,192,268041,1,0,0:0:0:0:
402,192,268082,1,0,0:0:0:0:
329,192,268124,1,0,0:0:0:0:
256,192,268165,1,0,0:0:0:0:
475,192,268207,1,0,0:0:0:0:
402,192,268248,1,0,0:0:0:0:
36,192,268290,128,0,268456:0:0:0:0:
329,192,268290,1,0,0:0:0:0:
109,192,268332,1,0,0:0:0:0:
182,192,268373,1,0,0:0:0:0:
475,192,268456,128,0,268623:0:0:0:0:
402,192,268456,1,0,0:0:0:0:
329,192,268498,1,0,0:0:0:0:
256,192,268539,1,0,0:0:0:0:
36,192,268581,1,0,0:0:0:0:
109,192,268623,1,0,0:0:0:0:
182,192,268664,1,0,0:0:0:0:
402,192,268706,1,0,0:0:0:0:
329,192,268747,1,0,0:0:0:0:
256,192,268789,128,0,270951:0:0:0:0:
36,192,268830,1,0,0:0:0:0:
182,192,268872,1,0,0:0:0:0:
475,192,268914,1,0,0:0:0:0:
329,192,268955,1,0,0:0:0:0:
109,192,268955,1,0,0:0:0:0:
109,192,269121,1,0,0:0:0:0:
402,192,269121,1,0,0:0:0:0:
36,192,269288,1,0,0:0:0:0:
182,192,269288,1,0,0:0:0:0:
329,192,269288,1,0,0:0:0:0:
475,192,269288,128,0,269371:0:0:0:0:
329,192,269454,1,0,0:0:0:0:
109,192,269454,1,0,0:0:0:0:
182,192,269620,1,0,0:0:0:0:
475,192,269620,1,0,0:0:0:0:
36,192,269620,1,0,0:0:0:0:
36,192,269787,1,0,0:0:0:0:
402,192,269787,1,0,0:0:0:0:
109,192,269953,1,0,0:0:0:0:
329,192,269953,1,0,0:0:0:0:
475,192,269953,1,0,0:0:0:0:
182,192,269953,128,0,270036:0:0:0:0:
475,192,270119,1,0,0:0:0:0:
36,192,270119,1,0,0:0:0:0:
109,192,270286,1,0,0:0:0:0:
329,192,270286,1,0,0:0:0:0:
402,192,270286,1,0,0:0:0:0:
109,192,270452,1,0,0:0:0:0:
475,192,270452,1,0,0:0:0:0:
182,192,270618,1,0,0:0:0:0:
36,192,270618,1,0,0:0:0:0:
402,192,270618,1,0,0:0:0:0:
329,192,270618,128,0,270701:0:0:0:0:
402,192,270784,1,0,0:0:0:0:
109,192,270784,1,0,0:0:0:0:
329,192,270951,1,0,0:0:0:0:
36,192,270951,1,0,0:0:0:0:
182,192,270951,1,0,0:0:0:0:
475,192,271034,1,0,0:0:0:0:
402,192,271117,1,0,0:0:0:0:
256,192,271117,1,0,0:0:0:0:
329,192,271283,1,0,0:0:0:0:
182,192,271283,1,0,0:0:0:0:
475,192,271283,1,0,0:0:0:0:
36,192,271283,128,0,271366:0:0:0:0:
109,192,271450,1,0,0:0:0:0:
256,192,271450,1,0,0:0:0:0:
182,192,271616,1,0,0:0:0:0:
36,192,271616,1,0,0:0:0:0:
402,192,271616,1,0,0:0:0:0:
329,192,271782,1,0,0:0:0:0:
475,192,271782,1,0,0:0:0:0:
256,192,271948,1,0,0:0:0:0:
109,192,271948,1,0,0:0:0:0:
36,192,271948,1,0,0:0:0:0:
402,192,271948,128,0,272032:0:0:0:0:
182,192,272115,1,0,0:0:0:0:
329,192,272115,1,0,0:0:0:0:
36,192,272281,1,0,0:0:0:0:
256,192,272281,1,0,0:0:0:0:
475,192,272281,1,0,0:0:0:0:
329,192,272447,1,0,0:0:0:0:
109,192,272447,1,0,0:0:0:0:
256,192,272614,1,0,0:0:0:0:
475,192,272614,1,0,0:0:0:0:
402,192,272614,1,0,0:0:0:0:
182,192,272614,128,0,272697:0:0:0:0:
36,192,272780,1,0,0:0:0:0:
329,192,272780,1,0,0:0:0:0:
109,192,272946,1,0,0:0:0:0:
256,192,272946,1,0,0:0:0:0:
475,192,272946,1,0,0:0:0:0:
402,192,273113,1,0,0:0:0:0:
36,192,273113,1,0,0:0:0:0:
182,192,273279,1,0,0:0:0:0:
475,192,273279,1,0,0:0:0:0:
329,192,273279,128,0,273362:0:0:0:0:
109,192,273279,1,0,0:0:0:0:
36,192,273445,1,0,0:0:0:0:
256,192,273445,1,0,0:0:0:0:
109,192,273611,1,0,0:0:0:0:
402,192,273611,1,0,0:0:0:0:
475,192,273611,128,0,273778:0:0:0:0:
182,192,273778,128,0,273944:0:0:0:0:
329,192,273778,1,0,0:0:0:0:
36,192,273778,1,0,0:0:0:0:
109,192,273944,1,0,0:0:0:0:
256,192,273944,1,0,0:0:0:0:
475,192,273944,1,0,0:0:0:0:
402,192,273944,128,0,274027:0:0:0:0:
36,192,274110,128,0,275607:0:0:0:0:
182,192,274110,1,0,0:0:0:0:
329,192,274110,1,0,0:0:0:0:
256,192,274277,1,0,0:0:0:0:
109,192,274277,1,0,0:0:0:0:
475,192,274277,1,0,0:0:0:0:
402,192,274318,1,0,0:0:0:0:
329,192,274360,1,0,0:0:0:0:
182,192,274401,1,0,0:0:0:0:
256,192,274443,1,0,0:0:0:0:
475,192,274485,1,0,0:0:0:0:
402,192,274526,1,0,0:0:0:0:
109,192,274568,1,0,0:0:0:0:
182,192,274609,1,0,0:0:0:0:
256,192,274651,1,0,0:0:0:0:
475,192,274692,1,0,0:0:0:0:
402,192,274734,1,0,0:0:0:0:
329,192,274776,1,0,0:0:0:0:
109,192,274817,1,0,0:0:0:0:
182,192,274859,1,0,0:0:0:0:
402,192,274900,1,0,0:0:0:0:
329,192,274942,1,0,0:0:0:0:
256,192,274983,1,0,0:0:0:0:
182,192,275025,1,0,0:0:0:0:
475,192,275067,1,0,0:0:0:0:
402,192,275108,1,0,0:0:0:0:
329,192,275150,1,0,0:0:0:0:
109,192,275191,1,0,0:0:0:0:
182,192,275233,1,0,0:0:0:0:
256,192,275274,1,0,0:0:0:0:
329,192,275316,1,0,0:0:0:0:
475,192,275358,1,0,0:0:0:0:
402,192,275399,1,0,0:0:0:0:
182,192,275441,1,0,0:0:0:0:
256,192,275482,1,0,0:0:0:0:
329,192,275524,1,0,0:0:0:0:
402,192,275565,1,0,0:0:0:0:
109,192,275607,128,0,275773:0:0:0:0:
475,192,275607,128,0,275773:0:0:0:0:
256,192,275773,128,0,275940:0:0:0:0:
402,192,275773,128,0,275940:0:0:0:0:
329,192,275940,128,0,276106:0:0:0:0:
182,192,275940,128,0,276106:0:0:0:0:
36,192,275940,128,0,276106:0:0:0:0:
256,192,276106,128,0,276272:0:0:0:0:
475,192,276106,128,0,276272:0:0:0:0:
109,192,276272,128,0,276439:0:0:0:0:
329,192,276272,128,0,276439:0:0:0:0:
402,192,276272,128,0,276439:0:0:0:0:
182,192,276439,128,0,276605:0:0:0:0:
36,192,276439,128,0,276605:0:0:0:0:
256,192,276605,128,0,276771:0:0:0:0:
402,192,276605,128,0,276771:0:0:0:0:
475,192,276605,1,0,0:0:0:0:
329,192,276771,1,0,0:0:0:0:
109,192,276771,1,0,0:0:0:0:
36,192,276771,1,0,0:0:0:0:
182,192,276771,1,0,0:0:0:0:
475,192,276771,1,0,0:0:0:0:
