osu file format v14

[General]
AudioFilename: audio.mp3
AudioLeadIn: 0
PreviewTime: 172308
Countdown: 0
SampleSet: None
StackLeniency: 0.7
Mode: 3
LetterboxInBreaks: 0
SpecialStyle: 0
WidescreenStoryboard: 0

[Editor]
Bookmarks: 61308,78762,144217,148581,155126,172581,177899,184581,185671
DistanceSpacing: 1.4
BeatDivisor: 4
GridSize: 4
TimelineZoom: 1.9

[Metadata]
Title:Candy Star (t+pazolite Remix)
TitleUnicode:Candy Star (t+pazolite Remix)
Artist:Yukacco & DJ Genki
ArtistUnicode:Yukacco & DJ Genki
Creator:Kawawa
Version:*wa7. Another Candy Star(220)
Source:
Tags:
BeatmapID:1844327
BeatmapSetID:882172

[Difficulty]
HPDrainRate:8
CircleSize:7
OverallDifficulty:8
ApproachRate:5
SliderMultiplier:1.4
SliderTickRate:1

[Events]
//Background and Video events
0,0,"12.jpg",0,0
//Break Periods
//Storyboard Layer 0 (Background)
//Storyboard Layer 1 (Fail)
//Storyboard Layer 2 (Pass)
//Storyboard Layer 3 (Foreground)
//Storyboard Sound Samples

[TimingPoints]
4581,272.727272727273,4,2,0,0,1,0

[HitObjects]
36,192,217,128,0,4035:0:0:0:0:
475,192,217,128,0,2399:0:0:0:0:
182,192,1308,128,0,3490:0:0:0:0:
402,192,2399,128,0,3762:0:0:0:0:
256,192,3490,128,0,4035:0:0:0:0:
475,192,3762,128,0,4035:0:0:0:0:
36,192,4581,1,0,0:0:0:0:
256,192,4581,1,0,0:0:0:0:
402,192,4581,128,0,4990:0:0:0:0:
182,192,4717,1,0,0:0:0:0:
329,192,4853,1,0,0:0:0:0:
109,192,4990,128,0,5399:0:0:0:0:
182,192,4990,1,0,0:0:0:0:
329,192,5126,1,0,0:0:0:0:
475,192,5262,1,0,0:0:0:0:
256,192,5399,1,0,0:0:0:0:
402,192,5535,1,0,0:0:0:0:
36,192,5671,1,0,0:0:0:0:
182,192,5671,128,0,5808:0:0:0:0:
329,192,5808,128,0,5944:0:0:0:0:
475,192,5808,1,0,0:0:0:0:
109,192,5944,1,0,0:0:0:0:
256,192,6081,128,0,6490:0:0:0:0:
402,192,6081,1,0,0:0:0:0:
182,192,6217,1,0,0:0:0:0:
329,192,6353,1,0,0:0:0:0:
475,192,6490,128,0,6626:0:0:0:0:
109,192,6490,1,0,0:0:0:0:
329,192,6626,1,0,0:0:0:0:
36,192,6762,1,0,0:0:0:0:
182,192,6762,128,0,7035:0:0:0:0:
402,192,6899,1,0,0:0:0:0:
329,192,7035,128,0,7308:0:0:0:0:
109,192,7035,1,0,0:0:0:0:
475,192,7171,1,0,0:0:0:0:
36,192,7308,128,0,7581:0:0:0:0:
182,192,7308,1,0,0:0:0:0:
402,192,7444,1,0,0:0:0:0:
256,192,7581,128,0,7853:0:0:0:0:
109,192,7581,1,0,0:0:0:0:
329,192,7717,1,0,0:0:0:0:
475,192,7853,128,0,8126:0:0:0:0:
36,192,7853,1,0,0:0:0:0:
182,192,7990,1,0,0:0:0:0:
109,192,8126,128,0,8262:0:0:0:0:
402,192,8126,1,0,0:0:0:0:
329,192,8262,128,0,8399:0:0:0:0:
256,192,8262,1,0,0:0:0:0:
36,192,8399,1,0,0:0:0:0:
182,192,8535,128,0,8671:0:0:0:0:
329,192,8535,1,0,0:0:0:0:
402,192,8671,128,0,8808:0:0:0:0:
109,192,8671,1,0,0:0:0:0:
256,192,8808,1,0,0:0:0:0:
36,192,8944,128,0,9081:0:0:0:0:
475,192,8944,1,0,0:0:0:0:
329,192,9081,1,0,0:0:0:0:
36,192,9217,128,0,9353:0:0:0:0:
182,192,9217,1,0,0:0:0:0:
402,192,9353,1,0,0:0:0:0:
256,192,9490,128,0,9762:0:0:0:0:
109,192,9490,1,0,0:0:0:0:
475,192,9626,1,0,0:0:0:0:
36,192,9762,1,0,0:0:0:0:
329,192,9762,128,0,10035:0:0:0:0:
182,192,9899,1,0,0:0:0:0:
109,192,10035,128,0,10171:0:0:0:0:
475,192,10035,1,0,0:0:0:0:
402,192,10171,128,0,10308:0:0:0:0:
256,192,10171,1,0,0:0:0:0:
36,192,10308,1,0,0:0:0:0:
182,192,10444,128,0,10581:0:0:0:0:
329,192,10444,1,0,0:0:0:0:
109,192,10581,1,0,0:0:0:0:
475,192,10581,1,0,0:0:0:0:
256,192,10717,1,0,0:0:0:0:
402,192,10853,128,0,10990:0:0:0:0:
36,192,10853,1,0,0:0:0:0:
329,192,10990,128,0,11126:0:0:0:0:
182,192,10990,1,0,0:0:0:0:
256,192,11126,128,0,11262:0:0:0:0:
109,192,11126,1,0,0:0:0:0:
475,192,11262,1,0,0:0:0:0:
182,192,11399,128,0,11535:0:0:0:0:
36,192,11399,1,0,0:0:0:0:
329,192,11535,1,0,0:0:0:0:
402,192,11671,128,0,11808:0:0:0:0:
109,192,11671,1,0,0:0:0:0:
256,192,11808,1,0,0:0:0:0:
329,192,11944,128,0,12081:0:0:0:0:
182,192,11944,1,0,0:0:0:0:
475,192,12081,1,0,0:0:0:0:
36,192,12217,128,0,12353:0:0:0:0:
256,192,12217,1,0,0:0:0:0:
182,192,12353,128,0,12490:0:0:0:0:
402,192,12353,1,0,0:0:0:0:
109,192,12490,1,0,0:0:0:0:
475,192,12626,128,0,12899:0:0:0:0:
329,192,12626,1,0,0:0:0:0:
109,192,12762,1,0,0:0:0:0:
182,192,12899,128,0,13035:0:0:0:0:
256,192,12899,1,0,0:0:0:0:
329,192,13035,128,0,13171:0:0:0:0:
402,192,13035,1,0,0:0:0:0:
182,192,13171,1,0,0:0:0:0:
329,192,13308,1,0,0:0:0:0:
475,192,13308,1,0,0:0:0:0:
36,192,13308,128,0,13581:0:0:0:0:
109,192,13444,1,0,0:0:0:0:
256,192,13444,1,0,0:0:0:0:
182,192,13581,1,0,0:0:0:0:
329,192,13581,1,0,0:0:0:0:
402,192,13717,128,0,14126:0:0:0:0:
256,192,13717,1,0,0:0:0:0:
109,192,13717,1,0,0:0:0:0:
329,192,13853,1,0,0:0:0:0:
475,192,13853,1,0,0:0:0:0:
36,192,13853,1,0,0:0:0:0:
182,192,13990,1,0,0:0:0:0:
36,192,14126,1,0,0:0:0:0:
329,192,14126,1,0,0:0:0:0:
182,192,14262,1,0,0:0:0:0:
475,192,14262,1,0,0:0:0:0:
36,192,14399,1,0,0:0:0:0:
329,192,14399,128,0,14535:0:0:0:0:
256,192,14399,1,0,0:0:0:0:
109,192,14535,128,0,14671:0:0:0:0:
182,192,14535,1,0,0:0:0:0:
402,192,14535,1,0,0:0:0:0:
329,192,14671,1,0,0:0:0:0:
475,192,14671,1,0,0:0:0:0:
256,192,14808,128,0,15217:0:0:0:0:
36,192,14808,1,0,0:0:0:0:
182,192,14808,1,0,0:0:0:0:
109,192,14944,1,0,0:0:0:0:
475,192,14944,1,0,0:0:0:0:
329,192,14944,1,0,0:0:0:0:
402,192,15081,1,0,0:0:0:0:
182,192,15081,1,0,0:0:0:0:
36,192,15217,128,0,15353:0:0:0:0:
329,192,15217,1,0,0:0:0:0:
182,192,15353,1,0,0:0:0:0:
402,192,15353,1,0,0:0:0:0:
109,192,15490,128,0,15762:0:0:0:0:
256,192,15490,1,0,0:0:0:0:
475,192,15490,1,0,0:0:0:0:
329,192,15626,1,0,0:0:0:0:
402,192,15626,1,0,0:0:0:0:
475,192,15762,128,0,16035:0:0:0:0:
182,192,15762,1,0,0:0:0:0:
36,192,15762,1,0,0:0:0:0:
109,192,15899,1,0,0:0:0:0:
329,192,15899,1,0,0:0:0:0:
256,192,16035,128,0,16308:0:0:0:0:
402,192,16035,1,0,0:0:0:0:
36,192,16035,1,0,0:0:0:0:
182,192,16035,1,0,0:0:0:0:
329,192,16171,1,0,0:0:0:0:
109,192,16308,128,0,16581:0:0:0:0:
182,192,16308,1,0,0:0:0:0:
475,192,16308,1,0,0:0:0:0:
402,192,16444,1,0,0:0:0:0:
256,192,16444,1,0,0:0:0:0:
329,192,16581,128,0,16853:0:0:0:0:
182,192,16581,1,0,0:0:0:0:
36,192,16581,1,0,0:0:0:0:
402,192,16717,1,0,0:0:0:0:
475,192,16717,1,0,0:0:0:0:
36,192,16853,128,0,16990:0:0:0:0:
109,192,16853,1,0,0:0:0:0:
256,192,16853,1,0,0:0:0:0:
182,192,16990,128,0,17126:0:0:0:0:
329,192,16990,1,0,0:0:0:0:
475,192,16990,1,0,0:0:0:0:
402,192,17126,1,0,0:0:0:0:
256,192,17126,1,0,0:0:0:0:
36,192,17126,1,0,0:0:0:0:
329,192,17262,128,0,17399:0:0:0:0:
109,192,17262,1,0,0:0:0:0:
182,192,17399,128,0,17535:0:0:0:0:
475,192,17399,1,0,0:0:0:0:
256,192,17399,1,0,0:0:0:0:
109,192,17535,1,0,0:0:0:0:
402,192,17535,1,0,0:0:0:0:
182,192,17671,1,0,0:0:0:0:
329,192,17671,1,0,0:0:0:0:
36,192,17671,128,0,17944:0:0:0:0:
256,192,17808,1,0,0:0:0:0:
475,192,17808,1,0,0:0:0:0:
402,192,17944,128,0,18217:0:0:0:0:
329,192,17944,1,0,0:0:0:0:
109,192,17944,1,0,0:0:0:0:
182,192,18081,1,0,0:0:0:0:
36,192,18081,1,0,0:0:0:0:
256,192,18217,128,0,18490:0:0:0:0:
109,192,18217,1,0,0:0:0:0:
329,192,18217,1,0,0:0:0:0:
475,192,18217,1,0,0:0:0:0:
402,192,18353,1,0,0:0:0:0:
475,192,18490,128,0,18762:0:0:0:0:
329,192,18490,1,0,0:0:0:0:
109,192,18490,1,0,0:0:0:0:
256,192,18626,1,0,0:0:0:0:
36,192,18626,1,0,0:0:0:0:
182,192,18762,128,0,18899:0:0:0:0:
109,192,18762,1,0,0:0:0:0:
329,192,18762,1,0,0:0:0:0:
402,192,18899,128,0,19171:0:0:0:0:
36,192,18899,1,0,0:0:0:0:
256,192,18899,1,0,0:0:0:0:
182,192,19035,1,0,0:0:0:0:
329,192,19035,1,0,0:0:0:0:
109,192,19171,128,0,19444:0:0:0:0:
256,192,19171,1,0,0:0:0:0:
475,192,19171,1,0,0:0:0:0:
182,192,19308,1,0,0:0:0:0:
36,192,19308,1,0,0:0:0:0:
329,192,19308,1,0,0:0:0:0:
402,192,19444,1,0,0:0:0:0:
329,192,19581,128,0,19717:0:0:0:0:
475,192,19581,1,0,0:0:0:0:
182,192,19581,1,0,0:0:0:0:
36,192,19717,128,0,19853:0:0:0:0:
256,192,19717,1,0,0:0:0:0:
109,192,19717,1,0,0:0:0:0:
182,192,19853,128,0,20126:0:0:0:0:
329,192,19853,1,0,0:0:0:0:
475,192,19853,1,0,0:0:0:0:
256,192,19990,1,0,0:0:0:0:
36,192,19990,1,0,0:0:0:0:
402,192,20126,128,0,20262:0:0:0:0:
109,192,20126,1,0,0:0:0:0:
329,192,20126,1,0,0:0:0:0:
256,192,20262,1,0,0:0:0:0:
475,192,20262,1,0,0:0:0:0:
402,192,20399,128,0,20535:0:0:0:0:
329,192,20399,1,0,0:0:0:0:
109,192,20399,1,0,0:0:0:0:
36,192,20399,1,0,0:0:0:0:
256,192,20535,128,0,20808:0:0:0:0:
182,192,20535,1,0,0:0:0:0:
36,192,20671,1,0,0:0:0:0:
329,192,20671,1,0,0:0:0:0:
475,192,20808,128,0,21490:0:0:0:0:
109,192,20808,1,0,0:0:0:0:
402,192,20808,1,0,0:0:0:0:
329,192,20944,1,0,0:0:0:0:
182,192,20944,1,0,0:0:0:0:
109,192,21081,1,0,0:0:0:0:
256,192,21081,1,0,0:0:0:0:
182,192,21217,1,0,0:0:0:0:
329,192,21217,1,0,0:0:0:0:
256,192,21353,1,0,0:0:0:0:
109,192,21353,1,0,0:0:0:0:
182,192,21490,1,0,0:0:0:0:
402,192,21490,1,0,0:0:0:0:
36,192,21490,1,0,0:0:0:0:
329,192,21626,1,0,0:0:0:0:
256,192,21762,1,0,0:0:0:0:
475,192,21762,1,0,0:0:0:0:
109,192,21762,1,0,0:0:0:0:
36,192,21762,1,0,0:0:0:0:
402,192,21762,1,0,0:0:0:0:
109,192,21899,1,0,0:0:0:0:
182,192,21899,1,0,0:0:0:0:
329,192,21899,1,0,0:0:0:0:
402,192,21899,1,0,0:0:0:0:
182,192,22035,1,0,0:0:0:0:
256,192,22035,1,0,0:0:0:0:
36,192,22035,1,0,0:0:0:0:
402,192,22035,128,0,22444:0:0:0:0:
475,192,22035,128,0,22444:0:0:0:0:
182,192,22308,1,0,0:0:0:0:
182,192,22581,1,0,0:0:0:0:
402,192,22581,128,0,22853:0:0:0:0:
329,192,22581,128,0,22853:0:0:0:0:
36,192,22717,1,0,0:0:0:0:
109,192,22717,1,0,0:0:0:0:
182,192,22853,1,0,0:0:0:0:
329,192,22990,128,0,23126:0:0:0:0:
475,192,22990,128,0,23126:0:0:0:0:
36,192,23126,1,0,0:0:0:0:
109,192,23126,1,0,0:0:0:0:
182,192,23126,1,0,0:0:0:0:
402,192,23262,128,0,23399:0:0:0:0:
475,192,23262,128,0,23399:0:0:0:0:
182,192,23399,1,0,0:0:0:0:
329,192,23535,1,0,0:0:0:0:
475,192,23535,1,0,0:0:0:0:
402,192,23671,128,0,23808:0:0:0:0:
182,192,23671,1,0,0:0:0:0:
329,192,23671,128,0,23808:0:0:0:0:
36,192,23808,1,0,0:0:0:0:
109,192,23808,1,0,0:0:0:0:
36,192,23944,1,0,0:0:0:0:
182,192,23944,1,0,0:0:0:0:
109,192,23944,1,0,0:0:0:0:
402,192,23944,1,0,0:0:0:0:
475,192,23944,1,0,0:0:0:0:
402,192,24081,1,0,0:0:0:0:
36,192,24217,1,0,0:0:0:0:
109,192,24217,1,0,0:0:0:0:
182,192,24217,1,0,0:0:0:0:
475,192,24217,128,0,24626:0:0:0:0:
329,192,24217,128,0,24626:0:0:0:0:
36,192,24490,1,0,0:0:0:0:
182,192,24490,1,0,0:0:0:0:
109,192,24490,1,0,0:0:0:0:
182,192,24762,1,0,0:0:0:0:
402,192,24762,128,0,25035:0:0:0:0:
475,192,24762,128,0,25035:0:0:0:0:
36,192,24899,1,0,0:0:0:0:
109,192,24899,1,0,0:0:0:0:
36,192,25035,1,0,0:0:0:0:
182,192,25035,1,0,0:0:0:0:
109,192,25035,1,0,0:0:0:0:
329,192,25171,128,0,25308:0:0:0:0:
402,192,25171,128,0,25308:0:0:0:0:
36,192,25308,1,0,0:0:0:0:
109,192,25308,1,0,0:0:0:0:
329,192,25444,128,0,25581:0:0:0:0:
475,192,25444,128,0,25581:0:0:0:0:
36,192,25581,1,0,0:0:0:0:
182,192,25581,1,0,0:0:0:0:
109,192,25581,1,0,0:0:0:0:
402,192,25717,1,0,0:0:0:0:
329,192,25717,1,0,0:0:0:0:
182,192,25853,1,0,0:0:0:0:
402,192,25853,128,0,25990:0:0:0:0:
475,192,25853,128,0,25990:0:0:0:0:
36,192,25990,1,0,0:0:0:0:
109,192,25990,1,0,0:0:0:0:
36,192,26126,1,0,0:0:0:0:
182,192,26126,1,0,0:0:0:0:
109,192,26126,1,0,0:0:0:0:
329,192,26126,1,0,0:0:0:0:
402,192,26126,1,0,0:0:0:0:
475,192,26262,1,0,0:0:0:0:
36,192,26399,1,0,0:0:0:0:
475,192,26399,1,0,0:0:0:0:
402,192,26399,1,0,0:0:0:0:
256,192,26399,1,0,0:0:0:0:
182,192,26467,1,0,0:0:0:0:
329,192,26535,1,0,0:0:0:0:
475,192,26603,1,0,0:0:0:0:
109,192,26671,1,0,0:0:0:0:
36,192,26671,1,0,0:0:0:0:
256,192,26671,1,0,0:0:0:0:
402,192,26671,1,0,0:0:0:0:
329,192,26740,1,0,0:0:0:0:
182,192,26808,1,0,0:0:0:0:
402,192,26876,1,0,0:0:0:0:
256,192,26944,1,0,0:0:0:0:
475,192,27012,1,0,0:0:0:0:
329,192,27081,1,0,0:0:0:0:
36,192,27081,1,0,0:0:0:0:
182,192,27081,1,0,0:0:0:0:
109,192,27081,1,0,0:0:0:0:
402,192,27149,1,0,0:0:0:0:
475,192,27217,1,0,0:0:0:0:
109,192,27217,1,0,0:0:0:0:
256,192,27217,1,0,0:0:0:0:
36,192,27217,1,0,0:0:0:0:
329,192,27285,1,0,0:0:0:0:
182,192,27353,1,0,0:0:0:0:
36,192,27421,1,0,0:0:0:0:
109,192,27490,1,0,0:0:0:0:
256,192,27490,1,0,0:0:0:0:
402,192,27490,1,0,0:0:0:0:
475,192,27490,1,0,0:0:0:0:
329,192,27558,1,0,0:0:0:0:
182,192,27626,1,0,0:0:0:0:
329,192,27694,1,0,0:0:0:0:
256,192,27762,1,0,0:0:0:0:
475,192,27762,1,0,0:0:0:0:
109,192,27762,1,0,0:0:0:0:
36,192,27762,1,0,0:0:0:0:
402,192,27831,1,0,0:0:0:0:
182,192,27899,1,0,0:0:0:0:
329,192,27967,1,0,0:0:0:0:
182,192,28035,1,0,0:0:0:0:
402,192,28103,1,0,0:0:0:0:
36,192,28171,1,0,0:0:0:0:
256,192,28171,1,0,0:0:0:0:
475,192,28171,1,0,0:0:0:0:
109,192,28171,1,0,0:0:0:0:
329,192,28240,1,0,0:0:0:0:
402,192,28308,1,0,0:0:0:0:
475,192,28308,1,0,0:0:0:0:
36,192,28308,1,0,0:0:0:0:
109,192,28308,1,0,0:0:0:0:
256,192,28376,1,0,0:0:0:0:
182,192,28444,1,0,0:0:0:0:
329,192,28512,1,0,0:0:0:0:
256,192,28581,1,0,0:0:0:0:
109,192,28581,1,0,0:0:0:0:
36,192,28581,1,0,0:0:0:0:
475,192,28581,1,0,0:0:0:0:
402,192,28649,1,0,0:0:0:0:
182,192,28717,1,0,0:0:0:0:
329,192,28785,1,0,0:0:0:0:
256,192,28853,1,0,0:0:0:0:
36,192,28853,1,0,0:0:0:0:
475,192,28853,1,0,0:0:0:0:
109,192,28921,1,0,0:0:0:0:
182,192,28990,1,0,0:0:0:0:
402,192,28990,1,0,0:0:0:0:
329,192,29058,1,0,0:0:0:0:
256,192,29126,1,0,0:0:0:0:
36,192,29126,1,0,0:0:0:0:
475,192,29126,1,0,0:0:0:0:
182,192,29194,1,0,0:0:0:0:
329,192,29262,1,0,0:0:0:0:
402,192,29262,1,0,0:0:0:0:
109,192,29331,1,0,0:0:0:0:
256,192,29399,1,0,0:0:0:0:
36,192,29399,1,0,0:0:0:0:
475,192,29399,1,0,0:0:0:0:
329,192,29467,1,0,0:0:0:0:
402,192,29535,1,0,0:0:0:0:
109,192,29535,1,0,0:0:0:0:
256,192,29603,1,0,0:0:0:0:
182,192,29671,1,0,0:0:0:0:
475,192,29671,1,0,0:0:0:0:
36,192,29671,1,0,0:0:0:0:
329,192,29740,1,0,0:0:0:0:
402,192,29808,1,0,0:0:0:0:
109,192,29808,1,0,0:0:0:0:
182,192,29876,1,0,0:0:0:0:
256,192,29944,1,0,0:0:0:0:
36,192,29944,1,0,0:0:0:0:
475,192,29944,1,0,0:0:0:0:
402,192,30012,1,0,0:0:0:0:
109,192,30081,1,0,0:0:0:0:
329,192,30081,1,0,0:0:0:0:
182,192,30149,1,0,0:0:0:0:
36,192,30217,1,0,0:0:0:0:
402,192,30217,1,0,0:0:0:0:
475,192,30217,1,0,0:0:0:0:
329,192,30285,1,0,0:0:0:0:
256,192,30353,1,0,0:0:0:0:
109,192,30353,1,0,0:0:0:0:
402,192,30421,1,0,0:0:0:0:
475,192,30490,1,0,0:0:0:0:
182,192,30490,1,0,0:0:0:0:
36,192,30490,1,0,0:0:0:0:
256,192,30558,1,0,0:0:0:0:
402,192,30626,1,0,0:0:0:0:
109,192,30626,1,0,0:0:0:0:
329,192,30694,1,0,0:0:0:0:
36,192,30762,1,0,0:0:0:0:
475,192,30762,1,0,0:0:0:0:
256,192,30762,1,0,0:0:0:0:
109,192,30831,1,0,0:0:0:0:
182,192,30831,1,0,0:0:0:0:
329,192,30899,1,0,0:0:0:0:
402,192,30899,1,0,0:0:0:0:
182,192,30967,1,0,0:0:0:0:
256,192,30967,1,0,0:0:0:0:
109,192,31035,1,0,0:0:0:0:
36,192,31035,1,0,0:0:0:0:
475,192,31035,1,0,0:0:0:0:
402,192,31103,1,0,0:0:0:0:
329,192,31103,1,0,0:0:0:0:
109,192,31171,1,0,0:0:0:0:
182,192,31171,1,0,0:0:0:0:
256,192,31240,1,0,0:0:0:0:
329,192,31240,1,0,0:0:0:0:
475,192,31308,1,0,0:0:0:0:
36,192,31308,1,0,0:0:0:0:
402,192,31308,1,0,0:0:0:0:
109,192,31376,1,0,0:0:0:0:
182,192,31376,1,0,0:0:0:0:
329,192,31444,1,0,0:0:0:0:
402,192,31444,1,0,0:0:0:0:
182,192,31512,1,0,0:0:0:0:
256,192,31512,1,0,0:0:0:0:
109,192,31581,1,0,0:0:0:0:
36,192,31581,1,0,0:0:0:0:
475,192,31581,1,0,0:0:0:0:
329,192,31649,1,0,0:0:0:0:
402,192,31649,1,0,0:0:0:0:
109,192,31717,1,0,0:0:0:0:
182,192,31717,1,0,0:0:0:0:
256,192,31717,1,0,0:0:0:0:
36,192,31717,1,0,0:0:0:0:
475,192,31717,1,0,0:0:0:0:
109,192,31990,1,0,0:0:0:0:
182,192,31990,1,0,0:0:0:0:
475,192,31990,1,0,0:0:0:0:
402,192,31990,1,0,0:0:0:0:
329,192,31990,1,0,0:0:0:0:
182,192,32262,1,0,0:0:0:0:
256,192,32262,1,0,0:0:0:0:
329,192,32262,1,0,0:0:0:0:
402,192,32262,1,0,0:0:0:0:
36,192,32262,1,0,0:0:0:0:
109,192,32399,1,0,0:0:0:0:
182,192,32399,1,0,0:0:0:0:
329,192,32399,1,0,0:0:0:0:
402,192,32399,1,0,0:0:0:0:
475,192,32399,1,0,0:0:0:0:
36,192,32399,1,0,0:0:0:0:
182,192,32671,1,0,0:0:0:0:
329,192,32671,1,0,0:0:0:0:
329,192,32808,1,0,0:0:0:0:
182,192,32808,1,0,0:0:0:0:
256,192,32944,1,0,0:0:0:0:
475,192,32944,1,0,0:0:0:0:
109,192,32944,1,0,0:0:0:0:
36,192,32944,128,0,33217:0:0:0:0:
402,192,32944,1,0,0:0:0:0:
182,192,33217,128,0,33490:0:0:0:0:
329,192,33217,1,0,0:0:0:0:
402,192,33490,128,0,33626:0:0:0:0:
36,192,33490,1,0,0:0:0:0:
475,192,33626,128,0,33899:0:0:0:0:
182,192,33626,1,0,0:0:0:0:
256,192,33899,128,0,34171:0:0:0:0:
109,192,33899,1,0,0:0:0:0:
36,192,34171,128,0,34308:0:0:0:0:
402,192,34171,1,0,0:0:0:0:
256,192,34308,1,0,0:0:0:0:
402,192,34444,128,0,34581:0:0:0:0:
182,192,34444,1,0,0:0:0:0:
329,192,34581,128,0,34853:0:0:0:0:
182,192,34717,1,0,0:0:0:0:
36,192,34853,128,0,34990:0:0:0:0:
256,192,34853,1,0,0:0:0:0:
109,192,34990,128,0,35126:0:0:0:0:
329,192,34990,1,0,0:0:0:0:
182,192,35126,128,0,35399:0:0:0:0:
402,192,35126,1,0,0:0:0:0:
256,192,35399,1,0,0:0:0:0:
329,192,35399,128,0,35535:0:0:0:0:
475,192,35671,128,0,35740:0:0:0:0:
109,192,35671,1,0,0:0:0:0:
475,192,35808,128,0,36081:0:0:0:0:
256,192,35808,1,0,0:0:0:0:
36,192,35944,128,0,36081:0:0:0:0:
329,192,36081,128,0,36762:0:0:0:0:
402,192,36081,1,0,0:0:0:0:
109,192,36081,128,0,36217:0:0:0:0:
182,192,36217,128,0,36490:0:0:0:0:
475,192,36353,1,0,0:0:0:0:
109,192,36490,128,0,36626:0:0:0:0:
256,192,36626,1,0,0:0:0:0:
36,192,36762,128,0,36831:0:0:0:0:
36,192,36899,128,0,37171:0:0:0:0:
329,192,36899,1,0,0:0:0:0:
475,192,37035,128,0,37171:0:0:0:0:
182,192,37171,128,0,37853:0:0:0:0:
329,192,37171,128,0,37308:0:0:0:0:
109,192,37171,1,0,0:0:0:0:
402,192,37308,128,0,37581:0:0:0:0:
256,192,37308,1,0,0:0:0:0:
36,192,37581,1,0,0:0:0:0:
475,192,37581,128,0,37717:0:0:0:0:
109,192,37853,128,0,37990:0:0:0:0:
329,192,37853,1,0,0:0:0:0:
256,192,37990,128,0,38262:0:0:0:0:
402,192,37990,1,0,0:0:0:0:
402,192,38262,128,0,38399:0:0:0:0:
109,192,38262,1,0,0:0:0:0:
182,192,38535,128,0,38808:0:0:0:0:
329,192,38535,1,0,0:0:0:0:
475,192,38671,1,0,0:0:0:0:
329,192,38808,128,0,38944:0:0:0:0:
256,192,38808,1,0,0:0:0:0:
109,192,38944,128,0,39081:0:0:0:0:
182,192,39081,1,0,0:0:0:0:
475,192,39217,128,0,39353:0:0:0:0:
256,192,39217,1,0,0:0:0:0:
329,192,39353,128,0,39490:0:0:0:0:
109,192,39353,1,0,0:0:0:0:
182,192,39490,128,0,39626:0:0:0:0:
36,192,39490,1,0,0:0:0:0:
256,192,39762,128,0,39899:0:0:0:0:
402,192,39762,1,0,0:0:0:0:
402,192,40035,128,0,40171:0:0:0:0:
109,192,40035,1,0,0:0:0:0:
329,192,40171,128,0,40308:0:0:0:0:
256,192,40171,1,0,0:0:0:0:
36,192,40308,128,0,40444:0:0:0:0:
475,192,40444,128,0,41126:0:0:0:0:
329,192,40444,1,0,0:0:0:0:
182,192,40444,128,0,40581:0:0:0:0:
109,192,40581,128,0,40717:0:0:0:0:
256,192,40717,1,0,0:0:0:0:
182,192,40853,128,0,40990:0:0:0:0:
402,192,40853,1,0,0:0:0:0:
256,192,41126,128,0,41262:0:0:0:0:
36,192,41126,1,0,0:0:0:0:
109,192,41262,128,0,41399:0:0:0:0:
329,192,41399,128,0,41535:0:0:0:0:
402,192,41399,1,0,0:0:0:0:
36,192,41535,128,0,42217:0:0:0:0:
475,192,41535,128,0,41671:0:0:0:0:
402,192,41671,128,0,41944:0:0:0:0:
182,192,41671,1,0,0:0:0:0:
182,192,41944,128,0,42081:0:0:0:0:
329,192,41944,1,0,0:0:0:0:
329,192,42217,128,0,42353:0:0:0:0:
256,192,42217,1,0,0:0:0:0:
475,192,42353,128,0,42490:0:0:0:0:
36,192,42353,1,0,0:0:0:0:
109,192,42626,128,0,42762:0:0:0:0:
329,192,42626,1,0,0:0:0:0:
402,192,42899,128,0,43035:0:0:0:0:
182,192,42899,1,0,0:0:0:0:
329,192,43035,1,0,0:0:0:0:
182,192,43171,128,0,43308:0:0:0:0:
36,192,43171,1,0,0:0:0:0:
329,192,43308,128,0,43444:0:0:0:0:
475,192,43444,1,0,0:0:0:0:
109,192,43581,128,0,43717:0:0:0:0:
475,192,43581,1,0,0:0:0:0:
256,192,43717,128,0,43853:0:0:0:0:
36,192,43717,1,0,0:0:0:0:
182,192,43853,128,0,43990:0:0:0:0:
402,192,43853,1,0,0:0:0:0:
329,192,44126,128,0,44262:0:0:0:0:
182,192,44126,1,0,0:0:0:0:
109,192,44399,128,0,44535:0:0:0:0:
256,192,44399,1,0,0:0:0:0:
402,192,44535,128,0,44671:0:0:0:0:
329,192,44535,1,0,0:0:0:0:
36,192,44808,128,0,44944:0:0:0:0:
256,192,44808,1,0,0:0:0:0:
182,192,45081,128,0,45217:0:0:0:0:
329,192,45081,1,0,0:0:0:0:
402,192,45353,128,0,45421:0:0:0:0:
109,192,45353,1,0,0:0:0:0:
402,192,45490,128,0,45558:0:0:0:0:
256,192,45626,1,0,0:0:0:0:
109,192,45762,128,0,45899:0:0:0:0:
402,192,45899,1,0,0:0:0:0:
256,192,46035,128,0,46171:0:0:0:0:
36,192,46035,1,0,0:0:0:0:
182,192,46308,128,0,46444:0:0:0:0:
329,192,46308,1,0,0:0:0:0:
475,192,46581,128,0,46717:0:0:0:0:
109,192,46581,1,0,0:0:0:0:
402,192,46717,128,0,46853:0:0:0:0:
256,192,46717,1,0,0:0:0:0:
109,192,46990,128,0,47262:0:0:0:0:
329,192,46990,1,0,0:0:0:0:
329,192,47262,128,0,47399:0:0:0:0:
475,192,47262,1,0,0:0:0:0:
182,192,47399,128,0,47535:0:0:0:0:
36,192,47399,1,0,0:0:0:0:
402,192,47535,128,0,47671:0:0:0:0:
256,192,47535,1,0,0:0:0:0:
36,192,47808,128,0,47876:0:0:0:0:
329,192,47808,1,0,0:0:0:0:
36,192,47944,128,0,48012:0:0:0:0:
256,192,47944,1,0,0:0:0:0:
402,192,48081,1,0,0:0:0:0:
182,192,48217,128,0,48490:0:0:0:0:
109,192,48217,1,0,0:0:0:0:
475,192,48490,128,0,48762:0:0:0:0:
256,192,48490,1,0,0:0:0:0:
329,192,48762,128,0,48899:0:0:0:0:
36,192,48762,1,0,0:0:0:0:
402,192,48899,128,0,49035:0:0:0:0:
182,192,48899,1,0,0:0:0:0:
329,192,49171,128,0,49853:0:0:0:0:
256,192,49171,1,0,0:0:0:0:
36,192,49308,128,0,49581:0:0:0:0:
475,192,49444,1,0,0:0:0:0:
182,192,49581,128,0,49853:0:0:0:0:
256,192,49581,1,0,0:0:0:0:
109,192,49853,128,0,49990:0:0:0:0:
402,192,49853,1,0,0:0:0:0:
182,192,49990,128,0,50126:0:0:0:0:
329,192,50126,1,0,0:0:0:0:
475,192,50126,128,0,50262:0:0:0:0:
36,192,50262,128,0,50944:0:0:0:0:
402,192,50262,128,0,50399:0:0:0:0:
329,192,50399,128,0,50535:0:0:0:0:
256,192,50399,1,0,0:0:0:0:
109,192,50399,1,0,0:0:0:0:
182,192,50671,1,0,0:0:0:0:
329,192,50671,1,0,0:0:0:0:
329,192,50944,128,0,51081:0:0:0:0:
475,192,50944,128,0,51081:0:0:0:0:
182,192,51081,128,0,51217:0:0:0:0:
36,192,51081,128,0,51217:0:0:0:0:
256,192,51353,128,0,51899:0:0:0:0:
402,192,51353,128,0,51899:0:0:0:0:
36,192,52035,1,0,0:0:0:0:
475,192,52035,1,0,0:0:0:0:
182,192,52171,1,0,0:0:0:0:
329,192,52171,1,0,0:0:0:0:
182,192,52444,1,0,0:0:0:0:
329,192,52444,1,0,0:0:0:0:
109,192,52581,1,0,0:0:0:0:
475,192,52581,1,0,0:0:0:0:
36,192,52581,1,0,0:0:0:0:
256,192,52581,1,0,0:0:0:0:
402,192,52649,1,0,0:0:0:0:
182,192,52717,1,0,0:0:0:0:
329,192,52785,1,0,0:0:0:0:
475,192,52853,1,0,0:0:0:0:
36,192,52853,1,0,0:0:0:0:
256,192,52853,1,0,0:0:0:0:
109,192,52921,1,0,0:0:0:0:
182,192,52990,1,0,0:0:0:0:
329,192,53058,1,0,0:0:0:0:
475,192,53126,1,0,0:0:0:0:
36,192,53126,1,0,0:0:0:0:
256,192,53126,1,0,0:0:0:0:
182,192,53194,1,0,0:0:0:0:
402,192,53262,1,0,0:0:0:0:
109,192,53331,1,0,0:0:0:0:
256,192,53399,1,0,0:0:0:0:
36,192,53399,1,0,0:0:0:0:
475,192,53399,1,0,0:0:0:0:
329,192,53467,1,0,0:0:0:0:
402,192,53535,1,0,0:0:0:0:
109,192,53535,1,0,0:0:0:0:
182,192,53603,1,0,0:0:0:0:
475,192,53671,1,0,0:0:0:0:
36,192,53671,1,0,0:0:0:0:
256,192,53671,1,0,0:0:0:0:
329,192,53740,1,0,0:0:0:0:
182,192,53808,1,0,0:0:0:0:
402,192,53876,1,0,0:0:0:0:
36,192,53944,1,0,0:0:0:0:
475,192,53944,1,0,0:0:0:0:
256,192,53944,1,0,0:0:0:0:
182,192,54012,1,0,0:0:0:0:
329,192,54081,1,0,0:0:0:0:
109,192,54149,1,0,0:0:0:0:
475,192,54217,1,0,0:0:0:0:
36,192,54217,1,0,0:0:0:0:
256,192,54217,1,0,0:0:0:0:
402,192,54285,1,0,0:0:0:0:
109,192,54353,1,0,0:0:0:0:
329,192,54421,1,0,0:0:0:0:
36,192,54490,1,0,0:0:0:0:
475,192,54490,1,0,0:0:0:0:
256,192,54490,1,0,0:0:0:0:
182,192,54558,1,0,0:0:0:0:
109,192,54626,1,0,0:0:0:0:
329,192,54694,1,0,0:0:0:0:
36,192,54762,1,0,0:0:0:0:
475,192,54762,1,0,0:0:0:0:
256,192,54762,1,0,0:0:0:0:
402,192,54831,1,0,0:0:0:0:
182,192,54899,1,0,0:0:0:0:
329,192,54967,1,0,0:0:0:0:
475,192,55035,1,0,0:0:0:0:
36,192,55035,1,0,0:0:0:0:
256,192,55035,1,0,0:0:0:0:
109,192,55103,1,0,0:0:0:0:
182,192,55171,1,0,0:0:0:0:
329,192,55240,1,0,0:0:0:0:
475,192,55308,1,0,0:0:0:0:
36,192,55308,1,0,0:0:0:0:
256,192,55308,1,0,0:0:0:0:
182,192,55376,1,0,0:0:0:0:
329,192,55444,1,0,0:0:0:0:
182,192,55512,1,0,0:0:0:0:
36,192,55581,1,0,0:0:0:0:
475,192,55581,1,0,0:0:0:0:
256,192,55581,1,0,0:0:0:0:
402,192,55649,1,0,0:0:0:0:
182,192,55717,1,0,0:0:0:0:
329,192,55785,1,0,0:0:0:0:
36,192,55853,1,0,0:0:0:0:
475,192,55853,1,0,0:0:0:0:
256,192,55853,1,0,0:0:0:0:
109,192,55921,1,0,0:0:0:0:
329,192,55990,1,0,0:0:0:0:
182,192,56058,1,0,0:0:0:0:
475,192,56126,1,0,0:0:0:0:
36,192,56126,1,0,0:0:0:0:
256,192,56126,1,0,0:0:0:0:
329,192,56194,1,0,0:0:0:0:
109,192,56262,1,0,0:0:0:0:
402,192,56331,1,0,0:0:0:0:
475,192,56399,1,0,0:0:0:0:
36,192,56399,1,0,0:0:0:0:
256,192,56399,1,0,0:0:0:0:
182,192,56467,1,0,0:0:0:0:
402,192,56535,1,0,0:0:0:0:
329,192,56603,1,0,0:0:0:0:
36,192,56671,1,0,0:0:0:0:
475,192,56671,1,0,0:0:0:0:
256,192,56671,1,0,0:0:0:0:
109,192,56740,1,0,0:0:0:0:
329,192,56808,1,0,0:0:0:0:
182,192,56876,1,0,0:0:0:0:
36,192,56944,1,0,0:0:0:0:
475,192,56944,1,0,0:0:0:0:
256,192,56944,1,0,0:0:0:0:
402,192,57012,1,0,0:0:0:0:
329,192,57081,1,0,0:0:0:0:
475,192,57081,1,0,0:0:0:0:
109,192,57081,1,0,0:0:0:0:
182,192,57149,1,0,0:0:0:0:
256,192,57217,1,0,0:0:0:0:
36,192,57217,1,0,0:0:0:0:
402,192,57217,1,0,0:0:0:0:
182,192,57285,1,0,0:0:0:0:
109,192,57353,1,0,0:0:0:0:
329,192,57353,1,0,0:0:0:0:
475,192,57353,1,0,0:0:0:0:
402,192,57421,1,0,0:0:0:0:
256,192,57490,1,0,0:0:0:0:
475,192,57490,1,0,0:0:0:0:
36,192,57490,1,0,0:0:0:0:
109,192,57558,1,0,0:0:0:0:
182,192,57626,1,0,0:0:0:0:
329,192,57626,1,0,0:0:0:0:
36,192,57626,1,0,0:0:0:0:
402,192,57694,1,0,0:0:0:0:
475,192,57762,1,0,0:0:0:0:
109,192,57762,1,0,0:0:0:0:
256,192,57762,1,0,0:0:0:0:
182,192,57831,1,0,0:0:0:0:
329,192,57899,1,0,0:0:0:0:
36,192,57899,1,0,0:0:0:0:
402,192,57899,1,0,0:0:0:0:
256,192,57967,1,0,0:0:0:0:
182,192,58035,1,0,0:0:0:0:
109,192,58035,1,0,0:0:0:0:
475,192,58035,1,0,0:0:0:0:
329,192,58103,1,0,0:0:0:0:
256,192,58171,1,0,0:0:0:0:
402,192,58171,1,0,0:0:0:0:
36,192,58171,1,0,0:0:0:0:
109,192,58240,1,0,0:0:0:0:
182,192,58308,1,0,0:0:0:0:
329,192,58308,1,0,0:0:0:0:
475,192,58308,1,0,0:0:0:0:
402,192,58376,1,0,0:0:0:0:
256,192,58444,1,0,0:0:0:0:
36,192,58444,1,0,0:0:0:0:
475,192,58444,1,0,0:0:0:0:
182,192,58512,1,0,0:0:0:0:
109,192,58581,1,0,0:0:0:0:
329,192,58581,1,0,0:0:0:0:
402,192,58581,1,0,0:0:0:0:
475,192,58649,1,0,0:0:0:0:
256,192,58717,1,0,0:0:0:0:
36,192,58717,1,0,0:0:0:0:
182,192,58717,1,0,0:0:0:0:
329,192,58785,1,0,0:0:0:0:
402,192,58853,1,0,0:0:0:0:
182,192,58853,1,0,0:0:0:0:
109,192,58853,1,0,0:0:0:0:
256,192,58921,1,0,0:0:0:0:
36,192,58990,1,0,0:0:0:0:
475,192,58990,1,0,0:0:0:0:
402,192,58990,1,0,0:0:0:0:
329,192,59058,1,0,0:0:0:0:
182,192,59126,1,0,0:0:0:0:
475,192,59126,1,0,0:0:0:0:
109,192,59126,1,0,0:0:0:0:
256,192,59194,1,0,0:0:0:0:
402,192,59194,1,0,0:0:0:0:
109,192,59262,1,0,0:0:0:0:
36,192,59262,1,0,0:0:0:0:
182,192,59331,1,0,0:0:0:0:
329,192,59331,1,0,0:0:0:0:
402,192,59399,1,0,0:0:0:0:
475,192,59399,1,0,0:0:0:0:
36,192,59399,1,0,0:0:0:0:
109,192,59467,1,0,0:0:0:0:
182,192,59467,1,0,0:0:0:0:
256,192,59535,1,0,0:0:0:0:
329,192,59535,1,0,0:0:0:0:
109,192,59603,1,0,0:0:0:0:
36,192,59603,1,0,0:0:0:0:
402,192,59671,1,0,0:0:0:0:
475,192,59671,1,0,0:0:0:0:
329,192,59671,1,0,0:0:0:0:
109,192,59740,1,0,0:0:0:0:
182,192,59740,1,0,0:0:0:0:
256,192,59808,1,0,0:0:0:0:
329,192,59808,1,0,0:0:0:0:
109,192,59876,1,0,0:0:0:0:
36,192,59876,1,0,0:0:0:0:
329,192,59944,1,0,0:0:0:0:
402,192,59944,1,0,0:0:0:0:
475,192,59944,1,0,0:0:0:0:
182,192,60012,1,0,0:0:0:0:
109,192,60012,1,0,0:0:0:0:
329,192,60081,1,0,0:0:0:0:
256,192,60081,1,0,0:0:0:0:
402,192,60149,1,0,0:0:0:0:
475,192,60149,1,0,0:0:0:0:
36,192,60217,128,0,60490:0:0:0:0:
182,192,60353,128,0,60490:0:0:0:0:
475,192,60490,1,0,0:0:0:0:
329,192,60558,1,0,0:0:0:0:
475,192,60626,1,0,0:0:0:0:
329,192,60694,1,0,0:0:0:0:
109,192,60762,1,0,0:0:0:0:
475,192,60762,1,0,0:0:0:0:
256,192,60831,1,0,0:0:0:0:
109,192,60899,1,0,0:0:0:0:
256,192,60967,1,0,0:0:0:0:
109,192,61035,1,0,0:0:0:0:
402,192,61035,1,0,0:0:0:0:
475,192,61035,1,0,0:0:0:0:
36,192,61308,1,0,0:0:0:0:
109,192,61308,1,0,0:0:0:0:
329,192,61308,1,0,0:0:0:0:
402,192,61308,1,0,0:0:0:0:
475,192,61308,1,0,0:0:0:0:
182,192,61308,128,0,61444:0:0:0:0:
256,192,61444,1,0,0:0:0:0:
402,192,61444,1,0,0:0:0:0:
475,192,61581,1,0,0:0:0:0:
182,192,61581,1,0,0:0:0:0:
109,192,61581,1,0,0:0:0:0:
36,192,61581,1,0,0:0:0:0:
329,192,61581,128,0,61717:0:0:0:0:
109,192,61717,1,0,0:0:0:0:
256,192,61717,1,0,0:0:0:0:
182,192,61853,1,0,0:0:0:0:
329,192,61853,1,0,0:0:0:0:
475,192,61853,1,0,0:0:0:0:
402,192,61853,1,0,0:0:0:0:
36,192,61853,128,0,61990:0:0:0:0:
256,192,61990,128,0,62126:0:0:0:0:
402,192,61990,1,0,0:0:0:0:
329,192,62126,1,0,0:0:0:0:
475,192,62126,1,0,0:0:0:0:
182,192,62126,1,0,0:0:0:0:
36,192,62126,1,0,0:0:0:0:
109,192,62126,1,0,0:0:0:0:
256,192,62262,1,0,0:0:0:0:
402,192,62262,128,0,62399:0:0:0:0:
475,192,62399,1,0,0:0:0:0:
329,192,62399,1,0,0:0:0:0:
182,192,62399,1,0,0:0:0:0:
36,192,62399,1,0,0:0:0:0:
109,192,62399,1,0,0:0:0:0:
256,192,62535,1,0,0:0:0:0:
109,192,62535,128,0,62671:0:0:0:0:
182,192,62671,1,0,0:0:0:0:
329,192,62671,1,0,0:0:0:0:
36,192,62671,1,0,0:0:0:0:
256,192,62671,1,0,0:0:0:0:
475,192,62671,128,0,62808:0:0:0:0:
329,192,62808,1,0,0:0:0:0:
182,192,62808,128,0,62944:0:0:0:0:
256,192,62944,1,0,0:0:0:0:
402,192,62944,1,0,0:0:0:0:
475,192,62944,1,0,0:0:0:0:
36,192,62944,1,0,0:0:0:0:
109,192,62944,1,0,0:0:0:0:
182,192,63081,1,0,0:0:0:0:
475,192,63081,128,0,63217:0:0:0:0:
109,192,63217,1,0,0:0:0:0:
36,192,63217,1,0,0:0:0:0:
329,192,63217,1,0,0:0:0:0:
402,192,63217,1,0,0:0:0:0:
256,192,63217,128,0,63353:0:0:0:0:
182,192,63353,128,0,63490:0:0:0:0:
402,192,63353,1,0,0:0:0:0:
475,192,63490,1,0,0:0:0:0:
109,192,63490,1,0,0:0:0:0:
36,192,63490,1,0,0:0:0:0:
256,192,63490,1,0,0:0:0:0:
329,192,63490,128,0,63626:0:0:0:0:
182,192,63626,1,0,0:0:0:0:
402,192,63626,1,0,0:0:0:0:
109,192,63762,1,0,0:0:0:0:
256,192,63762,1,0,0:0:0:0:
329,192,63762,1,0,0:0:0:0:
475,192,63762,1,0,0:0:0:0:
36,192,63762,128,0,63899:0:0:0:0:
182,192,63899,1,0,0:0:0:0:
329,192,63899,1,0,0:0:0:0:
36,192,64035,1,0,0:0:0:0:
402,192,64035,1,0,0:0:0:0:
475,192,64035,1,0,0:0:0:0:
109,192,64035,1,0,0:0:0:0:
256,192,64035,128,0,64171:0:0:0:0:
109,192,64171,1,0,0:0:0:0:
329,192,64171,128,0,64308:0:0:0:0:
182,192,64308,1,0,0:0:0:0:
36,192,64308,1,0,0:0:0:0:
256,192,64308,1,0,0:0:0:0:
402,192,64308,1,0,0:0:0:0:
475,192,64308,1,0,0:0:0:0:
182,192,64444,1,0,0:0:0:0:
402,192,64444,128,0,64581:0:0:0:0:
256,192,64581,1,0,0:0:0:0:
109,192,64581,1,0,0:0:0:0:
329,192,64581,1,0,0:0:0:0:
475,192,64581,1,0,0:0:0:0:
36,192,64581,1,0,0:0:0:0:
329,192,64717,1,0,0:0:0:0:
109,192,64717,128,0,64853:0:0:0:0:
182,192,64853,1,0,0:0:0:0:
256,192,64853,1,0,0:0:0:0:
402,192,64853,1,0,0:0:0:0:
475,192,64853,1,0,0:0:0:0:
36,192,64853,1,0,0:0:0:0:
182,192,64990,1,0,0:0:0:0:
329,192,64990,128,0,65126:0:0:0:0:
256,192,65126,1,0,0:0:0:0:
109,192,65126,1,0,0:0:0:0:
36,192,65126,1,0,0:0:0:0:
402,192,65126,1,0,0:0:0:0:
475,192,65126,1,0,0:0:0:0:
329,192,65262,1,0,0:0:0:0:
109,192,65262,128,0,65399:0:0:0:0:
182,192,65399,1,0,0:0:0:0:
256,192,65399,1,0,0:0:0:0:
329,192,65399,1,0,0:0:0:0:
36,192,65399,1,0,0:0:0:0:
475,192,65399,1,0,0:0:0:0:
402,192,65535,1,0,0:0:0:0:
256,192,65535,128,0,65671:0:0:0:0:
182,192,65671,1,0,0:0:0:0:
109,192,65671,1,0,0:0:0:0:
329,192,65671,1,0,0:0:0:0:
402,192,65671,1,0,0:0:0:0:
36,192,65671,128,0,65808:0:0:0:0:
475,192,65808,1,0,0:0:0:0:
182,192,65808,1,0,0:0:0:0:
256,192,65944,1,0,0:0:0:0:
329,192,65944,1,0,0:0:0:0:
109,192,65944,1,0,0:0:0:0:
36,192,65944,1,0,0:0:0:0:
402,192,65944,128,0,66081:0:0:0:0:
329,192,66081,1,0,0:0:0:0:
182,192,66081,1,0,0:0:0:0:
256,192,66217,1,0,0:0:0:0:
109,192,66217,1,0,0:0:0:0:
36,192,66217,1,0,0:0:0:0:
402,192,66217,1,0,0:0:0:0:
475,192,66217,128,0,66353:0:0:0:0:
182,192,66353,128,0,66490:0:0:0:0:
329,192,66353,1,0,0:0:0:0:
329,192,66490,1,0,0:0:0:0:
475,192,66490,1,0,0:0:0:0:
256,192,66490,1,0,0:0:0:0:
109,192,66490,1,0,0:0:0:0:
36,192,66490,1,0,0:0:0:0:
402,192,66626,1,0,0:0:0:0:
109,192,66626,128,0,66762:0:0:0:0:
36,192,66762,1,0,0:0:0:0:
182,192,66762,1,0,0:0:0:0:
256,192,66762,1,0,0:0:0:0:
329,192,66762,1,0,0:0:0:0:
402,192,66762,1,0,0:0:0:0:
256,192,66899,1,0,0:0:0:0:
475,192,66899,128,0,67035:0:0:0:0:
329,192,67035,1,0,0:0:0:0:
402,192,67035,1,0,0:0:0:0:
36,192,67035,1,0,0:0:0:0:
109,192,67035,1,0,0:0:0:0:
182,192,67035,128,0,67171:0:0:0:0:
402,192,67171,1,0,0:0:0:0:
256,192,67171,128,0,67308:0:0:0:0:
182,192,67308,1,0,0:0:0:0:
329,192,67308,1,0,0:0:0:0:
109,192,67308,1,0,0:0:0:0:
36,192,67308,1,0,0:0:0:0:
475,192,67308,1,0,0:0:0:0:
256,192,67444,1,0,0:0:0:0:
402,192,67444,128,0,67581:0:0:0:0:
329,192,67581,1,0,0:0:0:0:
475,192,67581,1,0,0:0:0:0:
109,192,67581,1,0,0:0:0:0:
36,192,67581,1,0,0:0:0:0:
182,192,67581,128,0,67717:0:0:0:0:
329,192,67717,1,0,0:0:0:0:
36,192,67717,128,0,67853:0:0:0:0:
182,192,67853,1,0,0:0:0:0:
475,192,67853,1,0,0:0:0:0:
109,192,67853,1,0,0:0:0:0:
402,192,67853,1,0,0:0:0:0:
256,192,67853,128,0,67990:0:0:0:0:
109,192,67990,1,0,0:0:0:0:
329,192,67990,1,0,0:0:0:0:
36,192,68126,1,0,0:0:0:0:
256,192,68126,1,0,0:0:0:0:
475,192,68126,1,0,0:0:0:0:
402,192,68126,1,0,0:0:0:0:
182,192,68126,128,0,68262:0:0:0:0:
109,192,68262,1,0,0:0:0:0:
329,192,68262,1,0,0:0:0:0:
36,192,68399,1,0,0:0:0:0:
256,192,68399,1,0,0:0:0:0:
402,192,68399,1,0,0:0:0:0:
475,192,68399,1,0,0:0:0:0:
182,192,68399,128,0,68535:0:0:0:0:
36,192,68535,1,0,0:0:0:0:
329,192,68535,128,0,68671:0:0:0:0:
109,192,68671,1,0,0:0:0:0:
182,192,68671,1,0,0:0:0:0:
256,192,68671,1,0,0:0:0:0:
402,192,68671,1,0,0:0:0:0:
475,192,68671,1,0,0:0:0:0:
182,192,68808,1,0,0:0:0:0:
402,192,68808,128,0,68944:0:0:0:0:
475,192,68944,1,0,0:0:0:0:
329,192,68944,1,0,0:0:0:0:
256,192,68944,1,0,0:0:0:0:
109,192,68944,1,0,0:0:0:0:
36,192,68944,1,0,0:0:0:0:
256,192,69081,1,0,0:0:0:0:
109,192,69081,128,0,69217:0:0:0:0:
182,192,69217,1,0,0:0:0:0:
402,192,69217,1,0,0:0:0:0:
36,192,69217,1,0,0:0:0:0:
475,192,69217,1,0,0:0:0:0:
329,192,69217,128,0,69353:0:0:0:0:
256,192,69353,1,0,0:0:0:0:
109,192,69353,1,0,0:0:0:0:
109,192,69490,1,0,0:0:0:0:
329,192,69490,1,0,0:0:0:0:
402,192,69490,1,0,0:0:0:0:
475,192,69490,1,0,0:0:0:0:
182,192,69490,128,0,69626:0:0:0:0:
36,192,69626,1,0,0:0:0:0:
329,192,69626,1,0,0:0:0:0:
182,192,69762,1,0,0:0:0:0:
36,192,69762,1,0,0:0:0:0:
402,192,69762,1,0,0:0:0:0:
475,192,69762,1,0,0:0:0:0:
256,192,69762,128,0,69899:0:0:0:0:
109,192,69899,1,0,0:0:0:0:
402,192,69899,1,0,0:0:0:0:
36,192,70035,1,0,0:0:0:0:
109,192,70035,1,0,0:0:0:0:
182,192,70035,1,0,0:0:0:0:
475,192,70035,1,0,0:0:0:0:
329,192,70035,128,0,70171:0:0:0:0:
256,192,70171,1,0,0:0:0:0:
402,192,70171,1,0,0:0:0:0:
182,192,70308,1,0,0:0:0:0:
329,192,70308,1,0,0:0:0:0:
109,192,70308,1,0,0:0:0:0:
36,192,70308,1,0,0:0:0:0:
475,192,70308,128,0,70444:0:0:0:0:
182,192,70444,1,0,0:0:0:0:
402,192,70444,1,0,0:0:0:0:
109,192,70581,1,0,0:0:0:0:
256,192,70581,1,0,0:0:0:0:
475,192,70581,1,0,0:0:0:0:
329,192,70581,1,0,0:0:0:0:
36,192,70581,128,0,70717:0:0:0:0:
182,192,70717,128,0,70853:0:0:0:0:
329,192,70717,1,0,0:0:0:0:
402,192,70853,1,0,0:0:0:0:
475,192,70853,1,0,0:0:0:0:
256,192,70853,1,0,0:0:0:0:
36,192,70853,1,0,0:0:0:0:
109,192,70853,1,0,0:0:0:0:
402,192,70990,1,0,0:0:0:0:
256,192,70990,128,0,71126:0:0:0:0:
475,192,71126,1,0,0:0:0:0:
329,192,71126,1,0,0:0:0:0:
182,192,71126,1,0,0:0:0:0:
36,192,71126,1,0,0:0:0:0:
109,192,71126,1,0,0:0:0:0:
329,192,71262,1,0,0:0:0:0:
109,192,71262,128,0,71399:0:0:0:0:
182,192,71399,1,0,0:0:0:0:
475,192,71399,1,0,0:0:0:0:
36,192,71399,1,0,0:0:0:0:
256,192,71399,1,0,0:0:0:0:
402,192,71399,128,0,71535:0:0:0:0:
329,192,71535,1,0,0:0:0:0:
182,192,71535,128,0,71671:0:0:0:0:
256,192,71671,1,0,0:0:0:0:
402,192,71671,1,0,0:0:0:0:
475,192,71671,1,0,0:0:0:0:
36,192,71671,1,0,0:0:0:0:
109,192,71671,1,0,0:0:0:0:
329,192,71808,1,0,0:0:0:0:
36,192,71808,128,0,71944:0:0:0:0:
109,192,71944,1,0,0:0:0:0:
475,192,71944,1,0,0:0:0:0:
182,192,71944,1,0,0:0:0:0:
402,192,71944,1,0,0:0:0:0:
256,192,71944,128,0,72081:0:0:0:0:
329,192,72081,128,0,72217:0:0:0:0:
109,192,72081,1,0,0:0:0:0:
475,192,72217,1,0,0:0:0:0:
182,192,72217,1,0,0:0:0:0:
36,192,72217,1,0,0:0:0:0:
256,192,72217,1,0,0:0:0:0:
402,192,72217,128,0,72353:0:0:0:0:
109,192,72353,1,0,0:0:0:0:
329,192,72353,1,0,0:0:0:0:
109,192,72490,1,0,0:0:0:0:
36,192,72490,1,0,0:0:0:0:
329,192,72490,1,0,0:0:0:0:
475,192,72490,1,0,0:0:0:0:
256,192,72490,128,0,72626:0:0:0:0:
182,192,72626,1,0,0:0:0:0:
402,192,72626,1,0,0:0:0:0:
36,192,72762,1,0,0:0:0:0:
256,192,72762,1,0,0:0:0:0:
475,192,72762,1,0,0:0:0:0:
109,192,72762,1,0,0:0:0:0:
329,192,72762,128,0,72899:0:0:0:0:
402,192,72899,1,0,0:0:0:0:
182,192,72899,128,0,73035:0:0:0:0:
109,192,73035,1,0,0:0:0:0:
36,192,73035,1,0,0:0:0:0:
256,192,73035,1,0,0:0:0:0:
402,192,73035,1,0,0:0:0:0:
475,192,73035,1,0,0:0:0:0:
256,192,73171,1,0,0:0:0:0:
36,192,73171,128,0,73308:0:0:0:0:
182,192,73308,1,0,0:0:0:0:
109,192,73308,1,0,0:0:0:0:
329,192,73308,1,0,0:0:0:0:
475,192,73308,1,0,0:0:0:0:
402,192,73308,1,0,0:0:0:0:
182,192,73444,1,0,0:0:0:0:
329,192,73444,128,0,73581:0:0:0:0:
109,192,73581,1,0,0:0:0:0:
256,192,73581,1,0,0:0:0:0:
402,192,73581,1,0,0:0:0:0:
475,192,73581,1,0,0:0:0:0:
36,192,73581,1,0,0:0:0:0:
402,192,73717,1,0,0:0:0:0:
182,192,73717,128,0,73853:0:0:0:0:
256,192,73853,1,0,0:0:0:0:
109,192,73853,1,0,0:0:0:0:
36,192,73853,1,0,0:0:0:0:
329,192,73853,1,0,0:0:0:0:
475,192,73853,1,0,0:0:0:0:
256,192,73990,1,0,0:0:0:0:
402,192,73990,128,0,74126:0:0:0:0:
182,192,74126,1,0,0:0:0:0:
109,192,74126,1,0,0:0:0:0:
329,192,74126,1,0,0:0:0:0:
36,192,74126,1,0,0:0:0:0:
475,192,74126,1,0,0:0:0:0:
256,192,74262,1,0,0:0:0:0:
109,192,74262,128,0,74399:0:0:0:0:
182,192,74399,1,0,0:0:0:0:
475,192,74399,1,0,0:0:0:0:
329,192,74399,1,0,0:0:0:0:
402,192,74399,1,0,0:0:0:0:
36,192,74399,128,0,74535:0:0:0:0:
402,192,74535,1,0,0:0:0:0:
182,192,74535,1,0,0:0:0:0:
256,192,74671,1,0,0:0:0:0:
475,192,74671,1,0,0:0:0:0:
109,192,74671,1,0,0:0:0:0:
36,192,74671,1,0,0:0:0:0:
329,192,74671,128,0,74808:0:0:0:0:
402,192,74808,1,0,0:0:0:0:
182,192,74808,1,0,0:0:0:0:
256,192,74944,1,0,0:0:0:0:
109,192,74944,1,0,0:0:0:0:
36,192,74944,1,0,0:0:0:0:
475,192,74944,1,0,0:0:0:0:
402,192,74944,128,0,75081:0:0:0:0:
329,192,75081,128,0,75217:0:0:0:0:
182,192,75081,1,0,0:0:0:0:
182,192,75217,1,0,0:0:0:0:
475,192,75217,1,0,0:0:0:0:
402,192,75217,1,0,0:0:0:0:
109,192,75217,1,0,0:0:0:0:
36,192,75217,1,0,0:0:0:0:
402,192,75353,1,0,0:0:0:0:
256,192,75353,128,0,75490:0:0:0:0:
36,192,75490,1,0,0:0:0:0:
182,192,75490,1,0,0:0:0:0:
109,192,75490,1,0,0:0:0:0:
329,192,75490,1,0,0:0:0:0:
475,192,75490,1,0,0:0:0:0:
256,192,75626,1,0,0:0:0:0:
36,192,75626,128,0,75762:0:0:0:0:
475,192,75762,1,0,0:0:0:0:
402,192,75762,1,0,0:0:0:0:
329,192,75762,1,0,0:0:0:0:
109,192,75762,1,0,0:0:0:0:
182,192,75762,128,0,75899:0:0:0:0:
256,192,75899,1,0,0:0:0:0:
402,192,75899,128,0,76035:0:0:0:0:
182,192,76035,1,0,0:0:0:0:
329,192,76035,1,0,0:0:0:0:
109,192,76035,1,0,0:0:0:0:
36,192,76035,1,0,0:0:0:0:
475,192,76035,1,0,0:0:0:0:
329,192,76171,1,0,0:0:0:0:
256,192,76171,128,0,76308:0:0:0:0:
402,192,76308,1,0,0:0:0:0:
475,192,76308,1,0,0:0:0:0:
182,192,76308,1,0,0:0:0:0:
36,192,76308,1,0,0:0:0:0:
109,192,76308,128,0,76444:0:0:0:0:
256,192,76444,1,0,0:0:0:0:
402,192,76444,128,0,76581:0:0:0:0:
182,192,76581,1,0,0:0:0:0:
475,192,76581,1,0,0:0:0:0:
109,192,76581,1,0,0:0:0:0:
329,192,76581,1,0,0:0:0:0:
36,192,76581,128,0,76717:0:0:0:0:
182,192,76717,1,0,0:0:0:0:
329,192,76717,1,0,0:0:0:0:
109,192,76853,1,0,0:0:0:0:
36,192,76853,1,0,0:0:0:0:
475,192,76853,1,0,0:0:0:0:
402,192,76853,1,0,0:0:0:0:
256,192,76853,128,0,76990:0:0:0:0:
109,192,76990,1,0,0:0:0:0:
329,192,76990,1,0,0:0:0:0:
36,192,77126,1,0,0:0:0:0:
182,192,77126,1,0,0:0:0:0:
256,192,77126,1,0,0:0:0:0:
475,192,77126,1,0,0:0:0:0:
402,192,77126,128,0,77262:0:0:0:0:
109,192,77262,1,0,0:0:0:0:
329,192,77262,128,0,77399:0:0:0:0:
182,192,77262,1,0,0:0:0:0:
36,192,77262,1,0,0:0:0:0:
475,192,77262,1,0,0:0:0:0:
109,192,77399,1,0,0:0:0:0:
256,192,77399,1,0,0:0:0:0:
329,192,77535,1,0,0:0:0:0:
182,192,77535,128,0,77671:0:0:0:0:
475,192,77535,1,0,0:0:0:0:
402,192,77535,1,0,0:0:0:0:
36,192,77535,128,0,77671:0:0:0:0:
475,192,77808,128,0,77944:0:0:0:0:
109,192,77808,128,0,77944:0:0:0:0:
256,192,77944,128,0,78081:0:0:0:0:
402,192,77944,128,0,78081:0:0:0:0:
329,192,78217,128,0,78353:0:0:0:0:
109,192,78217,128,0,78353:0:0:0:0:
402,192,78490,128,0,78626:0:0:0:0:
182,192,78490,128,0,78626:0:0:0:0:
36,192,78490,1,0,0:0:0:0:
475,192,78490,1,0,0:0:0:0:
329,192,78626,1,0,0:0:0:0:
109,192,78762,5,0,0:0:0:0:
475,192,78762,1,0,0:0:0:0:
256,192,78762,1,0,0:0:0:0:
36,192,78762,1,0,0:0:0:0:
402,192,78762,1,0,0:0:0:0:
182,192,78831,1,0,0:0:0:0:
329,192,78899,1,0,0:0:0:0:
402,192,78899,1,0,0:0:0:0:
109,192,78967,1,0,0:0:0:0:
475,192,79035,1,0,0:0:0:0:
402,192,79035,1,0,0:0:0:0:
256,192,79035,1,0,0:0:0:0:
36,192,79035,1,0,0:0:0:0:
182,192,79103,1,0,0:0:0:0:
109,192,79171,1,0,0:0:0:0:
329,192,79171,1,0,0:0:0:0:
402,192,79240,1,0,0:0:0:0:
256,192,79308,1,0,0:0:0:0:
109,192,79308,1,0,0:0:0:0:
475,192,79308,1,0,0:0:0:0:
36,192,79308,1,0,0:0:0:0:
329,192,79376,1,0,0:0:0:0:
402,192,79444,1,0,0:0:0:0:
182,192,79444,1,0,0:0:0:0:
109,192,79444,1,0,0:0:0:0:
256,192,79512,1,0,0:0:0:0:
36,192,79581,1,0,0:0:0:0:
402,192,79581,1,0,0:0:0:0:
182,192,79581,1,0,0:0:0:0:
475,192,79581,1,0,0:0:0:0:
329,192,79649,1,0,0:0:0:0:
256,192,79717,1,0,0:0:0:0:
109,192,79717,1,0,0:0:0:0:
475,192,79717,1,0,0:0:0:0:
182,192,79785,1,0,0:0:0:0:
329,192,79853,1,0,0:0:0:0:
475,192,79853,1,0,0:0:0:0:
36,192,79853,1,0,0:0:0:0:
402,192,79853,1,0,0:0:0:0:
109,192,79921,1,0,0:0:0:0:
182,192,79990,1,0,0:0:0:0:
329,192,79990,1,0,0:0:0:0:
402,192,79990,1,0,0:0:0:0:
256,192,80058,1,0,0:0:0:0:
182,192,80126,1,0,0:0:0:0:
36,192,80126,1,0,0:0:0:0:
402,192,80126,1,0,0:0:0:0:
475,192,80126,1,0,0:0:0:0:
329,192,80194,1,0,0:0:0:0:
256,192,80262,1,0,0:0:0:0:
109,192,80262,1,0,0:0:0:0:
36,192,80262,1,0,0:0:0:0:
402,192,80331,1,0,0:0:0:0:
329,192,80399,1,0,0:0:0:0:
182,192,80399,1,0,0:0:0:0:
36,192,80399,1,0,0:0:0:0:
475,192,80399,1,0,0:0:0:0:
109,192,80467,1,0,0:0:0:0:
256,192,80535,1,0,0:0:0:0:
402,192,80535,1,0,0:0:0:0:
329,192,80603,1,0,0:0:0:0:
182,192,80671,1,0,0:0:0:0:
36,192,80671,1,0,0:0:0:0:
475,192,80671,1,0,0:0:0:0:
402,192,80671,1,0,0:0:0:0:
256,192,80740,1,0,0:0:0:0:
329,192,80808,1,0,0:0:0:0:
109,192,80808,1,0,0:0:0:0:
402,192,80808,1,0,0:0:0:0:
182,192,80876,1,0,0:0:0:0:
36,192,80944,1,0,0:0:0:0:
109,192,80944,1,0,0:0:0:0:
256,192,80944,1,0,0:0:0:0:
475,192,80944,1,0,0:0:0:0:
402,192,81012,1,0,0:0:0:0:
329,192,81081,1,0,0:0:0:0:
475,192,81081,1,0,0:0:0:0:
109,192,81081,1,0,0:0:0:0:
182,192,81149,1,0,0:0:0:0:
256,192,81217,1,0,0:0:0:0:
475,192,81217,1,0,0:0:0:0:
402,192,81217,1,0,0:0:0:0:
36,192,81217,1,0,0:0:0:0:
182,192,81285,1,0,0:0:0:0:
109,192,81353,1,0,0:0:0:0:
329,192,81353,1,0,0:0:0:0:
256,192,81421,1,0,0:0:0:0:
182,192,81490,1,0,0:0:0:0:
402,192,81490,1,0,0:0:0:0:
36,192,81490,1,0,0:0:0:0:
475,192,81490,1,0,0:0:0:0:
329,192,81558,1,0,0:0:0:0:
402,192,81626,1,0,0:0:0:0:
109,192,81626,1,0,0:0:0:0:
475,192,81626,1,0,0:0:0:0:
256,192,81694,1,0,0:0:0:0:
182,192,81762,1,0,0:0:0:0:
329,192,81762,1,0,0:0:0:0:
475,192,81762,1,0,0:0:0:0:
36,192,81762,1,0,0:0:0:0:
402,192,81831,1,0,0:0:0:0:
256,192,81899,1,0,0:0:0:0:
109,192,81899,1,0,0:0:0:0:
475,192,81899,1,0,0:0:0:0:
36,192,81967,1,0,0:0:0:0:
182,192,82035,1,0,0:0:0:0:
329,192,82035,1,0,0:0:0:0:
402,192,82035,1,0,0:0:0:0:
475,192,82035,1,0,0:0:0:0:
256,192,82103,1,0,0:0:0:0:
109,192,82171,1,0,0:0:0:0:
402,192,82171,1,0,0:0:0:0:
329,192,82240,1,0,0:0:0:0:
256,192,82308,1,0,0:0:0:0:
36,192,82308,1,0,0:0:0:0:
109,192,82308,1,0,0:0:0:0:
475,192,82308,1,0,0:0:0:0:
182,192,82376,1,0,0:0:0:0:
329,192,82444,1,0,0:0:0:0:
402,192,82444,1,0,0:0:0:0:
182,192,82512,1,0,0:0:0:0:
256,192,82581,1,0,0:0:0:0:
329,192,82581,1,0,0:0:0:0:
36,192,82581,1,0,0:0:0:0:
475,192,82581,1,0,0:0:0:0:
109,192,82649,1,0,0:0:0:0:
182,192,82717,1,0,0:0:0:0:
402,192,82717,1,0,0:0:0:0:
329,192,82785,1,0,0:0:0:0:
256,192,82853,1,0,0:0:0:0:
109,192,82853,1,0,0:0:0:0:
36,192,82853,1,0,0:0:0:0:
475,192,82853,1,0,0:0:0:0:
182,192,82921,1,0,0:0:0:0:
402,192,82990,1,0,0:0:0:0:
256,192,82990,1,0,0:0:0:0:
36,192,82990,1,0,0:0:0:0:
109,192,83058,1,0,0:0:0:0:
182,192,83126,1,0,0:0:0:0:
329,192,83126,1,0,0:0:0:0:
475,192,83126,1,0,0:0:0:0:
36,192,83126,1,0,0:0:0:0:
402,192,83194,1,0,0:0:0:0:
256,192,83262,1,0,0:0:0:0:
109,192,83262,1,0,0:0:0:0:
329,192,83331,1,0,0:0:0:0:
402,192,83399,1,0,0:0:0:0:
475,192,83399,1,0,0:0:0:0:
36,192,83399,1,0,0:0:0:0:
182,192,83399,1,0,0:0:0:0:
256,192,83467,1,0,0:0:0:0:
109,192,83535,1,0,0:0:0:0:
402,192,83535,1,0,0:0:0:0:
329,192,83603,1,0,0:0:0:0:
256,192,83671,1,0,0:0:0:0:
109,192,83671,1,0,0:0:0:0:
36,192,83671,1,0,0:0:0:0:
475,192,83671,1,0,0:0:0:0:
402,192,83740,1,0,0:0:0:0:
329,192,83808,1,0,0:0:0:0:
109,192,83808,1,0,0:0:0:0:
182,192,83808,1,0,0:0:0:0:
256,192,83876,1,0,0:0:0:0:
329,192,83944,1,0,0:0:0:0:
36,192,83944,1,0,0:0:0:0:
182,192,83944,1,0,0:0:0:0:
475,192,83944,1,0,0:0:0:0:
109,192,84012,1,0,0:0:0:0:
256,192,84081,1,0,0:0:0:0:
402,192,84081,1,0,0:0:0:0:
475,192,84081,1,0,0:0:0:0:
182,192,84149,1,0,0:0:0:0:
402,192,84217,1,0,0:0:0:0:
36,192,84217,1,0,0:0:0:0:
109,192,84217,1,0,0:0:0:0:
475,192,84217,1,0,0:0:0:0:
256,192,84285,1,0,0:0:0:0:
329,192,84353,1,0,0:0:0:0:
36,192,84353,1,0,0:0:0:0:
109,192,84353,1,0,0:0:0:0:
182,192,84421,1,0,0:0:0:0:
109,192,84490,1,0,0:0:0:0:
256,192,84490,1,0,0:0:0:0:
402,192,84490,1,0,0:0:0:0:
475,192,84490,1,0,0:0:0:0:
329,192,84558,1,0,0:0:0:0:
36,192,84626,1,0,0:0:0:0:
182,192,84626,1,0,0:0:0:0:
475,192,84626,1,0,0:0:0:0:
256,192,84694,1,0,0:0:0:0:
109,192,84762,1,0,0:0:0:0:
329,192,84762,1,0,0:0:0:0:
402,192,84762,1,0,0:0:0:0:
36,192,84762,1,0,0:0:0:0:
256,192,84831,1,0,0:0:0:0:
109,192,84899,1,0,0:0:0:0:
475,192,84899,1,0,0:0:0:0:
402,192,84967,1,0,0:0:0:0:
329,192,85035,1,0,0:0:0:0:
36,192,85035,1,0,0:0:0:0:
182,192,85035,1,0,0:0:0:0:
475,192,85035,1,0,0:0:0:0:
256,192,85103,1,0,0:0:0:0:
109,192,85171,1,0,0:0:0:0:
36,192,85171,1,0,0:0:0:0:
402,192,85171,1,0,0:0:0:0:
182,192,85240,1,0,0:0:0:0:
256,192,85308,1,0,0:0:0:0:
475,192,85308,1,0,0:0:0:0:
402,192,85308,1,0,0:0:0:0:
36,192,85308,1,0,0:0:0:0:
182,192,85376,1,0,0:0:0:0:
329,192,85444,1,0,0:0:0:0:
109,192,85444,1,0,0:0:0:0:
256,192,85512,1,0,0:0:0:0:
182,192,85581,1,0,0:0:0:0:
402,192,85581,1,0,0:0:0:0:
475,192,85581,1,0,0:0:0:0:
36,192,85581,1,0,0:0:0:0:
329,192,85649,1,0,0:0:0:0:
475,192,85717,1,0,0:0:0:0:
109,192,85717,1,0,0:0:0:0:
256,192,85785,1,0,0:0:0:0:
402,192,85853,1,0,0:0:0:0:
329,192,85853,1,0,0:0:0:0:
182,192,85853,1,0,0:0:0:0:
36,192,85853,1,0,0:0:0:0:
475,192,85921,1,0,0:0:0:0:
109,192,85990,1,0,0:0:0:0:
256,192,85990,1,0,0:0:0:0:
402,192,85990,1,0,0:0:0:0:
182,192,86058,1,0,0:0:0:0:
36,192,86126,1,0,0:0:0:0:
329,192,86126,1,0,0:0:0:0:
475,192,86126,1,0,0:0:0:0:
402,192,86126,1,0,0:0:0:0:
109,192,86194,1,0,0:0:0:0:
256,192,86262,1,0,0:0:0:0:
182,192,86262,1,0,0:0:0:0:
475,192,86262,1,0,0:0:0:0:
402,192,86331,1,0,0:0:0:0:
329,192,86399,1,0,0:0:0:0:
109,192,86399,1,0,0:0:0:0:
182,192,86399,1,0,0:0:0:0:
36,192,86399,1,0,0:0:0:0:
475,192,86467,1,0,0:0:0:0:
109,192,86535,1,0,0:0:0:0:
256,192,86535,1,0,0:0:0:0:
402,192,86603,1,0,0:0:0:0:
182,192,86671,1,0,0:0:0:0:
329,192,86671,1,0,0:0:0:0:
475,192,86671,1,0,0:0:0:0:
36,192,86671,1,0,0:0:0:0:
256,192,86740,1,0,0:0:0:0:
109,192,86808,1,0,0:0:0:0:
402,192,86808,1,0,0:0:0:0:
182,192,86876,1,0,0:0:0:0:
36,192,86944,1,0,0:0:0:0:
109,192,86944,1,0,0:0:0:0:
475,192,86944,1,0,0:0:0:0:
256,192,86944,1,0,0:0:0:0:
402,192,87012,1,0,0:0:0:0:
182,192,87081,1,0,0:0:0:0:
329,192,87081,1,0,0:0:0:0:
256,192,87149,1,0,0:0:0:0:
182,192,87217,1,0,0:0:0:0:
36,192,87217,1,0,0:0:0:0:
109,192,87217,1,0,0:0:0:0:
475,192,87217,1,0,0:0:0:0:
402,192,87217,1,0,0:0:0:0:
329,192,87217,1,0,0:0:0:0:
109,192,87353,1,0,0:0:0:0:
329,192,87353,1,0,0:0:0:0:
402,192,87353,1,0,0:0:0:0:
182,192,87353,1,0,0:0:0:0:
109,192,87490,5,0,0:0:0:0:
36,192,87490,1,0,0:0:0:0:
256,192,87490,1,0,0:0:0:0:
475,192,87490,1,0,0:0:0:0:
402,192,87490,1,0,0:0:0:0:
182,192,87558,1,0,0:0:0:0:
329,192,87626,1,0,0:0:0:0:
109,192,87626,1,0,0:0:0:0:
256,192,87694,1,0,0:0:0:0:
182,192,87762,1,0,0:0:0:0:
36,192,87762,1,0,0:0:0:0:
475,192,87762,1,0,0:0:0:0:
402,192,87762,1,0,0:0:0:0:
329,192,87831,1,0,0:0:0:0:
402,192,87899,1,0,0:0:0:0:
109,192,87899,1,0,0:0:0:0:
256,192,87967,1,0,0:0:0:0:
475,192,88035,1,0,0:0:0:0:
36,192,88035,1,0,0:0:0:0:
329,192,88035,1,0,0:0:0:0:
182,192,88035,1,0,0:0:0:0:
402,192,88103,1,0,0:0:0:0:
109,192,88171,1,0,0:0:0:0:
256,192,88171,1,0,0:0:0:0:
475,192,88171,1,0,0:0:0:0:
329,192,88240,1,0,0:0:0:0:
182,192,88308,1,0,0:0:0:0:
475,192,88308,1,0,0:0:0:0:
36,192,88308,1,0,0:0:0:0:
402,192,88308,1,0,0:0:0:0:
109,192,88376,1,0,0:0:0:0:
402,192,88444,1,0,0:0:0:0:
256,192,88444,1,0,0:0:0:0:
36,192,88444,1,0,0:0:0:0:
182,192,88512,1,0,0:0:0:0:
329,192,88581,1,0,0:0:0:0:
109,192,88581,1,0,0:0:0:0:
475,192,88581,1,0,0:0:0:0:
36,192,88581,1,0,0:0:0:0:
256,192,88649,1,0,0:0:0:0:
402,192,88717,1,0,0:0:0:0:
109,192,88717,1,0,0:0:0:0:
475,192,88717,1,0,0:0:0:0:
329,192,88785,1,0,0:0:0:0:
256,192,88853,1,0,0:0:0:0:
475,192,88853,1,0,0:0:0:0:
182,192,88853,1,0,0:0:0:0:
36,192,88853,1,0,0:0:0:0:
402,192,88921,1,0,0:0:0:0:
36,192,88990,1,0,0:0:0:0:
256,192,88990,1,0,0:0:0:0:
109,192,88990,1,0,0:0:0:0:
182,192,89058,1,0,0:0:0:0:
36,192,89126,1,0,0:0:0:0:
475,192,89126,1,0,0:0:0:0:
402,192,89126,1,0,0:0:0:0:
329,192,89126,1,0,0:0:0:0:
256,192,89194,1,0,0:0:0:0:
402,192,89262,1,0,0:0:0:0:
109,192,89262,1,0,0:0:0:0:
329,192,89331,1,0,0:0:0:0:
475,192,89399,1,0,0:0:0:0:
256,192,89399,1,0,0:0:0:0:
182,192,89399,1,0,0:0:0:0:
36,192,89399,1,0,0:0:0:0:
402,192,89467,1,0,0:0:0:0:
109,192,89535,1,0,0:0:0:0:
36,192,89535,1,0,0:0:0:0:
329,192,89535,1,0,0:0:0:0:
182,192,89603,1,0,0:0:0:0:
256,192,89671,1,0,0:0:0:0:
475,192,89671,1,0,0:0:0:0:
402,192,89671,1,0,0:0:0:0:
36,192,89671,1,0,0:0:0:0:
329,192,89740,1,0,0:0:0:0:
182,192,89808,1,0,0:0:0:0:
402,192,89808,1,0,0:0:0:0:
109,192,89808,1,0,0:0:0:0:
256,192,89876,1,0,0:0:0:0:
329,192,89944,1,0,0:0:0:0:
36,192,89944,1,0,0:0:0:0:
182,192,89944,1,0,0:0:0:0:
475,192,89944,1,0,0:0:0:0:
402,192,90012,1,0,0:0:0:0:
329,192,90081,1,0,0:0:0:0:
109,192,90081,1,0,0:0:0:0:
256,192,90149,1,0,0:0:0:0:
36,192,90217,1,0,0:0:0:0:
475,192,90217,1,0,0:0:0:0:
182,192,90217,1,0,0:0:0:0:
402,192,90217,1,0,0:0:0:0:
329,192,90285,1,0,0:0:0:0:
402,192,90353,1,0,0:0:0:0:
109,192,90353,1,0,0:0:0:0:
182,192,90353,1,0,0:0:0:0:
256,192,90421,1,0,0:0:0:0:
475,192,90490,1,0,0:0:0:0:
36,192,90490,1,0,0:0:0:0:
109,192,90490,1,0,0:0:0:0:
402,192,90490,1,0,0:0:0:0:
329,192,90558,1,0,0:0:0:0:
402,192,90626,1,0,0:0:0:0:
109,192,90626,1,0,0:0:0:0:
256,192,90626,1,0,0:0:0:0:
182,192,90694,1,0,0:0:0:0:
402,192,90762,1,0,0:0:0:0:
475,192,90762,1,0,0:0:0:0:
36,192,90762,1,0,0:0:0:0:
256,192,90762,1,0,0:0:0:0:
109,192,90831,1,0,0:0:0:0:
329,192,90899,1,0,0:0:0:0:
182,192,90899,1,0,0:0:0:0:
475,192,90899,1,0,0:0:0:0:
402,192,90967,1,0,0:0:0:0:
109,192,91035,1,0,0:0:0:0:
475,192,91035,1,0,0:0:0:0:
256,192,91035,1,0,0:0:0:0:
36,192,91035,1,0,0:0:0:0:
182,192,91103,1,0,0:0:0:0:
402,192,91171,1,0,0:0:0:0:
329,192,91171,1,0,0:0:0:0:
109,192,91171,1,0,0:0:0:0:
256,192,91240,1,0,0:0:0:0:
36,192,91308,1,0,0:0:0:0:
475,192,91308,1,0,0:0:0:0:
182,192,91308,1,0,0:0:0:0:
329,192,91308,1,0,0:0:0:0:
109,192,91376,1,0,0:0:0:0:
402,192,91444,1,0,0:0:0:0:
182,192,91444,1,0,0:0:0:0:
329,192,91512,1,0,0:0:0:0:
36,192,91581,1,0,0:0:0:0:
475,192,91581,1,0,0:0:0:0:
256,192,91581,1,0,0:0:0:0:
109,192,91581,1,0,0:0:0:0:
402,192,91649,1,0,0:0:0:0:
109,192,91717,1,0,0:0:0:0:
182,192,91717,1,0,0:0:0:0:
329,192,91717,1,0,0:0:0:0:
402,192,91785,1,0,0:0:0:0:
475,192,91853,1,0,0:0:0:0:
36,192,91853,1,0,0:0:0:0:
182,192,91853,1,0,0:0:0:0:
256,192,91853,1,0,0:0:0:0:
109,192,91921,1,0,0:0:0:0:
402,192,91990,1,0,0:0:0:0:
256,192,91990,1,0,0:0:0:0:
182,192,92058,1,0,0:0:0:0:
36,192,92126,1,0,0:0:0:0:
109,192,92126,1,0,0:0:0:0:
329,192,92126,1,0,0:0:0:0:
475,192,92126,1,0,0:0:0:0:
256,192,92194,1,0,0:0:0:0:
402,192,92262,1,0,0:0:0:0:
182,192,92262,1,0,0:0:0:0:
329,192,92331,1,0,0:0:0:0:
36,192,92399,1,0,0:0:0:0:
475,192,92399,1,0,0:0:0:0:
402,192,92399,1,0,0:0:0:0:
109,192,92399,1,0,0:0:0:0:
256,192,92467,1,0,0:0:0:0:
182,192,92535,1,0,0:0:0:0:
109,192,92535,1,0,0:0:0:0:
329,192,92535,1,0,0:0:0:0:
402,192,92603,1,0,0:0:0:0:
109,192,92671,1,0,0:0:0:0:
475,192,92671,1,0,0:0:0:0:
256,192,92671,1,0,0:0:0:0:
36,192,92671,1,0,0:0:0:0:
329,192,92740,1,0,0:0:0:0:
402,192,92808,1,0,0:0:0:0:
36,192,92808,1,0,0:0:0:0:
182,192,92808,1,0,0:0:0:0:
109,192,92876,1,0,0:0:0:0:
402,192,92944,1,0,0:0:0:0:
36,192,92944,1,0,0:0:0:0:
475,192,92944,1,0,0:0:0:0:
329,192,92944,1,0,0:0:0:0:
256,192,92944,1,0,0:0:0:0:
182,192,93012,1,0,0:0:0:0:
109,192,93081,1,0,0:0:0:0:
475,192,93081,1,0,0:0:0:0:
329,192,93081,1,0,0:0:0:0:
402,192,93149,1,0,0:0:0:0:
36,192,93217,1,0,0:0:0:0:
475,192,93217,1,0,0:0:0:0:
109,192,93217,1,0,0:0:0:0:
256,192,93217,1,0,0:0:0:0:
329,192,93285,1,0,0:0:0:0:
475,192,93353,1,0,0:0:0:0:
182,192,93353,1,0,0:0:0:0:
36,192,93353,1,0,0:0:0:0:
256,192,93421,1,0,0:0:0:0:
402,192,93490,1,0,0:0:0:0:
36,192,93490,1,0,0:0:0:0:
109,192,93490,1,0,0:0:0:0:
329,192,93490,1,0,0:0:0:0:
182,192,93558,1,0,0:0:0:0:
475,192,93626,1,0,0:0:0:0:
109,192,93626,1,0,0:0:0:0:
329,192,93626,1,0,0:0:0:0:
256,192,93694,1,0,0:0:0:0:
182,192,93762,1,0,0:0:0:0:
475,192,93762,1,0,0:0:0:0:
402,192,93762,1,0,0:0:0:0:
36,192,93762,1,0,0:0:0:0:
329,192,93831,1,0,0:0:0:0:
402,192,93899,1,0,0:0:0:0:
256,192,93899,1,0,0:0:0:0:
36,192,93899,1,0,0:0:0:0:
109,192,93967,1,0,0:0:0:0:
329,192,94035,1,0,0:0:0:0:
36,192,94035,1,0,0:0:0:0:
182,192,94035,1,0,0:0:0:0:
475,192,94035,1,0,0:0:0:0:
256,192,94103,1,0,0:0:0:0:
109,192,94171,1,0,0:0:0:0:
402,192,94171,1,0,0:0:0:0:
329,192,94240,1,0,0:0:0:0:
475,192,94308,1,0,0:0:0:0:
36,192,94308,1,0,0:0:0:0:
109,192,94308,1,0,0:0:0:0:
256,192,94308,1,0,0:0:0:0:
329,192,94376,1,0,0:0:0:0:
182,192,94444,1,0,0:0:0:0:
402,192,94444,1,0,0:0:0:0:
256,192,94512,1,0,0:0:0:0:
109,192,94581,1,0,0:0:0:0:
36,192,94581,1,0,0:0:0:0:
475,192,94581,1,0,0:0:0:0:
329,192,94581,1,0,0:0:0:0:
402,192,94649,1,0,0:0:0:0:
475,192,94717,1,0,0:0:0:0:
256,192,94717,1,0,0:0:0:0:
109,192,94717,1,0,0:0:0:0:
182,192,94785,1,0,0:0:0:0:
475,192,94853,1,0,0:0:0:0:
402,192,94853,1,0,0:0:0:0:
36,192,94853,1,0,0:0:0:0:
256,192,94853,1,0,0:0:0:0:
329,192,94921,1,0,0:0:0:0:
36,192,94990,1,0,0:0:0:0:
182,192,94990,1,0,0:0:0:0:
402,192,94990,1,0,0:0:0:0:
109,192,95058,1,0,0:0:0:0:
402,192,95126,1,0,0:0:0:0:
36,192,95126,1,0,0:0:0:0:
475,192,95126,1,0,0:0:0:0:
256,192,95126,1,0,0:0:0:0:
329,192,95194,1,0,0:0:0:0:
402,192,95262,1,0,0:0:0:0:
109,192,95262,1,0,0:0:0:0:
256,192,95331,1,0,0:0:0:0:
475,192,95399,1,0,0:0:0:0:
36,192,95399,1,0,0:0:0:0:
182,192,95399,1,0,0:0:0:0:
329,192,95399,1,0,0:0:0:0:
402,192,95467,1,0,0:0:0:0:
256,192,95535,1,0,0:0:0:0:
109,192,95535,1,0,0:0:0:0:
182,192,95603,1,0,0:0:0:0:
475,192,95671,1,0,0:0:0:0:
329,192,95671,1,0,0:0:0:0:
36,192,95671,1,0,0:0:0:0:
109,192,95671,1,0,0:0:0:0:
256,192,95740,1,0,0:0:0:0:
402,192,95808,1,0,0:0:0:0:
182,192,95808,1,0,0:0:0:0:
329,192,95876,1,0,0:0:0:0:
36,192,95944,1,0,0:0:0:0:
402,192,95944,1,0,0:0:0:0:
109,192,95944,1,0,0:0:0:0:
256,192,95944,1,0,0:0:0:0:
475,192,95944,1,0,0:0:0:0:
36,192,96081,1,0,0:0:0:0:
256,192,96081,1,0,0:0:0:0:
475,192,96081,1,0,0:0:0:0:
109,192,96081,1,0,0:0:0:0:
402,192,96081,1,0,0:0:0:0:
329,192,96217,1,0,0:0:0:0:
475,192,96217,1,0,0:0:0:0:
182,192,96217,128,0,96353:0:0:0:0:
36,192,96217,128,0,96353:0:0:0:0:
402,192,96490,128,0,96626:0:0:0:0:
109,192,96490,128,0,96626:0:0:0:0:
182,192,96762,128,0,96899:0:0:0:0:
475,192,96762,128,0,96899:0:0:0:0:
36,192,96899,128,0,97035:0:0:0:0:
329,192,96899,128,0,97035:0:0:0:0:
109,192,97171,128,0,97717:0:0:0:0:
402,192,97171,128,0,97717:0:0:0:0:
36,192,97853,128,0,97990:0:0:0:0:
329,192,97853,128,0,97990:0:0:0:0:
182,192,97990,128,0,98126:0:0:0:0:
402,192,97990,128,0,98126:0:0:0:0:
256,192,98126,1,0,0:0:0:0:
109,192,98126,1,0,0:0:0:0:
329,192,98262,128,0,98399:0:0:0:0:
182,192,98262,128,0,98399:0:0:0:0:
475,192,98399,1,0,0:0:0:0:
36,192,98399,1,0,0:0:0:0:
256,192,98399,1,0,0:0:0:0:
402,192,98399,1,0,0:0:0:0:
329,192,98467,1,0,0:0:0:0:
109,192,98467,1,0,0:0:0:0:
402,192,98535,1,0,0:0:0:0:
182,192,98535,1,0,0:0:0:0:
256,192,98603,1,0,0:0:0:0:
475,192,98603,1,0,0:0:0:0:
182,192,98671,1,0,0:0:0:0:
329,192,98671,1,0,0:0:0:0:
402,192,98671,1,0,0:0:0:0:
36,192,98671,1,0,0:0:0:0:
402,192,98808,1,0,0:0:0:0:
36,192,98808,1,0,0:0:0:0:
109,192,98808,1,0,0:0:0:0:
256,192,98808,1,0,0:0:0:0:
36,192,98944,1,0,0:0:0:0:
256,192,98944,1,0,0:0:0:0:
475,192,98944,1,0,0:0:0:0:
402,192,99012,1,0,0:0:0:0:
182,192,99012,1,0,0:0:0:0:
329,192,99081,1,0,0:0:0:0:
109,192,99081,1,0,0:0:0:0:
256,192,99149,1,0,0:0:0:0:
475,192,99149,1,0,0:0:0:0:
402,192,99217,1,0,0:0:0:0:
329,192,99217,1,0,0:0:0:0:
36,192,99217,1,0,0:0:0:0:
182,192,99217,1,0,0:0:0:0:
182,192,99353,1,0,0:0:0:0:
109,192,99353,1,0,0:0:0:0:
329,192,99353,1,0,0:0:0:0:
475,192,99353,1,0,0:0:0:0:
36,192,99490,1,0,0:0:0:0:
256,192,99490,1,0,0:0:0:0:
402,192,99490,1,0,0:0:0:0:
475,192,99490,1,0,0:0:0:0:
109,192,99490,1,0,0:0:0:0:
182,192,99626,1,0,0:0:0:0:
329,192,99626,1,0,0:0:0:0:
36,192,99626,1,0,0:0:0:0:
402,192,99626,1,0,0:0:0:0:
256,192,99762,1,0,0:0:0:0:
329,192,99762,1,0,0:0:0:0:
109,192,99762,1,0,0:0:0:0:
475,192,99762,1,0,0:0:0:0:
475,192,99899,1,0,0:0:0:0:
36,192,99899,1,0,0:0:0:0:
182,192,99899,1,0,0:0:0:0:
402,192,99899,1,0,0:0:0:0:
109,192,100035,1,0,0:0:0:0:
256,192,100035,1,0,0:0:0:0:
182,192,100171,1,0,0:0:0:0:
329,192,100171,1,0,0:0:0:0:
475,192,100171,1,0,0:0:0:0:
402,192,100171,1,0,0:0:0:0:
36,192,100308,1,0,0:0:0:0:
256,192,100308,1,0,0:0:0:0:
402,192,100308,1,0,0:0:0:0:
109,192,100308,1,0,0:0:0:0:
182,192,100444,1,0,0:0:0:0:
36,192,100444,1,0,0:0:0:0:
329,192,100444,1,0,0:0:0:0:
475,192,100444,1,0,0:0:0:0:
109,192,100581,1,0,0:0:0:0:
36,192,100581,1,0,0:0:0:0:
256,192,100581,1,0,0:0:0:0:
475,192,100581,1,0,0:0:0:0:
402,192,100649,1,0,0:0:0:0:
182,192,100649,1,0,0:0:0:0:
329,192,100717,1,0,0:0:0:0:
109,192,100717,1,0,0:0:0:0:
256,192,100785,1,0,0:0:0:0:
36,192,100785,1,0,0:0:0:0:
182,192,100853,1,0,0:0:0:0:
329,192,100853,1,0,0:0:0:0:
475,192,100853,1,0,0:0:0:0:
109,192,100853,1,0,0:0:0:0:
36,192,100990,1,0,0:0:0:0:
182,192,100990,1,0,0:0:0:0:
329,192,100990,1,0,0:0:0:0:
402,192,100990,1,0,0:0:0:0:
256,192,101126,1,0,0:0:0:0:
402,192,101126,1,0,0:0:0:0:
36,192,101126,1,0,0:0:0:0:
329,192,101194,1,0,0:0:0:0:
109,192,101194,1,0,0:0:0:0:
182,192,101262,1,0,0:0:0:0:
475,192,101262,1,0,0:0:0:0:
402,192,101331,1,0,0:0:0:0:
256,192,101331,1,0,0:0:0:0:
109,192,101399,1,0,0:0:0:0:
329,192,101399,1,0,0:0:0:0:
402,192,101467,1,0,0:0:0:0:
182,192,101467,1,0,0:0:0:0:
36,192,101535,1,0,0:0:0:0:
256,192,101535,1,0,0:0:0:0:
109,192,101603,1,0,0:0:0:0:
329,192,101603,1,0,0:0:0:0:
475,192,101671,1,0,0:0:0:0:
182,192,101671,1,0,0:0:0:0:
36,192,101671,1,0,0:0:0:0:
402,192,101671,1,0,0:0:0:0:
182,192,101808,1,0,0:0:0:0:
256,192,101944,1,0,0:0:0:0:
402,192,101944,1,0,0:0:0:0:
475,192,101944,1,0,0:0:0:0:
109,192,101944,1,0,0:0:0:0:
36,192,101944,1,0,0:0:0:0:
329,192,101944,1,0,0:0:0:0:
402,192,102081,1,0,0:0:0:0:
256,192,102217,1,0,0:0:0:0:
182,192,102217,1,0,0:0:0:0:
36,192,102217,1,0,0:0:0:0:
329,192,102217,1,0,0:0:0:0:
475,192,102217,1,0,0:0:0:0:
109,192,102217,1,0,0:0:0:0:
182,192,102353,1,0,0:0:0:0:
402,192,102490,1,0,0:0:0:0:
329,192,102490,1,0,0:0:0:0:
36,192,102490,1,0,0:0:0:0:
109,192,102490,1,0,0:0:0:0:
256,192,102490,1,0,0:0:0:0:
475,192,102490,1,0,0:0:0:0:
329,192,102626,1,0,0:0:0:0:
36,192,102762,1,0,0:0:0:0:
109,192,102762,1,0,0:0:0:0:
475,192,102762,1,0,0:0:0:0:
256,192,102762,1,0,0:0:0:0:
402,192,102831,1,0,0:0:0:0:
182,192,102831,1,0,0:0:0:0:
329,192,102899,1,0,0:0:0:0:
36,192,102899,1,0,0:0:0:0:
256,192,102967,1,0,0:0:0:0:
109,192,102967,1,0,0:0:0:0:
36,192,103035,1,0,0:0:0:0:
182,192,103035,1,0,0:0:0:0:
402,192,103035,1,0,0:0:0:0:
475,192,103035,1,0,0:0:0:0:
329,192,103103,1,0,0:0:0:0:
256,192,103171,1,0,0:0:0:0:
402,192,103171,1,0,0:0:0:0:
109,192,103171,1,0,0:0:0:0:
475,192,103171,1,0,0:0:0:0:
182,192,103240,1,0,0:0:0:0:
256,192,103308,1,0,0:0:0:0:
402,192,103308,1,0,0:0:0:0:
36,192,103308,1,0,0:0:0:0:
475,192,103308,1,0,0:0:0:0:
329,192,103376,1,0,0:0:0:0:
109,192,103376,1,0,0:0:0:0:
182,192,103444,1,0,0:0:0:0:
402,192,103444,1,0,0:0:0:0:
256,192,103512,1,0,0:0:0:0:
475,192,103512,1,0,0:0:0:0:
329,192,103581,1,0,0:0:0:0:
402,192,103581,1,0,0:0:0:0:
109,192,103581,1,0,0:0:0:0:
36,192,103581,1,0,0:0:0:0:
182,192,103649,1,0,0:0:0:0:
475,192,103717,1,0,0:0:0:0:
256,192,103717,1,0,0:0:0:0:
402,192,103717,1,0,0:0:0:0:
109,192,103717,1,0,0:0:0:0:
329,192,103785,1,0,0:0:0:0:
256,192,103853,1,0,0:0:0:0:
36,192,103853,1,0,0:0:0:0:
475,192,103853,1,0,0:0:0:0:
402,192,103853,1,0,0:0:0:0:
109,192,103921,1,0,0:0:0:0:
182,192,103990,1,0,0:0:0:0:
36,192,103990,1,0,0:0:0:0:
475,192,103990,1,0,0:0:0:0:
329,192,103990,1,0,0:0:0:0:
256,192,104058,1,0,0:0:0:0:
109,192,104126,1,0,0:0:0:0:
182,192,104126,1,0,0:0:0:0:
402,192,104126,1,0,0:0:0:0:
475,192,104126,1,0,0:0:0:0:
329,192,104194,1,0,0:0:0:0:
256,192,104262,1,0,0:0:0:0:
109,192,104262,1,0,0:0:0:0:
36,192,104262,1,0,0:0:0:0:
475,192,104262,1,0,0:0:0:0:
402,192,104331,1,0,0:0:0:0:
182,192,104399,1,0,0:0:0:0:
329,192,104399,1,0,0:0:0:0:
36,192,104467,1,0,0:0:0:0:
109,192,104535,1,0,0:0:0:0:
256,192,104535,1,0,0:0:0:0:
402,192,104535,1,0,0:0:0:0:
475,192,104535,1,0,0:0:0:0:
329,192,104603,1,0,0:0:0:0:
256,192,104671,1,0,0:0:0:0:
36,192,104671,1,0,0:0:0:0:
109,192,104671,1,0,0:0:0:0:
475,192,104671,1,0,0:0:0:0:
402,192,104740,1,0,0:0:0:0:
475,192,104808,1,0,0:0:0:0:
182,192,104808,1,0,0:0:0:0:
36,192,104808,1,0,0:0:0:0:
329,192,104808,1,0,0:0:0:0:
256,192,104876,1,0,0:0:0:0:
109,192,104944,1,0,0:0:0:0:
36,192,104944,1,0,0:0:0:0:
402,192,104944,1,0,0:0:0:0:
475,192,104944,1,0,0:0:0:0:
182,192,105012,1,0,0:0:0:0:
256,192,105081,1,0,0:0:0:0:
402,192,105081,1,0,0:0:0:0:
36,192,105081,1,0,0:0:0:0:
329,192,105149,1,0,0:0:0:0:
109,192,105217,1,0,0:0:0:0:
182,192,105217,1,0,0:0:0:0:
402,192,105217,1,0,0:0:0:0:
475,192,105217,1,0,0:0:0:0:
36,192,105285,1,0,0:0:0:0:
256,192,105353,1,0,0:0:0:0:
475,192,105353,1,0,0:0:0:0:
329,192,105353,1,0,0:0:0:0:
182,192,105421,1,0,0:0:0:0:
109,192,105490,1,0,0:0:0:0:
402,192,105490,1,0,0:0:0:0:
475,192,105490,1,0,0:0:0:0:
36,192,105490,1,0,0:0:0:0:
256,192,105558,1,0,0:0:0:0:
402,192,105626,1,0,0:0:0:0:
109,192,105626,1,0,0:0:0:0:
329,192,105626,1,0,0:0:0:0:
475,192,105626,1,0,0:0:0:0:
182,192,105694,1,0,0:0:0:0:
256,192,105762,1,0,0:0:0:0:
475,192,105762,1,0,0:0:0:0:
36,192,105762,1,0,0:0:0:0:
109,192,105762,1,0,0:0:0:0:
402,192,105831,1,0,0:0:0:0:
329,192,105899,1,0,0:0:0:0:
182,192,105899,1,0,0:0:0:0:
36,192,105899,1,0,0:0:0:0:
475,192,105899,1,0,0:0:0:0:
256,192,105967,1,0,0:0:0:0:
182,192,106035,1,0,0:0:0:0:
109,192,106035,1,0,0:0:0:0:
402,192,106035,1,0,0:0:0:0:
329,192,106103,1,0,0:0:0:0:
256,192,106171,1,0,0:0:0:0:
36,192,106171,1,0,0:0:0:0:
402,192,106171,1,0,0:0:0:0:
475,192,106171,1,0,0:0:0:0:
109,192,106240,1,0,0:0:0:0:
182,192,106308,1,0,0:0:0:0:
329,192,106308,1,0,0:0:0:0:
402,192,106308,1,0,0:0:0:0:
36,192,106308,1,0,0:0:0:0:
256,192,106376,1,0,0:0:0:0:
182,192,106444,1,0,0:0:0:0:
109,192,106444,1,0,0:0:0:0:
402,192,106444,1,0,0:0:0:0:
475,192,106444,1,0,0:0:0:0:
329,192,106512,1,0,0:0:0:0:
402,192,106581,1,0,0:0:0:0:
36,192,106581,1,0,0:0:0:0:
109,192,106581,1,0,0:0:0:0:
475,192,106581,1,0,0:0:0:0:
256,192,106581,1,0,0:0:0:0:
182,192,106581,1,0,0:0:0:0:
256,192,106853,128,0,106944:0:0:0:0:
36,192,106853,128,0,106921:0:0:0:0:
402,192,106899,128,0,106990:0:0:0:0:
109,192,106921,128,0,106990:0:0:0:0:
329,192,106944,128,0,107035:0:0:0:0:
182,192,106990,128,0,107058:0:0:0:0:
475,192,106990,128,0,107081:0:0:0:0:
256,192,107126,1,0,0:0:0:0:
109,192,107126,1,0,0:0:0:0:
402,192,107126,1,0,0:0:0:0:
36,192,107126,128,0,107535:0:0:0:0:
329,192,107262,1,0,0:0:0:0:
475,192,107399,1,0,0:0:0:0:
256,192,107399,1,0,0:0:0:0:
109,192,107399,1,0,0:0:0:0:
182,192,107535,1,0,0:0:0:0:
402,192,107535,128,0,107944:0:0:0:0:
329,192,107671,1,0,0:0:0:0:
36,192,107671,1,0,0:0:0:0:
475,192,107671,1,0,0:0:0:0:
182,192,107808,1,0,0:0:0:0:
256,192,107944,1,0,0:0:0:0:
109,192,107944,1,0,0:0:0:0:
475,192,107944,1,0,0:0:0:0:
329,192,108081,1,0,0:0:0:0:
36,192,108217,128,0,108353:0:0:0:0:
256,192,108217,1,0,0:0:0:0:
475,192,108217,1,0,0:0:0:0:
109,192,108217,1,0,0:0:0:0:
182,192,108353,128,0,108490:0:0:0:0:
402,192,108353,1,0,0:0:0:0:
36,192,108490,1,0,0:0:0:0:
256,192,108490,1,0,0:0:0:0:
475,192,108490,1,0,0:0:0:0:
329,192,108626,128,0,109035:0:0:0:0:
109,192,108626,1,0,0:0:0:0:
182,192,108762,1,0,0:0:0:0:
36,192,108762,1,0,0:0:0:0:
402,192,108762,1,0,0:0:0:0:
475,192,108899,1,0,0:0:0:0:
109,192,109035,128,0,109171:0:0:0:0:
402,192,109035,1,0,0:0:0:0:
256,192,109035,1,0,0:0:0:0:
36,192,109035,1,0,0:0:0:0:
182,192,109171,1,0,0:0:0:0:
402,192,109308,128,0,109444:0:0:0:0:
256,192,109308,1,0,0:0:0:0:
109,192,109308,1,0,0:0:0:0:
475,192,109308,1,0,0:0:0:0:
329,192,109444,1,0,0:0:0:0:
182,192,109581,128,0,109717:0:0:0:0:
36,192,109581,1,0,0:0:0:0:
256,192,109581,1,0,0:0:0:0:
475,192,109581,1,0,0:0:0:0:
329,192,109717,1,0,0:0:0:0:
475,192,109853,128,0,110126:0:0:0:0:
109,192,109853,1,0,0:0:0:0:
256,192,109853,1,0,0:0:0:0:
402,192,109853,1,0,0:0:0:0:
182,192,109990,1,0,0:0:0:0:
36,192,110126,128,0,110262:0:0:0:0:
256,192,110126,1,0,0:0:0:0:
402,192,110126,1,0,0:0:0:0:
109,192,110126,1,0,0:0:0:0:
329,192,110262,1,0,0:0:0:0:
402,192,110399,128,0,110671:0:0:0:0:
182,192,110399,1,0,0:0:0:0:
36,192,110399,1,0,0:0:0:0:
475,192,110399,1,0,0:0:0:0:
329,192,110535,1,0,0:0:0:0:
109,192,110671,128,0,110808:0:0:0:0:
256,192,110671,1,0,0:0:0:0:
475,192,110671,1,0,0:0:0:0:
36,192,110671,1,0,0:0:0:0:
182,192,110808,128,0,110944:0:0:0:0:
402,192,110808,1,0,0:0:0:0:
329,192,110944,1,0,0:0:0:0:
36,192,110944,1,0,0:0:0:0:
475,192,110944,1,0,0:0:0:0:
402,192,111081,128,0,111217:0:0:0:0:
182,192,111081,1,0,0:0:0:0:
256,192,111217,128,0,111353:0:0:0:0:
109,192,111217,1,0,0:0:0:0:
329,192,111217,1,0,0:0:0:0:
475,192,111217,1,0,0:0:0:0:
182,192,111353,1,0,0:0:0:0:
329,192,111490,128,0,111626:0:0:0:0:
36,192,111490,1,0,0:0:0:0:
256,192,111490,1,0,0:0:0:0:
475,192,111490,1,0,0:0:0:0:
182,192,111626,1,0,0:0:0:0:
109,192,111762,128,0,111899:0:0:0:0:
256,192,111762,1,0,0:0:0:0:
402,192,111762,1,0,0:0:0:0:
475,192,111762,1,0,0:0:0:0:
329,192,111899,1,0,0:0:0:0:
256,192,112035,128,0,112171:0:0:0:0:
182,192,112035,1,0,0:0:0:0:
475,192,112035,1,0,0:0:0:0:
36,192,112035,1,0,0:0:0:0:
402,192,112171,1,0,0:0:0:0:
256,192,112308,128,0,112444:0:0:0:0:
109,192,112308,1,0,0:0:0:0:
475,192,112308,1,0,0:0:0:0:
329,192,112308,1,0,0:0:0:0:
182,192,112444,1,0,0:0:0:0:
475,192,112581,128,0,112717:0:0:0:0:
256,192,112581,1,0,0:0:0:0:
36,192,112581,1,0,0:0:0:0:
402,192,112581,1,0,0:0:0:0:
182,192,112717,128,0,112853:0:0:0:0:
329,192,112717,1,0,0:0:0:0:
36,192,112853,1,0,0:0:0:0:
256,192,112853,1,0,0:0:0:0:
402,192,112853,1,0,0:0:0:0:
329,192,112990,128,0,113262:0:0:0:0:
109,192,112990,1,0,0:0:0:0:
36,192,113126,1,0,0:0:0:0:
182,192,113126,1,0,0:0:0:0:
475,192,113126,1,0,0:0:0:0:
256,192,113262,1,0,0:0:0:0:
109,192,113399,128,0,113535:0:0:0:0:
329,192,113399,1,0,0:0:0:0:
475,192,113399,1,0,0:0:0:0:
182,192,113399,1,0,0:0:0:0:
256,192,113535,128,0,113671:0:0:0:0:
36,192,113535,1,0,0:0:0:0:
402,192,113671,128,0,113808:0:0:0:0:
109,192,113671,1,0,0:0:0:0:
329,192,113671,1,0,0:0:0:0:
475,192,113671,1,0,0:0:0:0:
256,192,113808,1,0,0:0:0:0:
182,192,113944,128,0,114081:0:0:0:0:
329,192,113944,1,0,0:0:0:0:
36,192,113944,1,0,0:0:0:0:
475,192,113944,1,0,0:0:0:0:
109,192,114081,1,0,0:0:0:0:
475,192,114217,128,0,114353:0:0:0:0:
256,192,114217,1,0,0:0:0:0:
402,192,114217,1,0,0:0:0:0:
36,192,114217,1,0,0:0:0:0:
182,192,114353,1,0,0:0:0:0:
109,192,114490,128,0,114626:0:0:0:0:
36,192,114490,1,0,0:0:0:0:
329,192,114490,1,0,0:0:0:0:
475,192,114490,1,0,0:0:0:0:
256,192,114626,1,0,0:0:0:0:
329,192,114762,1,0,0:0:0:0:
475,192,114762,1,0,0:0:0:0:
182,192,114762,1,0,0:0:0:0:
36,192,114762,1,0,0:0:0:0:
402,192,114762,1,0,0:0:0:0:
109,192,114762,1,0,0:0:0:0:
256,192,114899,1,0,0:0:0:0:
402,192,114899,1,0,0:0:0:0:
475,192,114899,1,0,0:0:0:0:
109,192,114899,1,0,0:0:0:0:
36,192,114899,1,0,0:0:0:0:
109,192,115171,1,0,0:0:0:0:
182,192,115171,1,0,0:0:0:0:
329,192,115171,1,0,0:0:0:0:
402,192,115171,1,0,0:0:0:0:
475,192,115171,1,0,0:0:0:0:
109,192,115444,1,0,0:0:0:0:
36,192,115444,1,0,0:0:0:0:
329,192,115444,1,0,0:0:0:0:
256,192,115444,1,0,0:0:0:0:
475,192,115444,1,0,0:0:0:0:
182,192,115581,1,0,0:0:0:0:
402,192,115581,1,0,0:0:0:0:
256,192,115853,1,0,0:0:0:0:
475,192,115853,1,0,0:0:0:0:
402,192,115853,128,0,116262:0:0:0:0:
109,192,115853,1,0,0:0:0:0:
36,192,115853,1,0,0:0:0:0:
182,192,115990,1,0,0:0:0:0:
329,192,115990,1,0,0:0:0:0:
36,192,116126,1,0,0:0:0:0:
256,192,116126,1,0,0:0:0:0:
475,192,116126,1,0,0:0:0:0:
329,192,116262,1,0,0:0:0:0:
182,192,116262,128,0,116671:0:0:0:0:
109,192,116262,1,0,0:0:0:0:
256,192,116399,1,0,0:0:0:0:
475,192,116399,1,0,0:0:0:0:
36,192,116399,1,0,0:0:0:0:
402,192,116535,1,0,0:0:0:0:
329,192,116535,1,0,0:0:0:0:
475,192,116671,1,0,0:0:0:0:
256,192,116671,1,0,0:0:0:0:
36,192,116671,1,0,0:0:0:0:
109,192,116808,1,0,0:0:0:0:
329,192,116808,1,0,0:0:0:0:
475,192,116944,128,0,117081:0:0:0:0:
182,192,116944,1,0,0:0:0:0:
36,192,116944,1,0,0:0:0:0:
402,192,116944,1,0,0:0:0:0:
256,192,117081,128,0,117217:0:0:0:0:
109,192,117081,1,0,0:0:0:0:
329,192,117081,1,0,0:0:0:0:
475,192,117217,1,0,0:0:0:0:
402,192,117217,1,0,0:0:0:0:
36,192,117217,1,0,0:0:0:0:
329,192,117353,128,0,117762:0:0:0:0:
256,192,117353,1,0,0:0:0:0:
109,192,117353,1,0,0:0:0:0:
182,192,117490,1,0,0:0:0:0:
475,192,117490,1,0,0:0:0:0:
36,192,117490,1,0,0:0:0:0:
256,192,117626,1,0,0:0:0:0:
402,192,117626,1,0,0:0:0:0:
182,192,117762,128,0,117899:0:0:0:0:
109,192,117762,1,0,0:0:0:0:
475,192,117762,1,0,0:0:0:0:
36,192,117762,1,0,0:0:0:0:
402,192,117899,1,0,0:0:0:0:
256,192,117899,1,0,0:0:0:0:
36,192,118035,128,0,118171:0:0:0:0:
329,192,118035,1,0,0:0:0:0:
475,192,118035,1,0,0:0:0:0:
182,192,118035,1,0,0:0:0:0:
109,192,118171,1,0,0:0:0:0:
256,192,118171,1,0,0:0:0:0:
402,192,118308,128,0,118444:0:0:0:0:
329,192,118308,1,0,0:0:0:0:
182,192,118308,1,0,0:0:0:0:
36,192,118308,1,0,0:0:0:0:
256,192,118444,1,0,0:0:0:0:
475,192,118444,1,0,0:0:0:0:
182,192,118581,128,0,118853:0:0:0:0:
402,192,118581,1,0,0:0:0:0:
36,192,118581,1,0,0:0:0:0:
109,192,118581,1,0,0:0:0:0:
329,192,118717,1,0,0:0:0:0:
256,192,118717,1,0,0:0:0:0:
36,192,118853,128,0,118990:0:0:0:0:
475,192,118853,1,0,0:0:0:0:
109,192,118853,1,0,0:0:0:0:
402,192,118853,1,0,0:0:0:0:
182,192,118990,1,0,0:0:0:0:
329,192,118990,1,0,0:0:0:0:
256,192,119126,128,0,119399:0:0:0:0:
402,192,119126,1,0,0:0:0:0:
475,192,119126,1,0,0:0:0:0:
36,192,119126,1,0,0:0:0:0:
109,192,119262,1,0,0:0:0:0:
329,192,119262,1,0,0:0:0:0:
182,192,119399,128,0,119535:0:0:0:0:
475,192,119399,1,0,0:0:0:0:
402,192,119399,1,0,0:0:0:0:
36,192,119399,1,0,0:0:0:0:
329,192,119535,128,0,119671:0:0:0:0:
109,192,119535,1,0,0:0:0:0:
256,192,119535,1,0,0:0:0:0:
475,192,119671,1,0,0:0:0:0:
182,192,119671,1,0,0:0:0:0:
402,192,119671,1,0,0:0:0:0:
109,192,119808,128,0,119944:0:0:0:0:
256,192,119808,1,0,0:0:0:0:
36,192,119808,1,0,0:0:0:0:
329,192,119944,128,0,120081:0:0:0:0:
402,192,119944,1,0,0:0:0:0:
182,192,119944,1,0,0:0:0:0:
475,192,119944,1,0,0:0:0:0:
256,192,120081,1,0,0:0:0:0:
109,192,120081,1,0,0:0:0:0:
36,192,120217,128,0,120353:0:0:0:0:
475,192,120217,1,0,0:0:0:0:
329,192,120217,1,0,0:0:0:0:
182,192,120217,1,0,0:0:0:0:
256,192,120353,1,0,0:0:0:0:
402,192,120353,1,0,0:0:0:0:
475,192,120490,128,0,120626:0:0:0:0:
329,192,120490,1,0,0:0:0:0:
182,192,120490,1,0,0:0:0:0:
36,192,120490,1,0,0:0:0:0:
109,192,120626,1,0,0:0:0:0:
256,192,120626,1,0,0:0:0:0:
182,192,120762,128,0,120899:0:0:0:0:
402,192,120762,1,0,0:0:0:0:
36,192,120762,1,0,0:0:0:0:
475,192,120762,1,0,0:0:0:0:
109,192,120899,1,0,0:0:0:0:
329,192,120899,1,0,0:0:0:0:
256,192,121035,128,0,121171:0:0:0:0:
402,192,121035,1,0,0:0:0:0:
36,192,121035,1,0,0:0:0:0:
182,192,121035,1,0,0:0:0:0:
329,192,121171,1,0,0:0:0:0:
475,192,121171,1,0,0:0:0:0:
109,192,121308,128,0,121444:0:0:0:0:
256,192,121308,1,0,0:0:0:0:
402,192,121308,1,0,0:0:0:0:
36,192,121308,1,0,0:0:0:0:
329,192,121444,128,0,121581:0:0:0:0:
182,192,121444,1,0,0:0:0:0:
475,192,121444,1,0,0:0:0:0:
402,192,121581,1,0,0:0:0:0:
36,192,121581,1,0,0:0:0:0:
109,192,121581,1,0,0:0:0:0:
256,192,121717,128,0,121990:0:0:0:0:
329,192,121717,1,0,0:0:0:0:
182,192,121717,1,0,0:0:0:0:
475,192,121853,1,0,0:0:0:0:
402,192,121853,1,0,0:0:0:0:
109,192,121853,1,0,0:0:0:0:
182,192,121990,1,0,0:0:0:0:
36,192,121990,1,0,0:0:0:0:
402,192,122126,128,0,122262:0:0:0:0:
256,192,122126,1,0,0:0:0:0:
109,192,122126,1,0,0:0:0:0:
475,192,122126,1,0,0:0:0:0:
182,192,122262,128,0,122399:0:0:0:0:
329,192,122262,1,0,0:0:0:0:
36,192,122262,1,0,0:0:0:0:
256,192,122399,128,0,122535:0:0:0:0:
475,192,122399,1,0,0:0:0:0:
109,192,122399,1,0,0:0:0:0:
402,192,122399,1,0,0:0:0:0:
182,192,122535,1,0,0:0:0:0:
329,192,122535,1,0,0:0:0:0:
109,192,122671,128,0,122808:0:0:0:0:
256,192,122671,1,0,0:0:0:0:
475,192,122671,1,0,0:0:0:0:
402,192,122671,1,0,0:0:0:0:
329,192,122808,1,0,0:0:0:0:
36,192,122808,1,0,0:0:0:0:
182,192,122944,128,0,123081:0:0:0:0:
256,192,122944,1,0,0:0:0:0:
109,192,122944,1,0,0:0:0:0:
475,192,122944,1,0,0:0:0:0:
402,192,122944,1,0,0:0:0:0:
36,192,123081,1,0,0:0:0:0:
329,192,123081,128,0,123353:0:0:0:0:
402,192,123081,1,0,0:0:0:0:
475,192,123081,1,0,0:0:0:0:
182,192,123217,1,0,0:0:0:0:
109,192,123217,1,0,0:0:0:0:
256,192,123353,1,0,0:0:0:0:
402,192,123353,1,0,0:0:0:0:
109,192,123353,1,0,0:0:0:0:
36,192,123353,1,0,0:0:0:0:
475,192,123353,128,0,124035:0:0:0:0:
256,192,123626,1,0,0:0:0:0:
109,192,123626,1,0,0:0:0:0:
36,192,123626,1,0,0:0:0:0:
402,192,123626,1,0,0:0:0:0:
109,192,123899,1,0,0:0:0:0:
182,192,123899,1,0,0:0:0:0:
329,192,123899,1,0,0:0:0:0:
402,192,123899,1,0,0:0:0:0:
36,192,123899,1,0,0:0:0:0:
402,192,124035,1,0,0:0:0:0:
329,192,124035,1,0,0:0:0:0:
182,192,124035,1,0,0:0:0:0:
109,192,124035,1,0,0:0:0:0:
36,192,124035,1,0,0:0:0:0:
109,192,124308,128,0,124376:0:0:0:0:
402,192,124308,128,0,124376:0:0:0:0:
329,192,124444,128,0,124512:0:0:0:0:
182,192,124444,128,0,124512:0:0:0:0:
402,192,124581,128,0,124990:0:0:0:0:
109,192,124581,1,0,0:0:0:0:
36,192,124581,1,0,0:0:0:0:
256,192,124581,128,0,124990:0:0:0:0:
475,192,124581,1,0,0:0:0:0:
36,192,125126,128,0,125399:0:0:0:0:
182,192,125126,128,0,125399:0:0:0:0:
402,192,125262,1,0,0:0:0:0:
475,192,125262,1,0,0:0:0:0:
109,192,125535,128,0,125671:0:0:0:0:
256,192,125535,128,0,125671:0:0:0:0:
402,192,125671,1,0,0:0:0:0:
475,192,125671,1,0,0:0:0:0:
329,192,125808,128,0,125944:0:0:0:0:
182,192,125808,128,0,125944:0:0:0:0:
256,192,126081,128,0,126217:0:0:0:0:
402,192,126081,128,0,126217:0:0:0:0:
36,192,126217,128,0,126353:0:0:0:0:
109,192,126217,128,0,126353:0:0:0:0:
402,192,126353,1,0,0:0:0:0:
475,192,126353,1,0,0:0:0:0:
329,192,126490,1,0,0:0:0:0:
402,192,126490,1,0,0:0:0:0:
475,192,126490,1,0,0:0:0:0:
36,192,126490,1,0,0:0:0:0:
182,192,126490,1,0,0:0:0:0:
109,192,126626,1,0,0:0:0:0:
256,192,126762,128,0,127171:0:0:0:0:
109,192,126762,128,0,127171:0:0:0:0:
402,192,126762,1,0,0:0:0:0:
475,192,126762,1,0,0:0:0:0:
402,192,127035,1,0,0:0:0:0:
329,192,127035,1,0,0:0:0:0:
475,192,127035,1,0,0:0:0:0:
329,192,127308,128,0,127581:0:0:0:0:
475,192,127308,128,0,127581:0:0:0:0:
36,192,127444,1,0,0:0:0:0:
182,192,127444,1,0,0:0:0:0:
182,192,127581,1,0,0:0:0:0:
109,192,127581,1,0,0:0:0:0:
36,192,127581,1,0,0:0:0:0:
402,192,127717,128,0,127853:0:0:0:0:
475,192,127717,128,0,127853:0:0:0:0:
36,192,127853,1,0,0:0:0:0:
182,192,127853,1,0,0:0:0:0:
329,192,127990,128,0,128126:0:0:0:0:
402,192,127990,128,0,128126:0:0:0:0:
182,192,128126,1,0,0:0:0:0:
36,192,128126,1,0,0:0:0:0:
109,192,128126,1,0,0:0:0:0:
329,192,128262,128,0,128399:0:0:0:0:
256,192,128262,128,0,128399:0:0:0:0:
109,192,128399,128,0,128535:0:0:0:0:
36,192,128399,128,0,128535:0:0:0:0:
475,192,128535,1,0,0:0:0:0:
402,192,128535,1,0,0:0:0:0:
256,192,128671,1,0,0:0:0:0:
402,192,128671,1,0,0:0:0:0:
475,192,128671,1,0,0:0:0:0:
109,192,128671,1,0,0:0:0:0:
36,192,128671,1,0,0:0:0:0:
256,192,128808,1,0,0:0:0:0:
36,192,128944,1,0,0:0:0:0:
182,192,128944,1,0,0:0:0:0:
475,192,128944,1,0,0:0:0:0:
329,192,128944,1,0,0:0:0:0:
402,192,129012,1,0,0:0:0:0:
109,192,129081,1,0,0:0:0:0:
256,192,129149,1,0,0:0:0:0:
182,192,129217,1,0,0:0:0:0:
402,192,129217,1,0,0:0:0:0:
475,192,129217,1,0,0:0:0:0:
36,192,129217,1,0,0:0:0:0:
329,192,129285,1,0,0:0:0:0:
109,192,129353,1,0,0:0:0:0:
256,192,129421,1,0,0:0:0:0:
475,192,129490,1,0,0:0:0:0:
329,192,129558,1,0,0:0:0:0:
182,192,129626,1,0,0:0:0:0:
402,192,129626,1,0,0:0:0:0:
109,192,129626,1,0,0:0:0:0:
36,192,129626,1,0,0:0:0:0:
256,192,129694,1,0,0:0:0:0:
402,192,129762,1,0,0:0:0:0:
475,192,129762,1,0,0:0:0:0:
109,192,129762,1,0,0:0:0:0:
36,192,129762,1,0,0:0:0:0:
182,192,129831,1,0,0:0:0:0:
329,192,129899,1,0,0:0:0:0:
256,192,129967,1,0,0:0:0:0:
402,192,130035,1,0,0:0:0:0:
109,192,130035,1,0,0:0:0:0:
36,192,130035,1,0,0:0:0:0:
475,192,130035,1,0,0:0:0:0:
329,192,130103,1,0,0:0:0:0:
182,192,130171,1,0,0:0:0:0:
256,192,130240,1,0,0:0:0:0:
329,192,130308,1,0,0:0:0:0:
475,192,130308,1,0,0:0:0:0:
402,192,130308,1,0,0:0:0:0:
36,192,130308,1,0,0:0:0:0:
182,192,130376,1,0,0:0:0:0:
109,192,130444,1,0,0:0:0:0:
256,192,130512,1,0,0:0:0:0:
402,192,130581,1,0,0:0:0:0:
182,192,130649,1,0,0:0:0:0:
329,192,130717,1,0,0:0:0:0:
475,192,130717,1,0,0:0:0:0:
109,192,130717,1,0,0:0:0:0:
36,192,130717,1,0,0:0:0:0:
256,192,130785,1,0,0:0:0:0:
36,192,130853,1,0,0:0:0:0:
109,192,130853,1,0,0:0:0:0:
402,192,130853,1,0,0:0:0:0:
475,192,130853,1,0,0:0:0:0:
182,192,130921,1,0,0:0:0:0:
402,192,130990,1,0,0:0:0:0:
256,192,131058,1,0,0:0:0:0:
329,192,131126,1,0,0:0:0:0:
36,192,131126,1,0,0:0:0:0:
109,192,131126,1,0,0:0:0:0:
475,192,131126,1,0,0:0:0:0:
182,192,131126,1,0,0:0:0:0:
402,192,131194,1,0,0:0:0:0:
109,192,131262,1,0,0:0:0:0:
256,192,131331,1,0,0:0:0:0:
402,192,131399,1,0,0:0:0:0:
182,192,131399,1,0,0:0:0:0:
36,192,131399,1,0,0:0:0:0:
329,192,131467,1,0,0:0:0:0:
475,192,131535,1,0,0:0:0:0:
109,192,131535,1,0,0:0:0:0:
182,192,131603,1,0,0:0:0:0:
402,192,131671,1,0,0:0:0:0:
36,192,131671,1,0,0:0:0:0:
256,192,131671,1,0,0:0:0:0:
329,192,131740,1,0,0:0:0:0:
402,192,131808,1,0,0:0:0:0:
182,192,131808,1,0,0:0:0:0:
109,192,131876,1,0,0:0:0:0:
475,192,131944,1,0,0:0:0:0:
36,192,131944,1,0,0:0:0:0:
329,192,131944,1,0,0:0:0:0:
256,192,132012,1,0,0:0:0:0:
109,192,132081,1,0,0:0:0:0:
402,192,132081,1,0,0:0:0:0:
329,192,132149,1,0,0:0:0:0:
36,192,132217,1,0,0:0:0:0:
475,192,132217,1,0,0:0:0:0:
182,192,132217,1,0,0:0:0:0:
256,192,132285,1,0,0:0:0:0:
109,192,132353,1,0,0:0:0:0:
402,192,132353,1,0,0:0:0:0:
329,192,132421,1,0,0:0:0:0:
475,192,132490,1,0,0:0:0:0:
36,192,132490,1,0,0:0:0:0:
256,192,132490,1,0,0:0:0:0:
109,192,132558,1,0,0:0:0:0:
329,192,132626,1,0,0:0:0:0:
402,192,132626,1,0,0:0:0:0:
182,192,132694,1,0,0:0:0:0:
475,192,132762,1,0,0:0:0:0:
36,192,132762,1,0,0:0:0:0:
256,192,132762,1,0,0:0:0:0:
329,192,132831,1,0,0:0:0:0:
109,192,132899,1,0,0:0:0:0:
182,192,132899,1,0,0:0:0:0:
402,192,132967,1,0,0:0:0:0:
36,192,133035,1,0,0:0:0:0:
256,192,133035,1,0,0:0:0:0:
475,192,133035,1,0,0:0:0:0:
182,192,133103,1,0,0:0:0:0:
109,192,133171,1,0,0:0:0:0:
329,192,133171,1,0,0:0:0:0:
475,192,133240,1,0,0:0:0:0:
182,192,133308,1,0,0:0:0:0:
402,192,133308,1,0,0:0:0:0:
36,192,133308,1,0,0:0:0:0:
256,192,133376,1,0,0:0:0:0:
109,192,133376,1,0,0:0:0:0:
402,192,133444,1,0,0:0:0:0:
475,192,133444,1,0,0:0:0:0:
329,192,133512,1,0,0:0:0:0:
182,192,133512,1,0,0:0:0:0:
475,192,133581,1,0,0:0:0:0:
36,192,133581,1,0,0:0:0:0:
109,192,133581,1,0,0:0:0:0:
256,192,133649,1,0,0:0:0:0:
402,192,133649,1,0,0:0:0:0:
182,192,133717,1,0,0:0:0:0:
109,192,133717,1,0,0:0:0:0:
329,192,133785,1,0,0:0:0:0:
475,192,133785,1,0,0:0:0:0:
256,192,133853,1,0,0:0:0:0:
36,192,133853,1,0,0:0:0:0:
109,192,133853,1,0,0:0:0:0:
402,192,133921,1,0,0:0:0:0:
475,192,133921,1,0,0:0:0:0:
182,192,133990,1,0,0:0:0:0:
329,192,133990,1,0,0:0:0:0:
109,192,134058,1,0,0:0:0:0:
36,192,134058,1,0,0:0:0:0:
475,192,134126,1,0,0:0:0:0:
402,192,134126,1,0,0:0:0:0:
256,192,134126,1,0,0:0:0:0:
329,192,134194,1,0,0:0:0:0:
182,192,134194,1,0,0:0:0:0:
36,192,134262,1,0,0:0:0:0:
475,192,134262,1,0,0:0:0:0:
256,192,134262,1,0,0:0:0:0:
109,192,134262,1,0,0:0:0:0:
402,192,134262,1,0,0:0:0:0:
402,192,134535,5,0,0:0:0:0:
256,192,134535,1,0,0:0:0:0:
475,192,134535,1,0,0:0:0:0:
109,192,134535,1,0,0:0:0:0:
36,192,134535,1,0,0:0:0:0:
36,192,134808,1,0,0:0:0:0:
475,192,134808,1,0,0:0:0:0:
182,192,134808,1,0,0:0:0:0:
329,192,134808,1,0,0:0:0:0:
402,192,134944,1,0,0:0:0:0:
475,192,134944,1,0,0:0:0:0:
36,192,134944,1,0,0:0:0:0:
109,192,134944,1,0,0:0:0:0:
182,192,134944,1,0,0:0:0:0:
329,192,134944,1,0,0:0:0:0:
182,192,135217,128,0,135285:0:0:0:0:
402,192,135217,1,0,0:0:0:0:
256,192,135285,128,0,135353:0:0:0:0:
475,192,135285,128,0,135353:0:0:0:0:
402,192,135353,128,0,135421:0:0:0:0:
109,192,135353,1,0,0:0:0:0:
329,192,135421,128,0,135490:0:0:0:0:
182,192,135421,1,0,0:0:0:0:
256,192,135490,1,0,0:0:0:0:
475,192,135490,1,0,0:0:0:0:
36,192,135490,128,0,135626:0:0:0:0:
182,192,135626,128,0,135762:0:0:0:0:
402,192,135762,128,0,135899:0:0:0:0:
109,192,135762,1,0,0:0:0:0:
329,192,135899,128,0,136035:0:0:0:0:
109,192,136035,128,0,136171:0:0:0:0:
475,192,136035,1,0,0:0:0:0:
256,192,136171,128,0,136308:0:0:0:0:
36,192,136171,1,0,0:0:0:0:
475,192,136308,128,0,136444:0:0:0:0:
402,192,136444,128,0,136581:0:0:0:0:
182,192,136444,1,0,0:0:0:0:
36,192,136581,128,0,136717:0:0:0:0:
182,192,136717,128,0,136853:0:0:0:0:
475,192,136717,1,0,0:0:0:0:
329,192,136853,128,0,136990:0:0:0:0:
256,192,136990,128,0,137126:0:0:0:0:
36,192,136990,1,0,0:0:0:0:
109,192,137126,128,0,137262:0:0:0:0:
402,192,137126,1,0,0:0:0:0:
256,192,137262,128,0,137399:0:0:0:0:
402,192,137399,128,0,137535:0:0:0:0:
109,192,137399,1,0,0:0:0:0:
329,192,137535,128,0,137671:0:0:0:0:
182,192,137535,1,0,0:0:0:0:
36,192,137671,128,0,137808:0:0:0:0:
256,192,137671,1,0,0:0:0:0:
109,192,137808,128,0,137944:0:0:0:0:
256,192,137944,128,0,138081:0:0:0:0:
475,192,137944,1,0,0:0:0:0:
329,192,138081,128,0,138217:0:0:0:0:
109,192,138217,128,0,138353:0:0:0:0:
402,192,138217,1,0,0:0:0:0:
182,192,138353,128,0,138490:0:0:0:0:
402,192,138353,1,0,0:0:0:0:
329,192,138490,128,0,138626:0:0:0:0:
402,192,138626,128,0,138762:0:0:0:0:
36,192,138626,128,0,139308:0:0:0:0:
182,192,138762,128,0,138899:0:0:0:0:
256,192,138899,128,0,139035:0:0:0:0:
475,192,139035,128,0,139171:0:0:0:0:
402,192,139171,128,0,139308:0:0:0:0:
256,192,139308,128,0,139444:0:0:0:0:
329,192,139444,128,0,139581:0:0:0:0:
475,192,139581,128,0,139717:0:0:0:0:
182,192,139581,1,0,0:0:0:0:
402,192,139717,128,0,139853:0:0:0:0:
182,192,139717,1,0,0:0:0:0:
36,192,139853,128,0,139990:0:0:0:0:
329,192,139853,1,0,0:0:0:0:
256,192,139990,128,0,140126:0:0:0:0:
182,192,140126,128,0,140262:0:0:0:0:
475,192,140126,1,0,0:0:0:0:
402,192,140262,128,0,140399:0:0:0:0:
109,192,140399,128,0,140535:0:0:0:0:
256,192,140399,1,0,0:0:0:0:
329,192,140535,128,0,140671:0:0:0:0:
36,192,140535,1,0,0:0:0:0:
256,192,140671,128,0,140808:0:0:0:0:
475,192,140808,128,0,140944:0:0:0:0:
182,192,140808,1,0,0:0:0:0:
36,192,140944,128,0,141081:0:0:0:0:
182,192,141081,128,0,141217:0:0:0:0:
329,192,141081,1,0,0:0:0:0:
402,192,141217,128,0,141353:0:0:0:0:
329,192,141353,128,0,141490:0:0:0:0:
182,192,141353,1,0,0:0:0:0:
109,192,141490,128,0,141626:0:0:0:0:
475,192,141490,1,0,0:0:0:0:
256,192,141626,128,0,141762:0:0:0:0:
475,192,141762,128,0,141899:0:0:0:0:
36,192,141762,1,0,0:0:0:0:
402,192,141899,128,0,142035:0:0:0:0:
182,192,141899,1,0,0:0:0:0:
329,192,142035,1,0,0:0:0:0:
36,192,142035,128,0,142171:0:0:0:0:
256,192,142171,128,0,142308:0:0:0:0:
182,192,142308,128,0,142444:0:0:0:0:
109,192,142308,1,0,0:0:0:0:
402,192,142444,128,0,142581:0:0:0:0:
109,192,142581,128,0,142717:0:0:0:0:
256,192,142581,1,0,0:0:0:0:
329,192,142717,128,0,142853:0:0:0:0:
475,192,142717,1,0,0:0:0:0:
256,192,142853,128,0,142990:0:0:0:0:
475,192,142990,128,0,143126:0:0:0:0:
36,192,142990,128,0,143671:0:0:0:0:
182,192,143126,128,0,143262:0:0:0:0:
329,192,143262,128,0,143399:0:0:0:0:
256,192,143399,128,0,143535:0:0:0:0:
402,192,143535,128,0,143671:0:0:0:0:
475,192,143671,128,0,143808:0:0:0:0:
329,192,143808,128,0,143944:0:0:0:0:
182,192,143944,128,0,144081:0:0:0:0:
36,192,144081,128,0,144217:0:0:0:0:
109,192,144217,1,0,0:0:0:0:
256,192,144217,1,0,0:0:0:0:
402,192,144217,1,0,0:0:0:0:
475,192,144217,1,0,0:0:0:0:
109,192,144353,1,0,0:0:0:0:
182,192,144353,1,0,0:0:0:0:
329,192,144353,1,0,0:0:0:0:
36,192,144490,1,0,0:0:0:0:
329,192,144490,1,0,0:0:0:0:
256,192,144490,1,0,0:0:0:0:
475,192,144490,1,0,0:0:0:0:
182,192,144626,1,0,0:0:0:0:
36,192,144626,1,0,0:0:0:0:
402,192,144626,1,0,0:0:0:0:
402,192,144762,1,0,0:0:0:0:
109,192,144762,1,0,0:0:0:0:
256,192,144762,1,0,0:0:0:0:
109,192,144899,1,0,0:0:0:0:
329,192,144899,1,0,0:0:0:0:
475,192,144899,1,0,0:0:0:0:
256,192,145035,1,0,0:0:0:0:
329,192,145035,1,0,0:0:0:0:
182,192,145035,1,0,0:0:0:0:
36,192,145035,1,0,0:0:0:0:
402,192,145171,1,0,0:0:0:0:
182,192,145171,1,0,0:0:0:0:
475,192,145171,1,0,0:0:0:0:
36,192,145308,1,0,0:0:0:0:
402,192,145308,1,0,0:0:0:0:
256,192,145308,1,0,0:0:0:0:
109,192,145308,1,0,0:0:0:0:
109,192,145444,1,0,0:0:0:0:
329,192,145444,1,0,0:0:0:0:
475,192,145444,1,0,0:0:0:0:
329,192,145581,1,0,0:0:0:0:
182,192,145581,1,0,0:0:0:0:
36,192,145581,1,0,0:0:0:0:
402,192,145581,1,0,0:0:0:0:
475,192,145717,1,0,0:0:0:0:
182,192,145717,1,0,0:0:0:0:
256,192,145717,1,0,0:0:0:0:
402,192,145853,1,0,0:0:0:0:
109,192,145853,1,0,0:0:0:0:
36,192,145853,1,0,0:0:0:0:
256,192,145853,1,0,0:0:0:0:
402,192,145990,1,0,0:0:0:0:
182,192,145990,1,0,0:0:0:0:
329,192,145990,1,0,0:0:0:0:
109,192,146126,1,0,0:0:0:0:
329,192,146126,1,0,0:0:0:0:
36,192,146126,1,0,0:0:0:0:
475,192,146126,1,0,0:0:0:0:
109,192,146262,1,0,0:0:0:0:
256,192,146262,1,0,0:0:0:0:
402,192,146262,1,0,0:0:0:0:
402,192,146399,1,0,0:0:0:0:
329,192,146399,1,0,0:0:0:0:
182,192,146399,1,0,0:0:0:0:
36,192,146399,1,0,0:0:0:0:
182,192,146535,1,0,0:0:0:0:
256,192,146535,1,0,0:0:0:0:
475,192,146535,1,0,0:0:0:0:
109,192,146671,1,0,0:0:0:0:
402,192,146671,1,0,0:0:0:0:
256,192,146671,1,0,0:0:0:0:
36,192,146671,1,0,0:0:0:0:
329,192,146808,1,0,0:0:0:0:
402,192,146808,1,0,0:0:0:0:
182,192,146808,1,0,0:0:0:0:
182,192,146944,1,0,0:0:0:0:
256,192,146944,1,0,0:0:0:0:
475,192,146944,1,0,0:0:0:0:
36,192,146944,1,0,0:0:0:0:
109,192,147081,1,0,0:0:0:0:
256,192,147081,1,0,0:0:0:0:
402,192,147081,1,0,0:0:0:0:
402,192,147217,1,0,0:0:0:0:
182,192,147217,1,0,0:0:0:0:
329,192,147217,1,0,0:0:0:0:
36,192,147217,1,0,0:0:0:0:
329,192,147353,1,0,0:0:0:0:
109,192,147353,1,0,0:0:0:0:
475,192,147353,1,0,0:0:0:0:
109,192,147490,1,0,0:0:0:0:
256,192,147490,1,0,0:0:0:0:
402,192,147490,1,0,0:0:0:0:
36,192,147490,1,0,0:0:0:0:
182,192,147626,1,0,0:0:0:0:
256,192,147626,1,0,0:0:0:0:
475,192,147626,1,0,0:0:0:0:
182,192,147762,1,0,0:0:0:0:
329,192,147762,1,0,0:0:0:0:
475,192,147762,1,0,0:0:0:0:
36,192,147762,1,0,0:0:0:0:
109,192,147899,1,0,0:0:0:0:
256,192,147899,1,0,0:0:0:0:
329,192,147899,1,0,0:0:0:0:
109,192,148035,1,0,0:0:0:0:
182,192,148035,1,0,0:0:0:0:
402,192,148035,1,0,0:0:0:0:
475,192,148035,1,0,0:0:0:0:
182,192,148171,1,0,0:0:0:0:
36,192,148171,1,0,0:0:0:0:
329,192,148171,1,0,0:0:0:0:
256,192,148308,1,0,0:0:0:0:
329,192,148308,1,0,0:0:0:0:
475,192,148308,1,0,0:0:0:0:
109,192,148308,1,0,0:0:0:0:
109,192,148444,1,0,0:0:0:0:
182,192,148444,1,0,0:0:0:0:
402,192,148444,1,0,0:0:0:0:
402,192,148581,1,0,0:0:0:0:
256,192,148581,1,0,0:0:0:0:
36,192,148581,1,0,0:0:0:0:
475,192,148581,1,0,0:0:0:0:
36,192,148717,1,0,0:0:0:0:
109,192,148717,1,0,0:0:0:0:
182,192,148717,1,0,0:0:0:0:
329,192,148717,1,0,0:0:0:0:
182,192,148853,1,0,0:0:0:0:
256,192,148853,1,0,0:0:0:0:
402,192,148853,1,0,0:0:0:0:
475,192,148853,1,0,0:0:0:0:
402,192,148990,1,0,0:0:0:0:
109,192,148990,1,0,0:0:0:0:
329,192,148990,1,0,0:0:0:0:
36,192,148990,1,0,0:0:0:0:
109,192,149126,1,0,0:0:0:0:
256,192,149126,1,0,0:0:0:0:
182,192,149126,1,0,0:0:0:0:
475,192,149126,1,0,0:0:0:0:
256,192,149262,1,0,0:0:0:0:
402,192,149262,1,0,0:0:0:0:
36,192,149262,1,0,0:0:0:0:
329,192,149262,1,0,0:0:0:0:
36,192,149399,1,0,0:0:0:0:
182,192,149399,1,0,0:0:0:0:
475,192,149399,1,0,0:0:0:0:
109,192,149399,1,0,0:0:0:0:
475,192,149535,1,0,0:0:0:0:
256,192,149535,1,0,0:0:0:0:
329,192,149535,1,0,0:0:0:0:
402,192,149535,1,0,0:0:0:0:
256,192,149671,1,0,0:0:0:0:
109,192,149671,1,0,0:0:0:0:
36,192,149671,1,0,0:0:0:0:
182,192,149671,1,0,0:0:0:0:
109,192,149808,1,0,0:0:0:0:
329,192,149808,1,0,0:0:0:0:
402,192,149808,1,0,0:0:0:0:
475,192,149808,1,0,0:0:0:0:
182,192,149944,1,0,0:0:0:0:
256,192,149944,1,0,0:0:0:0:
36,192,149944,1,0,0:0:0:0:
402,192,149944,1,0,0:0:0:0:
182,192,150081,1,0,0:0:0:0:
109,192,150081,1,0,0:0:0:0:
329,192,150081,1,0,0:0:0:0:
475,192,150081,1,0,0:0:0:0:
36,192,150217,1,0,0:0:0:0:
256,192,150217,1,0,0:0:0:0:
402,192,150217,1,0,0:0:0:0:
475,192,150217,1,0,0:0:0:0:
36,192,150353,1,0,0:0:0:0:
182,192,150353,1,0,0:0:0:0:
109,192,150353,1,0,0:0:0:0:
329,192,150353,1,0,0:0:0:0:
256,192,150490,1,0,0:0:0:0:
182,192,150490,1,0,0:0:0:0:
402,192,150490,1,0,0:0:0:0:
475,192,150490,1,0,0:0:0:0:
109,192,150626,1,0,0:0:0:0:
256,192,150626,1,0,0:0:0:0:
36,192,150626,1,0,0:0:0:0:
329,192,150626,1,0,0:0:0:0:
402,192,150762,1,0,0:0:0:0:
475,192,150762,1,0,0:0:0:0:
182,192,150831,1,0,0:0:0:0:
109,192,150831,1,0,0:0:0:0:
329,192,150899,1,0,0:0:0:0:
402,192,150899,1,0,0:0:0:0:
36,192,150967,1,0,0:0:0:0:
109,192,150967,1,0,0:0:0:0:
256,192,151035,1,0,0:0:0:0:
329,192,151035,1,0,0:0:0:0:
109,192,151103,1,0,0:0:0:0:
182,192,151103,1,0,0:0:0:0:
402,192,151171,1,0,0:0:0:0:
475,192,151171,1,0,0:0:0:0:
182,192,151240,1,0,0:0:0:0:
256,192,151240,1,0,0:0:0:0:
402,192,151308,1,0,0:0:0:0:
475,192,151308,1,0,0:0:0:0:
36,192,151376,1,0,0:0:0:0:
109,192,151376,1,0,0:0:0:0:
256,192,151444,1,0,0:0:0:0:
329,192,151444,1,0,0:0:0:0:
182,192,151512,1,0,0:0:0:0:
109,192,151512,1,0,0:0:0:0:
402,192,151581,1,0,0:0:0:0:
475,192,151581,1,0,0:0:0:0:
182,192,151649,1,0,0:0:0:0:
256,192,151649,1,0,0:0:0:0:
109,192,151717,1,0,0:0:0:0:
36,192,151717,1,0,0:0:0:0:
329,192,151785,1,0,0:0:0:0:
402,192,151785,1,0,0:0:0:0:
109,192,151853,1,0,0:0:0:0:
182,192,151853,1,0,0:0:0:0:
36,192,151853,1,0,0:0:0:0:
256,192,151921,1,0,0:0:0:0:
329,192,151921,1,0,0:0:0:0:
402,192,151990,1,0,0:0:0:0:
475,192,151990,1,0,0:0:0:0:
36,192,151990,1,0,0:0:0:0:
109,192,152058,1,0,0:0:0:0:
182,192,152058,1,0,0:0:0:0:
475,192,152126,1,0,0:0:0:0:
329,192,152126,1,0,0:0:0:0:
402,192,152126,1,0,0:0:0:0:
182,192,152194,1,0,0:0:0:0:
256,192,152194,1,0,0:0:0:0:
109,192,152262,1,0,0:0:0:0:
36,192,152262,1,0,0:0:0:0:
475,192,152262,1,0,0:0:0:0:
329,192,152331,1,0,0:0:0:0:
402,192,152331,1,0,0:0:0:0:
36,192,152399,1,0,0:0:0:0:
109,192,152399,1,0,0:0:0:0:
256,192,152399,1,0,0:0:0:0:
475,192,152467,1,0,0:0:0:0:
402,192,152467,1,0,0:0:0:0:
109,192,152535,1,0,0:0:0:0:
182,192,152535,1,0,0:0:0:0:
402,192,152603,1,0,0:0:0:0:
329,192,152603,1,0,0:0:0:0:
256,192,152671,1,0,0:0:0:0:
109,192,152671,1,0,0:0:0:0:
36,192,152671,1,0,0:0:0:0:
475,192,152740,1,0,0:0:0:0:
329,192,152740,1,0,0:0:0:0:
402,192,152740,1,0,0:0:0:0:
182,192,152808,1,0,0:0:0:0:
109,192,152808,1,0,0:0:0:0:
36,192,152808,1,0,0:0:0:0:
329,192,152876,1,0,0:0:0:0:
402,192,152876,1,0,0:0:0:0:
475,192,152876,1,0,0:0:0:0:
36,192,152944,128,0,153081:0:0:0:0:
109,192,153081,128,0,153217:0:0:0:0:
256,192,153217,128,0,153353:0:0:0:0:
329,192,153353,128,0,153490:0:0:0:0:
109,192,153490,128,0,153626:0:0:0:0:
182,192,153626,128,0,153762:0:0:0:0:
329,192,153762,128,0,153899:0:0:0:0:
402,192,153899,128,0,154035:0:0:0:0:
182,192,154035,128,0,154171:0:0:0:0:
256,192,154171,128,0,154308:0:0:0:0:
402,192,154308,128,0,154444:0:0:0:0:
475,192,154444,128,0,154581:0:0:0:0:
329,192,154581,1,0,0:0:0:0:
182,192,154581,1,0,0:0:0:0:
109,192,154581,1,0,0:0:0:0:
36,192,154581,1,0,0:0:0:0:
402,192,154581,1,0,0:0:0:0:
182,192,154853,1,0,0:0:0:0:
329,192,154853,1,0,0:0:0:0:
36,192,155126,1,0,0:0:0:0:
109,192,155126,1,0,0:0:0:0:
182,192,155126,1,0,0:0:0:0:
402,192,155126,1,0,0:0:0:0:
475,192,155126,1,0,0:0:0:0:
256,192,155126,128,0,155262:0:0:0:0:
109,192,155262,1,0,0:0:0:0:
402,192,155262,1,0,0:0:0:0:
475,192,155399,1,0,0:0:0:0:
182,192,155399,1,0,0:0:0:0:
256,192,155399,1,0,0:0:0:0:
36,192,155399,1,0,0:0:0:0:
329,192,155399,128,0,155535:0:0:0:0:
182,192,155535,1,0,0:0:0:0:
402,192,155535,1,0,0:0:0:0:
36,192,155671,1,0,0:0:0:0:
256,192,155671,1,0,0:0:0:0:
475,192,155671,1,0,0:0:0:0:
329,192,155671,1,0,0:0:0:0:
109,192,155671,128,0,155808:0:0:0:0:
256,192,155808,128,0,155944:0:0:0:0:
402,192,155808,1,0,0:0:0:0:
329,192,155944,1,0,0:0:0:0:
475,192,155944,1,0,0:0:0:0:
182,192,155944,1,0,0:0:0:0:
36,192,155944,1,0,0:0:0:0:
109,192,155944,1,0,0:0:0:0:
109,192,156081,1,0,0:0:0:0:
329,192,156081,128,0,156217:0:0:0:0:
475,192,156217,1,0,0:0:0:0:
402,192,156217,1,0,0:0:0:0:
182,192,156217,1,0,0:0:0:0:
36,192,156217,1,0,0:0:0:0:
256,192,156217,1,0,0:0:0:0:
256,192,156353,1,0,0:0:0:0:
109,192,156353,128,0,156490:0:0:0:0:
182,192,156490,1,0,0:0:0:0:
402,192,156490,1,0,0:0:0:0:
36,192,156490,1,0,0:0:0:0:
329,192,156490,1,0,0:0:0:0:
475,192,156490,128,0,156626:0:0:0:0:
109,192,156626,1,0,0:0:0:0:
256,192,156626,128,0,156762:0:0:0:0:
182,192,156762,1,0,0:0:0:0:
36,192,156762,1,0,0:0:0:0:
475,192,156762,1,0,0:0:0:0:
109,192,156762,1,0,0:0:0:0:
329,192,156762,1,0,0:0:0:0:
182,192,156899,1,0,0:0:0:0:
329,192,156899,128,0,157035:0:0:0:0:
256,192,157035,1,0,0:0:0:0:
36,192,157035,1,0,0:0:0:0:
475,192,157035,1,0,0:0:0:0:
402,192,157035,1,0,0:0:0:0:
109,192,157035,128,0,157171:0:0:0:0:
402,192,157171,128,0,157308:0:0:0:0:
182,192,157171,1,0,0:0:0:0:
475,192,157308,1,0,0:0:0:0:
109,192,157308,1,0,0:0:0:0:
36,192,157308,1,0,0:0:0:0:
329,192,157308,1,0,0:0:0:0:
256,192,157308,128,0,157444:0:0:0:0:
182,192,157444,1,0,0:0:0:0:
329,192,157444,1,0,0:0:0:0:
36,192,157581,1,0,0:0:0:0:
256,192,157581,1,0,0:0:0:0:
402,192,157581,1,0,0:0:0:0:
475,192,157581,1,0,0:0:0:0:
109,192,157581,128,0,157717:0:0:0:0:
182,192,157717,1,0,0:0:0:0:
329,192,157717,1,0,0:0:0:0:
36,192,157853,1,0,0:0:0:0:
109,192,157853,1,0,0:0:0:0:
475,192,157853,1,0,0:0:0:0:
182,192,157853,1,0,0:0:0:0:
402,192,157853,128,0,157990:0:0:0:0:
329,192,157990,1,0,0:0:0:0:
256,192,157990,128,0,158126:0:0:0:0:
36,192,158126,1,0,0:0:0:0:
109,192,158126,1,0,0:0:0:0:
182,192,158126,1,0,0:0:0:0:
475,192,158126,1,0,0:0:0:0:
402,192,158126,1,0,0:0:0:0:
182,192,158262,1,0,0:0:0:0:
329,192,158262,128,0,158399:0:0:0:0:
256,192,158399,1,0,0:0:0:0:
109,192,158399,1,0,0:0:0:0:
402,192,158399,1,0,0:0:0:0:
475,192,158399,1,0,0:0:0:0:
36,192,158399,1,0,0:0:0:0:
256,192,158535,1,0,0:0:0:0:
36,192,158535,128,0,158671:0:0:0:0:
182,192,158671,1,0,0:0:0:0:
329,192,158671,1,0,0:0:0:0:
402,192,158671,1,0,0:0:0:0:
475,192,158671,1,0,0:0:0:0:
109,192,158671,1,0,0:0:0:0:
109,192,158808,1,0,0:0:0:0:
402,192,158808,128,0,158944:0:0:0:0:
256,192,158944,1,0,0:0:0:0:
182,192,158944,1,0,0:0:0:0:
36,192,158944,1,0,0:0:0:0:
329,192,158944,1,0,0:0:0:0:
475,192,158944,1,0,0:0:0:0:
402,192,159081,1,0,0:0:0:0:
182,192,159081,128,0,159217:0:0:0:0:
109,192,159217,1,0,0:0:0:0:
475,192,159217,1,0,0:0:0:0:
256,192,159217,1,0,0:0:0:0:
36,192,159217,1,0,0:0:0:0:
402,192,159217,1,0,0:0:0:0:
256,192,159353,1,0,0:0:0:0:
109,192,159353,128,0,159490:0:0:0:0:
36,192,159490,1,0,0:0:0:0:
182,192,159490,1,0,0:0:0:0:
475,192,159490,1,0,0:0:0:0:
402,192,159490,1,0,0:0:0:0:
329,192,159490,128,0,159626:0:0:0:0:
109,192,159626,1,0,0:0:0:0:
256,192,159626,1,0,0:0:0:0:
402,192,159762,1,0,0:0:0:0:
329,192,159762,1,0,0:0:0:0:
475,192,159762,1,0,0:0:0:0:
36,192,159762,1,0,0:0:0:0:
182,192,159762,128,0,159899:0:0:0:0:
109,192,159899,1,0,0:0:0:0:
329,192,159899,1,0,0:0:0:0:
256,192,160035,1,0,0:0:0:0:
182,192,160035,1,0,0:0:0:0:
36,192,160035,1,0,0:0:0:0:
475,192,160035,1,0,0:0:0:0:
402,192,160035,128,0,160171:0:0:0:0:
329,192,160171,128,0,160308:0:0:0:0:
109,192,160171,1,0,0:0:0:0:
109,192,160308,1,0,0:0:0:0:
475,192,160308,1,0,0:0:0:0:
402,192,160308,1,0,0:0:0:0:
256,192,160308,1,0,0:0:0:0:
36,192,160308,1,0,0:0:0:0:
329,192,160444,1,0,0:0:0:0:
182,192,160444,128,0,160581:0:0:0:0:
36,192,160581,1,0,0:0:0:0:
109,192,160581,1,0,0:0:0:0:
256,192,160581,1,0,0:0:0:0:
475,192,160581,1,0,0:0:0:0:
402,192,160581,1,0,0:0:0:0:
182,192,160717,1,0,0:0:0:0:
329,192,160717,128,0,160853:0:0:0:0:
475,192,160853,1,0,0:0:0:0:
402,192,160853,1,0,0:0:0:0:
36,192,160853,1,0,0:0:0:0:
256,192,160853,1,0,0:0:0:0:
109,192,160853,128,0,160990:0:0:0:0:
402,192,160990,1,0,0:0:0:0:
182,192,160990,128,0,161126:0:0:0:0:
256,192,161126,1,0,0:0:0:0:
329,192,161126,1,0,0:0:0:0:
109,192,161126,1,0,0:0:0:0:
36,192,161126,1,0,0:0:0:0:
475,192,161126,1,0,0:0:0:0:
182,192,161262,1,0,0:0:0:0:
329,192,161262,128,0,161399:0:0:0:0:
402,192,161399,1,0,0:0:0:0:
475,192,161399,1,0,0:0:0:0:
182,192,161399,1,0,0:0:0:0:
36,192,161399,1,0,0:0:0:0:
256,192,161399,128,0,161535:0:0:0:0:
329,192,161535,1,0,0:0:0:0:
109,192,161535,128,0,161671:0:0:0:0:
182,192,161671,1,0,0:0:0:0:
475,192,161671,1,0,0:0:0:0:
36,192,161671,1,0,0:0:0:0:
329,192,161671,1,0,0:0:0:0:
402,192,161671,128,0,161808:0:0:0:0:
109,192,161808,1,0,0:0:0:0:
256,192,161808,1,0,0:0:0:0:
36,192,161944,1,0,0:0:0:0:
109,192,161944,1,0,0:0:0:0:
475,192,161944,1,0,0:0:0:0:
329,192,161944,1,0,0:0:0:0:
182,192,161944,128,0,162081:0:0:0:0:
402,192,162081,1,0,0:0:0:0:
256,192,162081,1,0,0:0:0:0:
256,192,162217,1,0,0:0:0:0:
109,192,162217,1,0,0:0:0:0:
402,192,162217,1,0,0:0:0:0:
475,192,162217,1,0,0:0:0:0:
36,192,162217,128,0,162353:0:0:0:0:
182,192,162353,1,0,0:0:0:0:
329,192,162353,128,0,162490:0:0:0:0:
109,192,162490,1,0,0:0:0:0:
36,192,162490,1,0,0:0:0:0:
256,192,162490,1,0,0:0:0:0:
402,192,162490,1,0,0:0:0:0:
475,192,162490,1,0,0:0:0:0:
329,192,162626,1,0,0:0:0:0:
182,192,162626,128,0,162762:0:0:0:0:
475,192,162762,1,0,0:0:0:0:
402,192,162762,1,0,0:0:0:0:
329,192,162762,1,0,0:0:0:0:
109,192,162762,1,0,0:0:0:0:
36,192,162762,1,0,0:0:0:0:
109,192,162899,1,0,0:0:0:0:
256,192,162899,128,0,163035:0:0:0:0:
182,192,163035,1,0,0:0:0:0:
329,192,163035,1,0,0:0:0:0:
36,192,163035,1,0,0:0:0:0:
475,192,163035,1,0,0:0:0:0:
402,192,163035,128,0,163171:0:0:0:0:
256,192,163171,1,0,0:0:0:0:
109,192,163171,1,0,0:0:0:0:
36,192,163308,1,0,0:0:0:0:
182,192,163308,1,0,0:0:0:0:
329,192,163308,1,0,0:0:0:0:
475,192,163308,1,0,0:0:0:0:
109,192,163308,128,0,163444:0:0:0:0:
256,192,163444,1,0,0:0:0:0:
402,192,163444,1,0,0:0:0:0:
109,192,163581,1,0,0:0:0:0:
36,192,163581,1,0,0:0:0:0:
402,192,163581,1,0,0:0:0:0:
475,192,163581,1,0,0:0:0:0:
256,192,163581,128,0,163717:0:0:0:0:
182,192,163717,1,0,0:0:0:0:
329,192,163717,1,0,0:0:0:0:
36,192,163853,1,0,0:0:0:0:
182,192,163853,1,0,0:0:0:0:
329,192,163853,1,0,0:0:0:0:
475,192,163853,1,0,0:0:0:0:
402,192,163853,128,0,163990:0:0:0:0:
256,192,163990,1,0,0:0:0:0:
109,192,163990,1,0,0:0:0:0:
36,192,164126,1,0,0:0:0:0:
475,192,164126,1,0,0:0:0:0:
182,192,164126,1,0,0:0:0:0:
329,192,164126,1,0,0:0:0:0:
109,192,164126,128,0,164262:0:0:0:0:
256,192,164262,1,0,0:0:0:0:
475,192,164262,1,0,0:0:0:0:
109,192,164399,1,0,0:0:0:0:
256,192,164399,1,0,0:0:0:0:
329,192,164399,1,0,0:0:0:0:
36,192,164399,1,0,0:0:0:0:
402,192,164399,128,0,164535:0:0:0:0:
182,192,164535,128,0,164671:0:0:0:0:
329,192,164535,1,0,0:0:0:0:
402,192,164671,1,0,0:0:0:0:
475,192,164671,1,0,0:0:0:0:
256,192,164671,1,0,0:0:0:0:
36,192,164671,1,0,0:0:0:0:
109,192,164671,1,0,0:0:0:0:
36,192,164808,1,0,0:0:0:0:
329,192,164808,128,0,164944:0:0:0:0:
475,192,164944,1,0,0:0:0:0:
182,192,164944,1,0,0:0:0:0:
256,192,164944,1,0,0:0:0:0:
402,192,164944,1,0,0:0:0:0:
109,192,164944,1,0,0:0:0:0:
256,192,165081,1,0,0:0:0:0:
109,192,165081,128,0,165217:0:0:0:0:
182,192,165217,1,0,0:0:0:0:
402,192,165217,1,0,0:0:0:0:
36,192,165217,1,0,0:0:0:0:
329,192,165217,1,0,0:0:0:0:
475,192,165217,128,0,165353:0:0:0:0:
109,192,165353,1,0,0:0:0:0:
256,192,165353,128,0,165490:0:0:0:0:
109,192,165490,1,0,0:0:0:0:
402,192,165490,1,0,0:0:0:0:
475,192,165490,1,0,0:0:0:0:
36,192,165490,1,0,0:0:0:0:
329,192,165490,1,0,0:0:0:0:
329,192,165626,1,0,0:0:0:0:
182,192,165626,128,0,165762:0:0:0:0:
109,192,165762,1,0,0:0:0:0:
475,192,165762,1,0,0:0:0:0:
36,192,165762,1,0,0:0:0:0:
256,192,165762,1,0,0:0:0:0:
402,192,165762,128,0,165899:0:0:0:0:
329,192,165899,128,0,166035:0:0:0:0:
109,192,165899,1,0,0:0:0:0:
475,192,166035,1,0,0:0:0:0:
182,192,166035,1,0,0:0:0:0:
402,192,166035,1,0,0:0:0:0:
256,192,166035,1,0,0:0:0:0:
36,192,166035,128,0,166171:0:0:0:0:
182,192,166171,1,0,0:0:0:0:
329,192,166171,1,0,0:0:0:0:
109,192,166308,1,0,0:0:0:0:
36,192,166308,1,0,0:0:0:0:
329,192,166308,1,0,0:0:0:0:
475,192,166308,1,0,0:0:0:0:
256,192,166308,128,0,166444:0:0:0:0:
182,192,166444,1,0,0:0:0:0:
402,192,166444,1,0,0:0:0:0:
36,192,166581,1,0,0:0:0:0:
109,192,166581,1,0,0:0:0:0:
475,192,166581,1,0,0:0:0:0:
182,192,166581,1,0,0:0:0:0:
329,192,166581,128,0,166717:0:0:0:0:
256,192,166717,1,0,0:0:0:0:
109,192,166717,128,0,166853:0:0:0:0:
182,192,166853,1,0,0:0:0:0:
36,192,166853,1,0,0:0:0:0:
329,192,166853,1,0,0:0:0:0:
402,192,166853,1,0,0:0:0:0:
475,192,166853,1,0,0:0:0:0:
36,192,166990,1,0,0:0:0:0:
329,192,166990,128,0,167126:0:0:0:0:
182,192,167126,1,0,0:0:0:0:
109,192,167126,1,0,0:0:0:0:
256,192,167126,1,0,0:0:0:0:
475,192,167126,1,0,0:0:0:0:
402,192,167126,1,0,0:0:0:0:
256,192,167262,1,0,0:0:0:0:
109,192,167262,128,0,167399:0:0:0:0:
182,192,167399,1,0,0:0:0:0:
402,192,167399,1,0,0:0:0:0:
329,192,167399,1,0,0:0:0:0:
475,192,167399,1,0,0:0:0:0:
36,192,167399,1,0,0:0:0:0:
256,192,167535,1,0,0:0:0:0:
402,192,167535,128,0,167671:0:0:0:0:
256,192,167671,1,0,0:0:0:0:
109,192,167671,1,0,0:0:0:0:
36,192,167671,1,0,0:0:0:0:
329,192,167671,1,0,0:0:0:0:
475,192,167671,1,0,0:0:0:0:
109,192,167808,1,0,0:0:0:0:
329,192,167808,128,0,167944:0:0:0:0:
182,192,167944,1,0,0:0:0:0:
256,192,167944,1,0,0:0:0:0:
402,192,167944,1,0,0:0:0:0:
36,192,167944,1,0,0:0:0:0:
475,192,167944,1,0,0:0:0:0:
256,192,168081,1,0,0:0:0:0:
109,192,168081,128,0,168217:0:0:0:0:
182,192,168217,1,0,0:0:0:0:
475,192,168217,1,0,0:0:0:0:
329,192,168217,1,0,0:0:0:0:
36,192,168217,1,0,0:0:0:0:
402,192,168217,128,0,168353:0:0:0:0:
256,192,168353,1,0,0:0:0:0:
109,192,168353,1,0,0:0:0:0:
329,192,168490,1,0,0:0:0:0:
402,192,168490,1,0,0:0:0:0:
182,192,168490,1,0,0:0:0:0:
109,192,168490,1,0,0:0:0:0:
475,192,168490,128,0,168626:0:0:0:0:
256,192,168626,1,0,0:0:0:0:
36,192,168626,1,0,0:0:0:0:
329,192,168762,1,0,0:0:0:0:
402,192,168762,1,0,0:0:0:0:
182,192,168762,1,0,0:0:0:0:
475,192,168762,1,0,0:0:0:0:
36,192,168762,128,0,168899:0:0:0:0:
256,192,168899,128,0,169035:0:0:0:0:
109,192,168899,1,0,0:0:0:0:
109,192,169035,1,0,0:0:0:0:
475,192,169035,1,0,0:0:0:0:
402,192,169035,1,0,0:0:0:0:
329,192,169035,1,0,0:0:0:0:
36,192,169035,1,0,0:0:0:0:
329,192,169171,1,0,0:0:0:0:
182,192,169171,128,0,169308:0:0:0:0:
36,192,169308,1,0,0:0:0:0:
402,192,169308,1,0,0:0:0:0:
109,192,169308,1,0,0:0:0:0:
256,192,169308,1,0,0:0:0:0:
475,192,169308,1,0,0:0:0:0:
182,192,169444,1,0,0:0:0:0:
329,192,169444,128,0,169581:0:0:0:0:
475,192,169581,1,0,0:0:0:0:
402,192,169581,1,0,0:0:0:0:
256,192,169581,1,0,0:0:0:0:
36,192,169581,1,0,0:0:0:0:
109,192,169581,128,0,169717:0:0:0:0:
256,192,169717,1,0,0:0:0:0:
475,192,169717,128,0,169853:0:0:0:0:
182,192,169853,1,0,0:0:0:0:
402,192,169853,1,0,0:0:0:0:
109,192,169853,1,0,0:0:0:0:
36,192,169853,1,0,0:0:0:0:
329,192,169853,1,0,0:0:0:0:
109,192,169990,1,0,0:0:0:0:
329,192,169990,128,0,170126:0:0:0:0:
402,192,170126,1,0,0:0:0:0:
475,192,170126,1,0,0:0:0:0:
182,192,170126,1,0,0:0:0:0:
36,192,170126,1,0,0:0:0:0:
256,192,170126,128,0,170262:0:0:0:0:
402,192,170262,1,0,0:0:0:0:
109,192,170262,128,0,170399:0:0:0:0:
182,192,170399,1,0,0:0:0:0:
36,192,170399,1,0,0:0:0:0:
329,192,170399,1,0,0:0:0:0:
256,192,170399,1,0,0:0:0:0:
475,192,170399,128,0,170535:0:0:0:0:
109,192,170535,1,0,0:0:0:0:
329,192,170535,1,0,0:0:0:0:
109,192,170671,1,0,0:0:0:0:
36,192,170671,1,0,0:0:0:0:
475,192,170671,1,0,0:0:0:0:
402,192,170671,1,0,0:0:0:0:
256,192,170671,128,0,170808:0:0:0:0:
182,192,170808,1,0,0:0:0:0:
329,192,170808,1,0,0:0:0:0:
402,192,170944,1,0,0:0:0:0:
109,192,170944,1,0,0:0:0:0:
256,192,170944,1,0,0:0:0:0:
475,192,170944,1,0,0:0:0:0:
36,192,170944,128,0,171081:0:0:0:0:
256,192,171081,1,0,0:0:0:0:
329,192,171081,128,0,171217:0:0:0:0:
182,192,171081,1,0,0:0:0:0:
402,192,171081,1,0,0:0:0:0:
475,192,171081,1,0,0:0:0:0:
36,192,171217,1,0,0:0:0:0:
182,192,171217,1,0,0:0:0:0:
109,192,171353,1,0,0:0:0:0:
256,192,171353,128,0,171490:0:0:0:0:
36,192,171353,1,0,0:0:0:0:
475,192,171353,1,0,0:0:0:0:
402,192,171353,128,0,171490:0:0:0:0:
475,192,171626,128,0,171762:0:0:0:0:
109,192,171626,128,0,171762:0:0:0:0:
182,192,171762,128,0,171899:0:0:0:0:
329,192,171762,128,0,171899:0:0:0:0:
182,192,172035,128,0,172171:0:0:0:0:
36,192,172035,128,0,172171:0:0:0:0:
256,192,172308,128,0,172444:0:0:0:0:
109,192,172308,128,0,172444:0:0:0:0:
402,192,172308,1,0,0:0:0:0:
475,192,172308,1,0,0:0:0:0:
329,192,172444,1,0,0:0:0:0:
109,192,172581,5,0,0:0:0:0:
36,192,172581,1,0,0:0:0:0:
402,192,172581,1,0,0:0:0:0:
256,192,172581,1,0,0:0:0:0:
475,192,172581,1,0,0:0:0:0:
182,192,172649,1,0,0:0:0:0:
402,192,172717,1,0,0:0:0:0:
109,192,172717,1,0,0:0:0:0:
256,192,172785,1,0,0:0:0:0:
182,192,172853,1,0,0:0:0:0:
36,192,172853,1,0,0:0:0:0:
475,192,172853,1,0,0:0:0:0:
329,192,172853,1,0,0:0:0:0:
402,192,172921,1,0,0:0:0:0:
256,192,172990,1,0,0:0:0:0:
109,192,172990,1,0,0:0:0:0:
329,192,173058,1,0,0:0:0:0:
475,192,173126,1,0,0:0:0:0:
36,192,173126,1,0,0:0:0:0:
182,192,173126,1,0,0:0:0:0:
402,192,173126,1,0,0:0:0:0:
256,192,173194,1,0,0:0:0:0:
402,192,173262,1,0,0:0:0:0:
109,192,173262,1,0,0:0:0:0:
182,192,173262,1,0,0:0:0:0:
329,192,173331,1,0,0:0:0:0:
256,192,173399,1,0,0:0:0:0:
475,192,173399,1,0,0:0:0:0:
36,192,173399,1,0,0:0:0:0:
402,192,173399,1,0,0:0:0:0:
182,192,173467,1,0,0:0:0:0:
475,192,173535,1,0,0:0:0:0:
109,192,173535,1,0,0:0:0:0:
329,192,173535,1,0,0:0:0:0:
256,192,173603,1,0,0:0:0:0:
36,192,173671,1,0,0:0:0:0:
329,192,173671,1,0,0:0:0:0:
402,192,173671,1,0,0:0:0:0:
182,192,173671,1,0,0:0:0:0:
109,192,173740,1,0,0:0:0:0:
475,192,173808,1,0,0:0:0:0:
256,192,173808,1,0,0:0:0:0:
36,192,173808,1,0,0:0:0:0:
402,192,173876,1,0,0:0:0:0:
329,192,173944,1,0,0:0:0:0:
475,192,173944,1,0,0:0:0:0:
36,192,173944,1,0,0:0:0:0:
182,192,173944,1,0,0:0:0:0:
256,192,174012,1,0,0:0:0:0:
109,192,174081,1,0,0:0:0:0:
402,192,174081,1,0,0:0:0:0:
329,192,174081,1,0,0:0:0:0:
182,192,174149,1,0,0:0:0:0:
36,192,174217,1,0,0:0:0:0:
475,192,174217,1,0,0:0:0:0:
256,192,174217,1,0,0:0:0:0:
402,192,174217,1,0,0:0:0:0:
109,192,174285,1,0,0:0:0:0:
329,192,174353,1,0,0:0:0:0:
402,192,174353,1,0,0:0:0:0:
182,192,174421,1,0,0:0:0:0:
36,192,174490,1,0,0:0:0:0:
402,192,174490,1,0,0:0:0:0:
256,192,174490,1,0,0:0:0:0:
475,192,174490,1,0,0:0:0:0:
109,192,174558,1,0,0:0:0:0:
329,192,174626,1,0,0:0:0:0:
475,192,174626,1,0,0:0:0:0:
182,192,174626,1,0,0:0:0:0:
402,192,174694,1,0,0:0:0:0:
475,192,174762,1,0,0:0:0:0:
256,192,174762,1,0,0:0:0:0:
36,192,174762,1,0,0:0:0:0:
109,192,174762,1,0,0:0:0:0:
329,192,174831,1,0,0:0:0:0:
36,192,174899,1,0,0:0:0:0:
402,192,174899,1,0,0:0:0:0:
182,192,174899,1,0,0:0:0:0:
109,192,174967,1,0,0:0:0:0:
329,192,175035,1,0,0:0:0:0:
36,192,175035,1,0,0:0:0:0:
256,192,175035,1,0,0:0:0:0:
475,192,175035,1,0,0:0:0:0:
182,192,175103,1,0,0:0:0:0:
402,192,175171,1,0,0:0:0:0:
109,192,175171,1,0,0:0:0:0:
329,192,175240,1,0,0:0:0:0:
36,192,175308,1,0,0:0:0:0:
475,192,175308,1,0,0:0:0:0:
402,192,175308,1,0,0:0:0:0:
182,192,175308,1,0,0:0:0:0:
256,192,175376,1,0,0:0:0:0:
475,192,175444,1,0,0:0:0:0:
109,192,175444,1,0,0:0:0:0:
329,192,175444,1,0,0:0:0:0:
182,192,175512,1,0,0:0:0:0:
475,192,175581,1,0,0:0:0:0:
36,192,175581,1,0,0:0:0:0:
256,192,175581,1,0,0:0:0:0:
402,192,175581,1,0,0:0:0:0:
329,192,175649,1,0,0:0:0:0:
402,192,175717,1,0,0:0:0:0:
109,192,175717,1,0,0:0:0:0:
256,192,175717,1,0,0:0:0:0:
182,192,175785,1,0,0:0:0:0:
329,192,175853,1,0,0:0:0:0:
475,192,175853,1,0,0:0:0:0:
36,192,175853,1,0,0:0:0:0:
109,192,175853,1,0,0:0:0:0:
256,192,175921,1,0,0:0:0:0:
402,192,175990,1,0,0:0:0:0:
182,192,175990,1,0,0:0:0:0:
329,192,176058,1,0,0:0:0:0:
182,192,176126,1,0,0:0:0:0:
475,192,176126,1,0,0:0:0:0:
402,192,176126,1,0,0:0:0:0:
36,192,176126,1,0,0:0:0:0:
256,192,176194,1,0,0:0:0:0:
329,192,176262,1,0,0:0:0:0:
109,192,176262,1,0,0:0:0:0:
402,192,176331,1,0,0:0:0:0:
36,192,176399,1,0,0:0:0:0:
475,192,176399,1,0,0:0:0:0:
182,192,176399,1,0,0:0:0:0:
329,192,176399,1,0,0:0:0:0:
109,192,176467,1,0,0:0:0:0:
402,192,176535,1,0,0:0:0:0:
182,192,176535,1,0,0:0:0:0:
329,192,176603,1,0,0:0:0:0:
36,192,176671,1,0,0:0:0:0:
475,192,176671,1,0,0:0:0:0:
256,192,176671,1,0,0:0:0:0:
109,192,176671,1,0,0:0:0:0:
402,192,176740,1,0,0:0:0:0:
36,192,176808,1,0,0:0:0:0:
182,192,176808,1,0,0:0:0:0:
329,192,176808,1,0,0:0:0:0:
109,192,176876,1,0,0:0:0:0:
475,192,176944,1,0,0:0:0:0:
36,192,176944,1,0,0:0:0:0:
256,192,176944,1,0,0:0:0:0:
402,192,176944,1,0,0:0:0:0:
329,192,177012,1,0,0:0:0:0:
109,192,177081,1,0,0:0:0:0:
402,192,177081,1,0,0:0:0:0:
256,192,177149,1,0,0:0:0:0:
36,192,177217,1,0,0:0:0:0:
182,192,177217,1,0,0:0:0:0:
329,192,177217,1,0,0:0:0:0:
475,192,177217,1,0,0:0:0:0:
402,192,177285,1,0,0:0:0:0:
256,192,177353,1,0,0:0:0:0:
109,192,177353,1,0,0:0:0:0:
182,192,177421,1,0,0:0:0:0:
36,192,177490,1,0,0:0:0:0:
475,192,177490,1,0,0:0:0:0:
402,192,177490,1,0,0:0:0:0:
329,192,177490,1,0,0:0:0:0:
256,192,177558,1,0,0:0:0:0:
109,192,177626,1,0,0:0:0:0:
402,192,177626,1,0,0:0:0:0:
36,192,177626,1,0,0:0:0:0:
182,192,177694,1,0,0:0:0:0:
256,192,177762,1,0,0:0:0:0:
475,192,177762,1,0,0:0:0:0:
402,192,177762,1,0,0:0:0:0:
36,192,177762,1,0,0:0:0:0:
109,192,177831,1,0,0:0:0:0:
475,192,177899,1,0,0:0:0:0:
329,192,177899,1,0,0:0:0:0:
182,192,177899,1,0,0:0:0:0:
36,192,177967,1,0,0:0:0:0:
109,192,178035,1,0,0:0:0:0:
475,192,178035,1,0,0:0:0:0:
329,192,178035,1,0,0:0:0:0:
182,192,178035,1,0,0:0:0:0:
256,192,178103,1,0,0:0:0:0:
182,192,178171,1,0,0:0:0:0:
36,192,178171,1,0,0:0:0:0:
329,192,178171,1,0,0:0:0:0:
402,192,178240,1,0,0:0:0:0:
36,192,178308,1,0,0:0:0:0:
475,192,178308,1,0,0:0:0:0:
109,192,178308,1,0,0:0:0:0:
256,192,178308,1,0,0:0:0:0:
182,192,178376,1,0,0:0:0:0:
475,192,178444,1,0,0:0:0:0:
329,192,178444,1,0,0:0:0:0:
109,192,178444,1,0,0:0:0:0:
256,192,178512,1,0,0:0:0:0:
402,192,178581,1,0,0:0:0:0:
36,192,178581,1,0,0:0:0:0:
109,192,178581,1,0,0:0:0:0:
329,192,178581,1,0,0:0:0:0:
182,192,178649,1,0,0:0:0:0:
402,192,178717,1,0,0:0:0:0:
256,192,178717,1,0,0:0:0:0:
109,192,178785,1,0,0:0:0:0:
182,192,178853,1,0,0:0:0:0:
475,192,178853,1,0,0:0:0:0:
329,192,178853,1,0,0:0:0:0:
36,192,178853,1,0,0:0:0:0:
402,192,178921,1,0,0:0:0:0:
329,192,178990,1,0,0:0:0:0:
36,192,178990,1,0,0:0:0:0:
109,192,178990,1,0,0:0:0:0:
256,192,179058,1,0,0:0:0:0:
402,192,179126,1,0,0:0:0:0:
109,192,179126,1,0,0:0:0:0:
182,192,179126,1,0,0:0:0:0:
475,192,179126,1,0,0:0:0:0:
329,192,179194,1,0,0:0:0:0:
36,192,179262,1,0,0:0:0:0:
256,192,179262,1,0,0:0:0:0:
109,192,179331,1,0,0:0:0:0:
475,192,179399,1,0,0:0:0:0:
329,192,179399,1,0,0:0:0:0:
182,192,179399,1,0,0:0:0:0:
402,192,179399,1,0,0:0:0:0:
256,192,179467,1,0,0:0:0:0:
109,192,179535,1,0,0:0:0:0:
402,192,179535,1,0,0:0:0:0:
329,192,179603,1,0,0:0:0:0:
109,192,179671,1,0,0:0:0:0:
36,192,179671,1,0,0:0:0:0:
475,192,179671,1,0,0:0:0:0:
256,192,179671,1,0,0:0:0:0:
182,192,179740,1,0,0:0:0:0:
402,192,179808,1,0,0:0:0:0:
329,192,179808,1,0,0:0:0:0:
109,192,179808,1,0,0:0:0:0:
256,192,179876,1,0,0:0:0:0:
475,192,179944,1,0,0:0:0:0:
329,192,179944,1,0,0:0:0:0:
36,192,179944,1,0,0:0:0:0:
182,192,179944,1,0,0:0:0:0:
402,192,180012,1,0,0:0:0:0:
475,192,180081,1,0,0:0:0:0:
109,192,180081,1,0,0:0:0:0:
256,192,180081,1,0,0:0:0:0:
182,192,180149,1,0,0:0:0:0:
402,192,180217,1,0,0:0:0:0:
36,192,180217,1,0,0:0:0:0:
329,192,180217,1,0,0:0:0:0:
109,192,180217,1,0,0:0:0:0:
256,192,180285,1,0,0:0:0:0:
475,192,180353,1,0,0:0:0:0:
182,192,180353,1,0,0:0:0:0:
329,192,180421,1,0,0:0:0:0:
475,192,180490,1,0,0:0:0:0:
36,192,180490,1,0,0:0:0:0:
182,192,180490,1,0,0:0:0:0:
402,192,180490,1,0,0:0:0:0:
256,192,180558,1,0,0:0:0:0:
402,192,180626,1,0,0:0:0:0:
109,192,180626,1,0,0:0:0:0:
182,192,180694,1,0,0:0:0:0:
475,192,180762,1,0,0:0:0:0:
329,192,180762,1,0,0:0:0:0:
36,192,180762,1,0,0:0:0:0:
109,192,180762,1,0,0:0:0:0:
256,192,180831,1,0,0:0:0:0:
402,192,180899,1,0,0:0:0:0:
109,192,180899,1,0,0:0:0:0:
182,192,180967,1,0,0:0:0:0:
475,192,181035,1,0,0:0:0:0:
256,192,181035,1,0,0:0:0:0:
402,192,181035,1,0,0:0:0:0:
36,192,181035,1,0,0:0:0:0:
109,192,181035,1,0,0:0:0:0:
329,192,181035,1,0,0:0:0:0:
475,192,181171,1,0,0:0:0:0:
182,192,181171,1,0,0:0:0:0:
109,192,181171,1,0,0:0:0:0:
329,192,181171,1,0,0:0:0:0:
36,192,181171,1,0,0:0:0:0:
109,192,181308,5,0,0:0:0:0:
475,192,181308,1,0,0:0:0:0:
402,192,181308,1,0,0:0:0:0:
256,192,181308,1,0,0:0:0:0:
36,192,181308,1,0,0:0:0:0:
329,192,181376,1,0,0:0:0:0:
182,192,181444,1,0,0:0:0:0:
402,192,181444,1,0,0:0:0:0:
256,192,181512,1,0,0:0:0:0:
475,192,181581,1,0,0:0:0:0:
329,192,181581,1,0,0:0:0:0:
109,192,181581,1,0,0:0:0:0:
36,192,181581,1,0,0:0:0:0:
182,192,181649,1,0,0:0:0:0:
109,192,181717,1,0,0:0:0:0:
402,192,181717,1,0,0:0:0:0:
256,192,181785,1,0,0:0:0:0:
402,192,181853,1,0,0:0:0:0:
182,192,181853,1,0,0:0:0:0:
475,192,181853,1,0,0:0:0:0:
36,192,181853,1,0,0:0:0:0:
329,192,181921,1,0,0:0:0:0:
475,192,181990,1,0,0:0:0:0:
256,192,181990,1,0,0:0:0:0:
109,192,181990,1,0,0:0:0:0:
182,192,182058,1,0,0:0:0:0:
36,192,182126,1,0,0:0:0:0:
402,192,182126,1,0,0:0:0:0:
329,192,182126,1,0,0:0:0:0:
475,192,182126,1,0,0:0:0:0:
109,192,182194,1,0,0:0:0:0:
36,192,182262,1,0,0:0:0:0:
256,192,182262,1,0,0:0:0:0:
402,192,182262,1,0,0:0:0:0:
182,192,182331,1,0,0:0:0:0:
475,192,182399,1,0,0:0:0:0:
36,192,182399,1,0,0:0:0:0:
329,192,182399,1,0,0:0:0:0:
109,192,182399,1,0,0:0:0:0:
402,192,182467,1,0,0:0:0:0:
256,192,182535,1,0,0:0:0:0:
109,192,182535,1,0,0:0:0:0:
475,192,182535,1,0,0:0:0:0:
182,192,182603,1,0,0:0:0:0:
329,192,182671,1,0,0:0:0:0:
36,192,182671,1,0,0:0:0:0:
402,192,182671,1,0,0:0:0:0:
475,192,182671,1,0,0:0:0:0:
109,192,182740,1,0,0:0:0:0:
329,192,182808,1,0,0:0:0:0:
182,192,182808,1,0,0:0:0:0:
36,192,182808,1,0,0:0:0:0:
256,192,182876,1,0,0:0:0:0:
402,192,182944,1,0,0:0:0:0:
475,192,182944,1,0,0:0:0:0:
36,192,182944,1,0,0:0:0:0:
182,192,182944,1,0,0:0:0:0:
329,192,183012,1,0,0:0:0:0:
109,192,183081,1,0,0:0:0:0:
256,192,183081,1,0,0:0:0:0:
402,192,183149,1,0,0:0:0:0:
329,192,183217,1,0,0:0:0:0:
36,192,183217,1,0,0:0:0:0:
475,192,183217,1,0,0:0:0:0:
182,192,183217,1,0,0:0:0:0:
256,192,183285,1,0,0:0:0:0:
402,192,183353,1,0,0:0:0:0:
36,192,183353,1,0,0:0:0:0:
109,192,183353,1,0,0:0:0:0:
182,192,183421,1,0,0:0:0:0:
256,192,183490,1,0,0:0:0:0:
402,192,183490,1,0,0:0:0:0:
36,192,183490,1,0,0:0:0:0:
475,192,183490,1,0,0:0:0:0:
329,192,183558,1,0,0:0:0:0:
182,192,183626,1,0,0:0:0:0:
475,192,183626,1,0,0:0:0:0:
109,192,183626,1,0,0:0:0:0:
402,192,183694,1,0,0:0:0:0:
475,192,183762,1,0,0:0:0:0:
329,192,183762,1,0,0:0:0:0:
182,192,183762,1,0,0:0:0:0:
36,192,183762,1,0,0:0:0:0:
256,192,183831,1,0,0:0:0:0:
109,192,183899,1,0,0:0:0:0:
402,192,183899,1,0,0:0:0:0:
182,192,183967,1,0,0:0:0:0:
256,192,184035,1,0,0:0:0:0:
329,192,184035,1,0,0:0:0:0:
36,192,184035,1,0,0:0:0:0:
475,192,184035,1,0,0:0:0:0:
182,192,184103,1,0,0:0:0:0:
109,192,184171,1,0,0:0:0:0:
329,192,184171,1,0,0:0:0:0:
402,192,184171,1,0,0:0:0:0:
256,192,184240,1,0,0:0:0:0:
182,192,184308,1,0,0:0:0:0:
402,192,184308,1,0,0:0:0:0:
475,192,184308,1,0,0:0:0:0:
36,192,184308,1,0,0:0:0:0:
329,192,184376,1,0,0:0:0:0:
256,192,184444,1,0,0:0:0:0:
109,192,184444,1,0,0:0:0:0:
402,192,184444,1,0,0:0:0:0:
182,192,184512,1,0,0:0:0:0:
36,192,184581,1,0,0:0:0:0:
109,192,184581,1,0,0:0:0:0:
402,192,184581,1,0,0:0:0:0:
475,192,184581,1,0,0:0:0:0:
256,192,184649,1,0,0:0:0:0:
329,192,184717,1,0,0:0:0:0:
109,192,184717,1,0,0:0:0:0:
182,192,184717,1,0,0:0:0:0:
402,192,184785,1,0,0:0:0:0:
256,192,184853,1,0,0:0:0:0:
36,192,184853,1,0,0:0:0:0:
109,192,184853,1,0,0:0:0:0:
475,192,184853,1,0,0:0:0:0:
182,192,184921,1,0,0:0:0:0:
109,192,184990,1,0,0:0:0:0:
329,192,184990,1,0,0:0:0:0:
402,192,184990,1,0,0:0:0:0:
256,192,185058,1,0,0:0:0:0:
182,192,185126,1,0,0:0:0:0:
402,192,185126,1,0,0:0:0:0:
36,192,185126,1,0,0:0:0:0:
475,192,185126,1,0,0:0:0:0:
256,192,185194,1,0,0:0:0:0:
109,192,185262,1,0,0:0:0:0:
329,192,185262,1,0,0:0:0:0:
402,192,185331,1,0,0:0:0:0:
256,192,185399,1,0,0:0:0:0:
109,192,185399,1,0,0:0:0:0:
36,192,185399,1,0,0:0:0:0:
475,192,185399,1,0,0:0:0:0:
182,192,185467,1,0,0:0:0:0:
329,192,185535,1,0,0:0:0:0:
402,192,185535,1,0,0:0:0:0:
109,192,185535,1,0,0:0:0:0:
36,192,185535,1,0,0:0:0:0:
256,192,185603,1,0,0:0:0:0:
182,192,185671,1,0,0:0:0:0:
402,192,185671,1,0,0:0:0:0:
475,192,185671,1,0,0:0:0:0:
36,192,185671,1,0,0:0:0:0:
109,192,185740,1,0,0:0:0:0:
256,192,185808,1,0,0:0:0:0:
402,192,185808,1,0,0:0:0:0:
475,192,185808,1,0,0:0:0:0:
36,192,185808,1,0,0:0:0:0:
182,192,185876,1,0,0:0:0:0:
329,192,185944,1,0,0:0:0:0:
109,192,185944,1,0,0:0:0:0:
475,192,185944,1,0,0:0:0:0:
36,192,185944,1,0,0:0:0:0:
402,192,186012,1,0,0:0:0:0:
182,192,186081,1,0,0:0:0:0:
329,192,186081,1,0,0:0:0:0:
109,192,186081,1,0,0:0:0:0:
475,192,186081,1,0,0:0:0:0:
256,192,186149,1,0,0:0:0:0:
109,192,186217,1,0,0:0:0:0:
402,192,186217,1,0,0:0:0:0:
475,192,186217,1,0,0:0:0:0:
36,192,186217,1,0,0:0:0:0:
329,192,186285,1,0,0:0:0:0:
256,192,186353,1,0,0:0:0:0:
475,192,186353,1,0,0:0:0:0:
109,192,186353,1,0,0:0:0:0:
36,192,186353,1,0,0:0:0:0:
182,192,186421,1,0,0:0:0:0:
109,192,186490,1,0,0:0:0:0:
402,192,186490,1,0,0:0:0:0:
329,192,186490,1,0,0:0:0:0:
36,192,186490,1,0,0:0:0:0:
475,192,186558,1,0,0:0:0:0:
182,192,186626,1,0,0:0:0:0:
36,192,186626,1,0,0:0:0:0:
329,192,186626,1,0,0:0:0:0:
402,192,186626,1,0,0:0:0:0:
256,192,186694,1,0,0:0:0:0:
182,192,186762,1,0,0:0:0:0:
109,192,186762,1,0,0:0:0:0:
475,192,186762,1,0,0:0:0:0:
402,192,186762,1,0,0:0:0:0:
36,192,186762,1,0,0:0:0:0:
329,192,186831,1,0,0:0:0:0:
256,192,186899,1,0,0:0:0:0:
475,192,186899,1,0,0:0:0:0:
109,192,186899,1,0,0:0:0:0:
36,192,186899,1,0,0:0:0:0:
402,192,186967,1,0,0:0:0:0:
109,192,187035,1,0,0:0:0:0:
182,192,187035,1,0,0:0:0:0:
36,192,187035,1,0,0:0:0:0:
329,192,187035,1,0,0:0:0:0:
475,192,187103,1,0,0:0:0:0:
36,192,187171,1,0,0:0:0:0:
182,192,187171,1,0,0:0:0:0:
329,192,187171,1,0,0:0:0:0:
402,192,187171,1,0,0:0:0:0:
256,192,187240,1,0,0:0:0:0:
402,192,187308,1,0,0:0:0:0:
329,192,187308,1,0,0:0:0:0:
475,192,187308,1,0,0:0:0:0:
109,192,187308,1,0,0:0:0:0:
182,192,187376,1,0,0:0:0:0:
256,192,187444,1,0,0:0:0:0:
109,192,187444,1,0,0:0:0:0:
475,192,187444,1,0,0:0:0:0:
36,192,187444,1,0,0:0:0:0:
402,192,187512,1,0,0:0:0:0:
329,192,187581,1,0,0:0:0:0:
182,192,187581,1,0,0:0:0:0:
36,192,187581,1,0,0:0:0:0:
475,192,187581,1,0,0:0:0:0:
256,192,187649,1,0,0:0:0:0:
109,192,187717,1,0,0:0:0:0:
182,192,187717,1,0,0:0:0:0:
402,192,187717,1,0,0:0:0:0:
475,192,187717,1,0,0:0:0:0:
329,192,187785,1,0,0:0:0:0:
256,192,187853,1,0,0:0:0:0:
475,192,187853,1,0,0:0:0:0:
109,192,187853,1,0,0:0:0:0:
36,192,187853,1,0,0:0:0:0:
329,192,187921,1,0,0:0:0:0:
402,192,187921,1,0,0:0:0:0:
109,192,187990,1,0,0:0:0:0:
182,192,187990,1,0,0:0:0:0:
402,192,188058,1,0,0:0:0:0:
475,192,188058,1,0,0:0:0:0:
36,192,188126,1,0,0:0:0:0:
256,192,188126,1,0,0:0:0:0:
109,192,188126,1,0,0:0:0:0:
402,192,188194,1,0,0:0:0:0:
329,192,188194,1,0,0:0:0:0:
109,192,188262,1,0,0:0:0:0:
182,192,188262,1,0,0:0:0:0:
402,192,188331,1,0,0:0:0:0:
475,192,188331,1,0,0:0:0:0:
256,192,188399,1,0,0:0:0:0:
36,192,188399,1,0,0:0:0:0:
109,192,188399,1,0,0:0:0:0:
329,192,188467,1,0,0:0:0:0:
402,192,188467,1,0,0:0:0:0:
36,192,188535,1,0,0:0:0:0:
109,192,188535,1,0,0:0:0:0:
182,192,188603,1,0,0:0:0:0:
256,192,188603,1,0,0:0:0:0:
475,192,188671,1,0,0:0:0:0:
402,192,188671,1,0,0:0:0:0:
329,192,188671,1,0,0:0:0:0:
182,192,188740,1,0,0:0:0:0:
109,192,188740,1,0,0:0:0:0:
402,192,188808,1,0,0:0:0:0:
329,192,188808,1,0,0:0:0:0:
182,192,188876,1,0,0:0:0:0:
256,192,188876,1,0,0:0:0:0:
36,192,188944,1,0,0:0:0:0:
109,192,188944,1,0,0:0:0:0:
475,192,188944,1,0,0:0:0:0:
329,192,189012,1,0,0:0:0:0:
402,192,189012,1,0,0:0:0:0:
256,192,189081,1,0,0:0:0:0:
109,192,189081,1,0,0:0:0:0:
182,192,189081,1,0,0:0:0:0:
402,192,189149,1,0,0:0:0:0:
475,192,189149,1,0,0:0:0:0:
36,192,189217,1,0,0:0:0:0:
109,192,189217,1,0,0:0:0:0:
182,192,189217,1,0,0:0:0:0:
329,192,189285,1,0,0:0:0:0:
256,192,189285,1,0,0:0:0:0:
402,192,189353,1,0,0:0:0:0:
475,192,189353,1,0,0:0:0:0:
36,192,189421,1,0,0:0:0:0:
109,192,189421,1,0,0:0:0:0:
182,192,189421,1,0,0:0:0:0:
329,192,189490,1,0,0:0:0:0:
475,192,189490,1,0,0:0:0:0:
402,192,189490,1,0,0:0:0:0:
256,192,189558,1,0,0:0:0:0:
182,192,189558,1,0,0:0:0:0:
36,192,189626,1,0,0:0:0:0:
109,192,189626,1,0,0:0:0:0:
475,192,189626,1,0,0:0:0:0:
402,192,189694,1,0,0:0:0:0:
329,192,189694,1,0,0:0:0:0:
256,192,189694,1,0,0:0:0:0:
109,192,189762,1,0,0:0:0:0:
36,192,189762,1,0,0:0:0:0:
182,192,189762,1,0,0:0:0:0:
475,192,189831,1,0,0:0:0:0:
402,192,189831,1,0,0:0:0:0:
329,192,189831,1,0,0:0:0:0:
109,192,189899,1,0,0:0:0:0:
182,192,189899,1,0,0:0:0:0:
36,192,189899,1,0,0:0:0:0:
475,192,189967,1,0,0:0:0:0:
329,192,189967,1,0,0:0:0:0:
402,192,189967,1,0,0:0:0:0:
36,192,190035,1,0,0:0:0:0:
109,192,190035,1,0,0:0:0:0:
256,192,190035,128,0,190308:0:0:0:0:
402,192,190308,128,0,190581:0:0:0:0:
109,192,190581,128,0,190717:0:0:0:0:
475,192,190581,128,0,191671:0:0:0:0:
329,192,190717,128,0,190853:0:0:0:0:
182,192,190990,128,0,191399:0:0:0:0:
329,192,191671,128,0,191808:0:0:0:0:
109,192,191671,128,0,191808:0:0:0:0:
256,192,191808,128,0,191944:0:0:0:0:
36,192,191808,128,0,191944:0:0:0:0:
402,192,192081,128,0,192217:0:0:0:0:
182,192,192081,128,0,192217:0:0:0:0:
256,192,192217,1,0,0:0:0:0:
109,192,192217,1,0,0:0:0:0:
36,192,192217,1,0,0:0:0:0:
475,192,192217,1,0,0:0:0:0:
329,192,192285,1,0,0:0:0:0:
182,192,192285,1,0,0:0:0:0:
402,192,192353,1,0,0:0:0:0:
36,192,192353,1,0,0:0:0:0:
109,192,192421,1,0,0:0:0:0:
256,192,192421,1,0,0:0:0:0:
36,192,192490,1,0,0:0:0:0:
475,192,192490,1,0,0:0:0:0:
329,192,192490,1,0,0:0:0:0:
182,192,192490,1,0,0:0:0:0:
402,192,192626,1,0,0:0:0:0:
256,192,192626,1,0,0:0:0:0:
109,192,192626,1,0,0:0:0:0:
475,192,192626,1,0,0:0:0:0:
329,192,192762,1,0,0:0:0:0:
182,192,192762,1,0,0:0:0:0:
36,192,192762,1,0,0:0:0:0:
256,192,192831,1,0,0:0:0:0:
402,192,192831,1,0,0:0:0:0:
109,192,192899,1,0,0:0:0:0:
475,192,192899,1,0,0:0:0:0:
329,192,192967,1,0,0:0:0:0:
182,192,192967,1,0,0:0:0:0:
36,192,193035,1,0,0:0:0:0:
256,192,193035,1,0,0:0:0:0:
402,192,193035,1,0,0:0:0:0:
475,192,193035,1,0,0:0:0:0:
329,192,193171,1,0,0:0:0:0:
402,192,193171,1,0,0:0:0:0:
182,192,193171,1,0,0:0:0:0:
109,192,193171,1,0,0:0:0:0:
475,192,193308,1,0,0:0:0:0:
109,192,193308,1,0,0:0:0:0:
402,192,193308,1,0,0:0:0:0:
36,192,193308,1,0,0:0:0:0:
256,192,193308,1,0,0:0:0:0:
182,192,193444,1,0,0:0:0:0:
402,192,193444,1,0,0:0:0:0:
36,192,193444,1,0,0:0:0:0:
329,192,193444,1,0,0:0:0:0:
109,192,193581,1,0,0:0:0:0:
475,192,193581,1,0,0:0:0:0:
256,192,193581,1,0,0:0:0:0:
329,192,193581,1,0,0:0:0:0:
109,192,193717,1,0,0:0:0:0:
36,192,193717,1,0,0:0:0:0:
256,192,193717,1,0,0:0:0:0:
402,192,193717,1,0,0:0:0:0:
182,192,193853,1,0,0:0:0:0:
329,192,193853,1,0,0:0:0:0:
402,192,193990,1,0,0:0:0:0:
109,192,193990,1,0,0:0:0:0:
256,192,193990,1,0,0:0:0:0:
36,192,193990,1,0,0:0:0:0:
475,192,194126,1,0,0:0:0:0:
109,192,194126,1,0,0:0:0:0:
182,192,194126,1,0,0:0:0:0:
329,192,194126,1,0,0:0:0:0:
402,192,194262,1,0,0:0:0:0:
36,192,194262,1,0,0:0:0:0:
256,192,194262,1,0,0:0:0:0:
182,192,194262,1,0,0:0:0:0:
182,192,194399,1,0,0:0:0:0:
475,192,194399,1,0,0:0:0:0:
329,192,194399,1,0,0:0:0:0:
36,192,194399,1,0,0:0:0:0:
109,192,194467,1,0,0:0:0:0:
256,192,194467,1,0,0:0:0:0:
182,192,194535,1,0,0:0:0:0:
329,192,194535,1,0,0:0:0:0:
402,192,194603,1,0,0:0:0:0:
256,192,194603,1,0,0:0:0:0:
475,192,194671,1,0,0:0:0:0:
36,192,194671,1,0,0:0:0:0:
109,192,194671,1,0,0:0:0:0:
329,192,194671,1,0,0:0:0:0:
256,192,194808,1,0,0:0:0:0:
402,192,194808,1,0,0:0:0:0:
109,192,194808,1,0,0:0:0:0:
182,192,194808,1,0,0:0:0:0:
36,192,194944,1,0,0:0:0:0:
475,192,194944,1,0,0:0:0:0:
256,192,194944,1,0,0:0:0:0:
182,192,195012,1,0,0:0:0:0:
402,192,195012,1,0,0:0:0:0:
329,192,195081,1,0,0:0:0:0:
109,192,195081,1,0,0:0:0:0:
36,192,195149,1,0,0:0:0:0:
256,192,195149,1,0,0:0:0:0:
182,192,195217,1,0,0:0:0:0:
402,192,195217,1,0,0:0:0:0:
109,192,195285,1,0,0:0:0:0:
329,192,195285,1,0,0:0:0:0:
475,192,195353,1,0,0:0:0:0:
36,192,195353,1,0,0:0:0:0:
256,192,195353,1,0,0:0:0:0:
182,192,195421,1,0,0:0:0:0:
402,192,195421,1,0,0:0:0:0:
109,192,195490,128,0,195626:0:0:0:0:
36,192,195490,128,0,195626:0:0:0:0:
329,192,195490,128,0,195762:0:0:0:0:
402,192,195626,128,0,195762:0:0:0:0:
475,192,195626,128,0,195762:0:0:0:0:
182,192,195626,128,0,195762:0:0:0:0:
109,192,195762,128,0,195899:0:0:0:0:
36,192,195762,128,0,195899:0:0:0:0:
256,192,195762,128,0,196035:0:0:0:0:
182,192,196035,128,0,196308:0:0:0:0:
36,192,196035,128,0,196308:0:0:0:0:
475,192,196035,128,0,196581:0:0:0:0:
329,192,196035,128,0,196171:0:0:0:0:
402,192,196035,128,0,196171:0:0:0:0:
256,192,196308,128,0,196444:0:0:0:0:
402,192,196308,128,0,196581:0:0:0:0:
109,192,196308,128,0,196444:0:0:0:0:
36,192,196581,1,0,0:0:0:0:
256,192,196581,1,0,0:0:0:0:
109,192,196649,1,0,0:0:0:0:
329,192,196649,1,0,0:0:0:0:
402,192,196717,1,0,0:0:0:0:
182,192,196717,1,0,0:0:0:0:
256,192,196785,1,0,0:0:0:0:
475,192,196785,1,0,0:0:0:0:
402,192,196853,1,0,0:0:0:0:
329,192,196853,1,0,0:0:0:0:
36,192,196853,1,0,0:0:0:0:
182,192,196853,1,0,0:0:0:0:
109,192,196990,1,0,0:0:0:0:
402,192,196990,1,0,0:0:0:0:
256,192,196990,1,0,0:0:0:0:
36,192,196990,1,0,0:0:0:0:
329,192,197126,1,0,0:0:0:0:
182,192,197126,1,0,0:0:0:0:
36,192,197126,1,0,0:0:0:0:
475,192,197194,1,0,0:0:0:0:
256,192,197194,1,0,0:0:0:0:
402,192,197262,1,0,0:0:0:0:
182,192,197262,1,0,0:0:0:0:
329,192,197331,1,0,0:0:0:0:
109,192,197331,1,0,0:0:0:0:
475,192,197399,1,0,0:0:0:0:
36,192,197399,1,0,0:0:0:0:
256,192,197399,1,0,0:0:0:0:
402,192,197399,1,0,0:0:0:0:
109,192,197535,1,0,0:0:0:0:
182,192,197535,1,0,0:0:0:0:
36,192,197535,1,0,0:0:0:0:
329,192,197535,1,0,0:0:0:0:
109,192,197671,1,0,0:0:0:0:
256,192,197671,1,0,0:0:0:0:
402,192,197671,1,0,0:0:0:0:
475,192,197671,1,0,0:0:0:0:
182,192,197808,1,0,0:0:0:0:
329,192,197808,1,0,0:0:0:0:
36,192,197808,1,0,0:0:0:0:
402,192,197808,1,0,0:0:0:0:
182,192,197944,1,0,0:0:0:0:
109,192,197944,1,0,0:0:0:0:
256,192,197944,1,0,0:0:0:0:
475,192,197944,1,0,0:0:0:0:
36,192,198081,1,0,0:0:0:0:
109,192,198081,1,0,0:0:0:0:
256,192,198081,1,0,0:0:0:0:
402,192,198081,1,0,0:0:0:0:
182,192,198217,1,0,0:0:0:0:
329,192,198217,1,0,0:0:0:0:
256,192,198353,1,0,0:0:0:0:
109,192,198353,1,0,0:0:0:0:
36,192,198353,1,0,0:0:0:0:
402,192,198353,1,0,0:0:0:0:
329,192,198490,1,0,0:0:0:0:
475,192,198490,1,0,0:0:0:0:
182,192,198490,1,0,0:0:0:0:
36,192,198490,1,0,0:0:0:0:
109,192,198626,1,0,0:0:0:0:
36,192,198626,1,0,0:0:0:0:
256,192,198626,1,0,0:0:0:0:
402,192,198626,1,0,0:0:0:0:
329,192,198762,1,0,0:0:0:0:
475,192,198762,1,0,0:0:0:0:
109,192,198762,1,0,0:0:0:0:
256,192,198831,1,0,0:0:0:0:
36,192,198831,1,0,0:0:0:0:
182,192,198899,1,0,0:0:0:0:
402,192,198899,1,0,0:0:0:0:
329,192,198967,1,0,0:0:0:0:
109,192,198967,1,0,0:0:0:0:
256,192,199035,1,0,0:0:0:0:
36,192,199035,1,0,0:0:0:0:
402,192,199035,1,0,0:0:0:0:
475,192,199035,1,0,0:0:0:0:
109,192,199171,1,0,0:0:0:0:
182,192,199171,1,0,0:0:0:0:
329,192,199171,1,0,0:0:0:0:
402,192,199171,1,0,0:0:0:0:
256,192,199308,1,0,0:0:0:0:
475,192,199308,1,0,0:0:0:0:
36,192,199308,1,0,0:0:0:0:
109,192,199376,1,0,0:0:0:0:
329,192,199376,1,0,0:0:0:0:
182,192,199444,1,0,0:0:0:0:
402,192,199444,1,0,0:0:0:0:
475,192,199512,1,0,0:0:0:0:
256,192,199512,1,0,0:0:0:0:
329,192,199581,1,0,0:0:0:0:
109,192,199581,1,0,0:0:0:0:
402,192,199649,1,0,0:0:0:0:
182,192,199649,1,0,0:0:0:0:
256,192,199717,1,0,0:0:0:0:
36,192,199717,1,0,0:0:0:0:
109,192,199785,1,0,0:0:0:0:
329,192,199785,1,0,0:0:0:0:
182,192,199853,1,0,0:0:0:0:
36,192,199853,1,0,0:0:0:0:
402,192,199853,1,0,0:0:0:0:
475,192,199853,1,0,0:0:0:0:
402,192,199990,1,0,0:0:0:0:
256,192,199990,1,0,0:0:0:0:
109,192,199990,1,0,0:0:0:0:
329,192,200126,1,0,0:0:0:0:
36,192,200126,1,0,0:0:0:0:
182,192,200126,1,0,0:0:0:0:
256,192,200126,1,0,0:0:0:0:
475,192,200126,1,0,0:0:0:0:
109,192,200262,1,0,0:0:0:0:
329,192,200262,1,0,0:0:0:0:
256,192,200399,1,0,0:0:0:0:
402,192,200399,1,0,0:0:0:0:
475,192,200399,1,0,0:0:0:0:
109,192,200399,1,0,0:0:0:0:
36,192,200399,1,0,0:0:0:0:
256,192,200535,1,0,0:0:0:0:
182,192,200535,1,0,0:0:0:0:
402,192,200535,1,0,0:0:0:0:
182,192,200671,1,0,0:0:0:0:
109,192,200671,1,0,0:0:0:0:
329,192,200671,1,0,0:0:0:0:
475,192,200671,1,0,0:0:0:0:
36,192,200671,1,0,0:0:0:0:
256,192,200808,1,0,0:0:0:0:
402,192,200808,1,0,0:0:0:0:
109,192,200808,1,0,0:0:0:0:
182,192,200944,1,0,0:0:0:0:
36,192,200944,1,0,0:0:0:0:
329,192,200944,1,0,0:0:0:0:
402,192,200944,1,0,0:0:0:0:
256,192,201012,1,0,0:0:0:0:
475,192,201012,1,0,0:0:0:0:
109,192,201081,1,0,0:0:0:0:
402,192,201081,1,0,0:0:0:0:
182,192,201149,1,0,0:0:0:0:
329,192,201149,1,0,0:0:0:0:
256,192,201217,1,0,0:0:0:0:
475,192,201217,1,0,0:0:0:0:
109,192,201217,1,0,0:0:0:0:
36,192,201217,1,0,0:0:0:0:
402,192,201285,1,0,0:0:0:0:
329,192,201353,1,0,0:0:0:0:
109,192,201353,1,0,0:0:0:0:
36,192,201353,1,0,0:0:0:0:
475,192,201353,1,0,0:0:0:0:
182,192,201421,1,0,0:0:0:0:
36,192,201490,1,0,0:0:0:0:
256,192,201490,1,0,0:0:0:0:
402,192,201490,1,0,0:0:0:0:
475,192,201490,1,0,0:0:0:0:
329,192,201558,1,0,0:0:0:0:
109,192,201558,1,0,0:0:0:0:
182,192,201626,1,0,0:0:0:0:
402,192,201626,1,0,0:0:0:0:
256,192,201694,1,0,0:0:0:0:
475,192,201694,1,0,0:0:0:0:
329,192,201762,1,0,0:0:0:0:
402,192,201762,1,0,0:0:0:0:
109,192,201762,1,0,0:0:0:0:
36,192,201762,1,0,0:0:0:0:
182,192,201831,1,0,0:0:0:0:
256,192,201899,1,0,0:0:0:0:
109,192,201899,1,0,0:0:0:0:
402,192,201899,1,0,0:0:0:0:
475,192,201899,1,0,0:0:0:0:
329,192,201967,1,0,0:0:0:0:
182,192,202035,1,0,0:0:0:0:
36,192,202035,1,0,0:0:0:0:
402,192,202035,1,0,0:0:0:0:
475,192,202035,1,0,0:0:0:0:
109,192,202035,1,0,0:0:0:0:
256,192,202103,1,0,0:0:0:0:
36,192,202171,1,0,0:0:0:0:
329,192,202171,1,0,0:0:0:0:
475,192,202171,1,0,0:0:0:0:
109,192,202171,1,0,0:0:0:0:
182,192,202240,1,0,0:0:0:0:
109,192,202308,1,0,0:0:0:0:
402,192,202308,1,0,0:0:0:0:
475,192,202308,1,0,0:0:0:0:
329,192,202308,1,0,0:0:0:0:
36,192,202308,1,0,0:0:0:0:
256,192,202376,1,0,0:0:0:0:
109,192,202444,1,0,0:0:0:0:
182,192,202444,1,0,0:0:0:0:
475,192,202444,1,0,0:0:0:0:
402,192,202444,1,0,0:0:0:0:
36,192,202444,1,0,0:0:0:0:
329,192,202512,1,0,0:0:0:0:
256,192,202581,1,0,0:0:0:0:
36,192,202581,1,0,0:0:0:0:
475,192,202581,1,0,0:0:0:0:
109,192,202649,1,0,0:0:0:0:
329,192,202717,1,0,0:0:0:0:
182,192,202717,1,0,0:0:0:0:
475,192,202717,1,0,0:0:0:0:
402,192,202717,1,0,0:0:0:0:
256,192,202785,1,0,0:0:0:0:
182,192,202853,1,0,0:0:0:0:
36,192,202853,1,0,0:0:0:0:
109,192,202853,1,0,0:0:0:0:
402,192,202853,1,0,0:0:0:0:
475,192,202853,1,0,0:0:0:0:
329,192,202921,1,0,0:0:0:0:
256,192,202990,1,0,0:0:0:0:
109,192,202990,1,0,0:0:0:0:
36,192,202990,1,0,0:0:0:0:
402,192,202990,1,0,0:0:0:0:
182,192,203058,1,0,0:0:0:0:
109,192,203126,1,0,0:0:0:0:
36,192,203126,1,0,0:0:0:0:
329,192,203126,1,0,0:0:0:0:
475,192,203126,1,0,0:0:0:0:
402,192,203194,1,0,0:0:0:0:
256,192,203194,1,0,0:0:0:0:
182,192,203262,1,0,0:0:0:0:
329,192,203262,1,0,0:0:0:0:
256,192,203331,1,0,0:0:0:0:
109,192,203331,1,0,0:0:0:0:
182,192,203399,1,0,0:0:0:0:
36,192,203399,1,0,0:0:0:0:
402,192,203399,1,0,0:0:0:0:
475,192,203399,1,0,0:0:0:0:
329,192,203467,1,0,0:0:0:0:
256,192,203535,1,0,0:0:0:0:
109,192,203535,1,0,0:0:0:0:
36,192,203535,1,0,0:0:0:0:
475,192,203535,1,0,0:0:0:0:
402,192,203603,1,0,0:0:0:0:
329,192,203671,1,0,0:0:0:0:
182,192,203671,1,0,0:0:0:0:
36,192,203671,1,0,0:0:0:0:
109,192,203671,1,0,0:0:0:0:
256,192,203740,1,0,0:0:0:0:
329,192,203808,1,0,0:0:0:0:
475,192,203808,1,0,0:0:0:0:
109,192,203808,1,0,0:0:0:0:
402,192,203876,1,0,0:0:0:0:
182,192,203876,1,0,0:0:0:0:
36,192,203876,1,0,0:0:0:0:
256,192,203944,1,0,0:0:0:0:
109,192,203944,1,0,0:0:0:0:
475,192,203944,1,0,0:0:0:0:
182,192,204012,1,0,0:0:0:0:
329,192,204012,1,0,0:0:0:0:
256,192,204081,1,0,0:0:0:0:
402,192,204081,1,0,0:0:0:0:
36,192,204081,1,0,0:0:0:0:
109,192,204081,1,0,0:0:0:0:
329,192,204149,1,0,0:0:0:0:
475,192,204149,1,0,0:0:0:0:
182,192,204217,1,0,0:0:0:0:
109,192,204217,1,0,0:0:0:0:
36,192,204217,1,0,0:0:0:0:
402,192,204217,1,0,0:0:0:0:
182,192,204353,1,0,0:0:0:0:
402,192,204490,1,0,0:0:0:0:
109,192,204490,1,0,0:0:0:0:
256,192,204490,1,0,0:0:0:0:
329,192,204490,1,0,0:0:0:0:
475,192,204490,1,0,0:0:0:0:
36,192,204490,1,0,0:0:0:0:
329,192,204626,1,0,0:0:0:0:
109,192,204626,1,0,0:0:0:0:
36,192,204762,1,0,0:0:0:0:
256,192,204762,1,0,0:0:0:0:
182,192,204762,1,0,0:0:0:0:
402,192,204762,1,0,0:0:0:0:
475,192,204762,1,0,0:0:0:0:
475,192,204899,1,0,0:0:0:0:
256,192,204899,1,0,0:0:0:0:
36,192,205035,1,0,0:0:0:0:
329,192,205035,1,0,0:0:0:0:
109,192,205035,1,0,0:0:0:0:
402,192,205035,1,0,0:0:0:0:
182,192,205035,1,0,0:0:0:0:
182,192,205171,1,0,0:0:0:0:
329,192,205171,1,0,0:0:0:0:
256,192,205308,1,0,0:0:0:0:
36,192,205308,1,0,0:0:0:0:
402,192,205308,1,0,0:0:0:0:
475,192,205308,1,0,0:0:0:0:
109,192,205376,1,0,0:0:0:0:
329,192,205376,1,0,0:0:0:0:
182,192,205444,1,0,0:0:0:0:
402,192,205444,1,0,0:0:0:0:
256,192,205512,1,0,0:0:0:0:
475,192,205512,1,0,0:0:0:0:
329,192,205581,1,0,0:0:0:0:
402,192,205581,1,0,0:0:0:0:
109,192,205581,1,0,0:0:0:0:
36,192,205581,1,0,0:0:0:0:
182,192,205649,1,0,0:0:0:0:
109,192,205717,1,0,0:0:0:0:
256,192,205717,1,0,0:0:0:0:
402,192,205717,1,0,0:0:0:0:
475,192,205717,1,0,0:0:0:0:
329,192,205785,1,0,0:0:0:0:
182,192,205853,1,0,0:0:0:0:
36,192,205853,1,0,0:0:0:0:
475,192,205853,1,0,0:0:0:0:
402,192,205853,1,0,0:0:0:0:
329,192,205921,1,0,0:0:0:0:
109,192,205921,1,0,0:0:0:0:
256,192,205990,1,0,0:0:0:0:
36,192,205990,1,0,0:0:0:0:
475,192,205990,1,0,0:0:0:0:
402,192,206058,1,0,0:0:0:0:
182,192,206058,1,0,0:0:0:0:
109,192,206126,1,0,0:0:0:0:
329,192,206126,1,0,0:0:0:0:
36,192,206126,1,0,0:0:0:0:
475,192,206126,1,0,0:0:0:0:
256,192,206194,1,0,0:0:0:0:
182,192,206262,1,0,0:0:0:0:
109,192,206262,1,0,0:0:0:0:
402,192,206262,1,0,0:0:0:0:
475,192,206262,1,0,0:0:0:0:
329,192,206331,1,0,0:0:0:0:
256,192,206399,1,0,0:0:0:0:
109,192,206399,1,0,0:0:0:0:
36,192,206399,1,0,0:0:0:0:
475,192,206399,1,0,0:0:0:0:
329,192,206467,1,0,0:0:0:0:
402,192,206467,1,0,0:0:0:0:
109,192,206535,1,0,0:0:0:0:
182,192,206535,1,0,0:0:0:0:
36,192,206535,1,0,0:0:0:0:
475,192,206535,1,0,0:0:0:0:
256,192,206603,1,0,0:0:0:0:
329,192,206603,1,0,0:0:0:0:
402,192,206671,1,0,0:0:0:0:
475,192,206671,1,0,0:0:0:0:
36,192,206671,1,0,0:0:0:0:
109,192,206740,1,0,0:0:0:0:
182,192,206740,1,0,0:0:0:0:
475,192,206808,1,0,0:0:0:0:
402,192,206808,1,0,0:0:0:0:
329,192,206808,1,0,0:0:0:0:
36,192,206808,1,0,0:0:0:0:
182,192,206876,1,0,0:0:0:0:
256,192,206876,1,0,0:0:0:0:
109,192,206944,1,0,0:0:0:0:
475,192,206944,1,0,0:0:0:0:
36,192,206944,1,0,0:0:0:0:
402,192,206944,1,0,0:0:0:0:
256,192,207012,1,0,0:0:0:0:
329,192,207012,1,0,0:0:0:0:
109,192,207081,1,0,0:0:0:0:
36,192,207081,1,0,0:0:0:0:
182,192,207081,1,0,0:0:0:0:
475,192,207081,1,0,0:0:0:0:
329,192,207149,1,0,0:0:0:0:
402,192,207149,1,0,0:0:0:0:
36,192,207217,1,0,0:0:0:0:
256,192,207217,1,0,0:0:0:0:
475,192,207217,1,0,0:0:0:0:
182,192,207285,1,0,0:0:0:0:
109,192,207285,1,0,0:0:0:0:
402,192,207353,1,0,0:0:0:0:
329,192,207353,1,0,0:0:0:0:
475,192,207353,1,0,0:0:0:0:
36,192,207353,1,0,0:0:0:0:
182,192,207421,1,0,0:0:0:0:
256,192,207421,1,0,0:0:0:0:
475,192,207490,1,0,0:0:0:0:
109,192,207490,1,0,0:0:0:0:
36,192,207490,1,0,0:0:0:0:
402,192,207558,1,0,0:0:0:0:
256,192,207558,1,0,0:0:0:0:
329,192,207558,1,0,0:0:0:0:
182,192,207626,1,0,0:0:0:0:
36,192,207626,1,0,0:0:0:0:
109,192,207626,1,0,0:0:0:0:
402,192,207694,1,0,0:0:0:0:
475,192,207694,1,0,0:0:0:0:
329,192,207694,1,0,0:0:0:0:
109,192,207762,1,0,0:0:0:0:
36,192,207762,1,0,0:0:0:0:
256,192,207762,1,0,0:0:0:0:
402,192,207831,1,0,0:0:0:0:
475,192,207831,1,0,0:0:0:0:
182,192,207831,1,0,0:0:0:0:
329,192,207899,1,0,0:0:0:0:
36,192,207899,1,0,0:0:0:0:
109,192,207899,1,0,0:0:0:0:
256,192,207967,1,0,0:0:0:0:
475,192,207967,1,0,0:0:0:0:
402,192,207967,1,0,0:0:0:0:
36,192,208035,1,0,0:0:0:0:
182,192,208035,1,0,0:0:0:0:
109,192,208035,1,0,0:0:0:0:
329,192,208103,1,0,0:0:0:0:
402,192,208103,1,0,0:0:0:0:
475,192,208103,1,0,0:0:0:0:
36,192,208171,1,0,0:0:0:0:
109,192,208171,1,0,0:0:0:0:
182,192,208171,1,0,0:0:0:0:
402,192,208240,1,0,0:0:0:0:
256,192,208240,1,0,0:0:0:0:
475,192,208240,1,0,0:0:0:0:
329,192,208308,1,0,0:0:0:0:
109,192,208308,1,0,0:0:0:0:
36,192,208308,1,0,0:0:0:0:
182,192,208376,1,0,0:0:0:0:
402,192,208376,1,0,0:0:0:0:
475,192,208376,1,0,0:0:0:0:
256,192,208444,1,0,0:0:0:0:
36,192,208444,1,0,0:0:0:0:
109,192,208444,1,0,0:0:0:0:
402,192,208512,1,0,0:0:0:0:
329,192,208512,1,0,0:0:0:0:
182,192,208512,1,0,0:0:0:0:
475,192,208512,1,0,0:0:0:0:
182,192,208717,128,0,208785:0:0:0:0:
109,192,208717,128,0,208785:0:0:0:0:
36,192,208717,128,0,208785:0:0:0:0:
329,192,208717,128,0,208785:0:0:0:0:
402,192,208717,128,0,208785:0:0:0:0:
475,192,208717,128,0,208785:0:0:0:0:
36,192,208853,128,0,208921:0:0:0:0:
109,192,208853,128,0,208921:0:0:0:0:
182,192,208853,128,0,208921:0:0:0:0:
475,192,208853,128,0,208921:0:0:0:0:
402,192,208853,128,0,208921:0:0:0:0:
329,192,208853,128,0,208921:0:0:0:0:
182,192,208990,128,0,209058:0:0:0:0:
109,192,208990,128,0,209058:0:0:0:0:
36,192,208990,128,0,209058:0:0:0:0:
329,192,208990,128,0,209058:0:0:0:0:
402,192,208990,128,0,209058:0:0:0:0:
475,192,208990,128,0,209058:0:0:0:0:
329,192,209126,128,0,209331:0:0:0:0:
402,192,209126,128,0,209331:0:0:0:0:
475,192,209126,128,0,209331:0:0:0:0:
182,192,209126,128,0,209331:0:0:0:0:
109,192,209126,128,0,209331:0:0:0:0:
36,192,209126,128,0,209331:0:0:0:0:
109,192,209399,128,0,209444:0:0:0:0:
182,192,209421,128,0,209467:0:0:0:0:
256,192,209444,128,0,209490:0:0:0:0:
329,192,209467,128,0,209512:0:0:0:0:
402,192,209490,128,0,209535:0:0:0:0:
36,192,209490,128,0,209535:0:0:0:0:
475,192,209512,128,0,209558:0:0:0:0:
109,192,209512,128,0,209558:0:0:0:0:
182,192,209535,128,0,209581:0:0:0:0:
256,192,209558,128,0,209603:0:0:0:0:
329,192,209581,128,0,209626:0:0:0:0:
402,192,209603,128,0,209649:0:0:0:0:
475,192,209626,128,0,209671:0:0:0:0:
182,192,209671,1,0,0:0:0:0:
109,192,209671,1,0,0:0:0:0:
36,192,209671,1,0,0:0:0:0:
402,192,209808,1,0,0:0:0:0:
256,192,209808,1,0,0:0:0:0:
329,192,209944,1,0,0:0:0:0:
475,192,209944,1,0,0:0:0:0:
36,192,209944,1,0,0:0:0:0:
109,192,209944,128,0,210012:0:0:0:0:
182,192,210081,1,0,0:0:0:0:
402,192,210081,1,0,0:0:0:0:
256,192,210217,1,0,0:0:0:0:
475,192,210217,1,0,0:0:0:0:
36,192,210217,1,0,0:0:0:0:
182,192,210353,1,0,0:0:0:0:
329,192,210353,1,0,0:0:0:0:
36,192,210490,1,0,0:0:0:0:
256,192,210490,1,0,0:0:0:0:
475,192,210490,1,0,0:0:0:0:
402,192,210490,128,0,210558:0:0:0:0:
109,192,210626,1,0,0:0:0:0:
329,192,210626,1,0,0:0:0:0:
36,192,210762,1,0,0:0:0:0:
256,192,210762,1,0,0:0:0:0:
402,192,210762,1,0,0:0:0:0:
182,192,210899,1,0,0:0:0:0:
475,192,210899,1,0,0:0:0:0:
256,192,211035,1,0,0:0:0:0:
402,192,211035,1,0,0:0:0:0:
36,192,211035,1,0,0:0:0:0:
329,192,211035,128,0,211103:0:0:0:0:
109,192,211171,1,0,0:0:0:0:
475,192,211171,1,0,0:0:0:0:
182,192,211308,1,0,0:0:0:0:
402,192,211308,1,0,0:0:0:0:
36,192,211308,128,0,211444:0:0:0:0:
329,192,211444,1,0,0:0:0:0:
109,192,211444,128,0,211581:0:0:0:0:
182,192,211581,1,0,0:0:0:0:
402,192,211581,1,0,0:0:0:0:
36,192,211581,1,0,0:0:0:0:
256,192,211581,128,0,211649:0:0:0:0:
475,192,211717,128,0,213490:0:0:0:0:
109,192,211717,1,0,0:0:0:0:
329,192,211717,1,0,0:0:0:0:
182,192,211853,1,0,0:0:0:0:
36,192,211853,1,0,0:0:0:0:
402,192,211853,1,0,0:0:0:0:
182,192,211990,1,0,0:0:0:0:
329,192,211990,1,0,0:0:0:0:
256,192,212126,1,0,0:0:0:0:
402,192,212126,1,0,0:0:0:0:
36,192,212126,1,0,0:0:0:0:
109,192,212126,128,0,212194:0:0:0:0:
182,192,212262,1,0,0:0:0:0:
402,192,212262,1,0,0:0:0:0:
109,192,212399,1,0,0:0:0:0:
36,192,212399,1,0,0:0:0:0:
329,192,212399,1,0,0:0:0:0:
109,192,212535,1,0,0:0:0:0:
256,192,212535,1,0,0:0:0:0:
182,192,212671,1,0,0:0:0:0:
36,192,212671,1,0,0:0:0:0:
329,192,212671,1,0,0:0:0:0:
402,192,212671,128,0,212740:0:0:0:0:
109,192,212808,1,0,0:0:0:0:
329,192,212808,1,0,0:0:0:0:
182,192,212944,1,0,0:0:0:0:
36,192,212944,1,0,0:0:0:0:
402,192,212944,1,0,0:0:0:0:
182,192,213081,1,0,0:0:0:0:
329,192,213081,1,0,0:0:0:0:
256,192,213217,1,0,0:0:0:0:
109,192,213217,1,0,0:0:0:0:
402,192,213217,1,0,0:0:0:0:
36,192,213217,128,0,213285:0:0:0:0:
402,192,213353,1,0,0:0:0:0:
182,192,213353,1,0,0:0:0:0:
109,192,213490,1,0,0:0:0:0:
256,192,213490,1,0,0:0:0:0:
36,192,213490,1,0,0:0:0:0:
329,192,213558,1,0,0:0:0:0:
182,192,213626,1,0,0:0:0:0:
402,192,213626,1,0,0:0:0:0:
109,192,213762,1,0,0:0:0:0:
475,192,213762,1,0,0:0:0:0:
36,192,213762,1,0,0:0:0:0:
329,192,213762,128,0,213831:0:0:0:0:
256,192,213899,1,0,0:0:0:0:
402,192,213899,1,0,0:0:0:0:
182,192,214035,1,0,0:0:0:0:
36,192,214035,1,0,0:0:0:0:
329,192,214035,1,0,0:0:0:0:
109,192,214171,1,0,0:0:0:0:
402,192,214171,1,0,0:0:0:0:
256,192,214308,1,0,0:0:0:0:
36,192,214308,1,0,0:0:0:0:
329,192,214308,1,0,0:0:0:0:
475,192,214308,128,0,214376:0:0:0:0:
182,192,214444,1,0,0:0:0:0:
402,192,214444,1,0,0:0:0:0:
256,192,214581,1,0,0:0:0:0:
109,192,214581,1,0,0:0:0:0:
475,192,214581,1,0,0:0:0:0:
182,192,214717,1,0,0:0:0:0:
329,192,214717,1,0,0:0:0:0:
256,192,214853,1,0,0:0:0:0:
402,192,214853,1,0,0:0:0:0:
36,192,214853,1,0,0:0:0:0:
109,192,214853,128,0,214921:0:0:0:0:
182,192,214990,1,0,0:0:0:0:
475,192,214990,1,0,0:0:0:0:
402,192,215126,1,0,0:0:0:0:
36,192,215126,1,0,0:0:0:0:
256,192,215126,1,0,0:0:0:0:
109,192,215262,1,0,0:0:0:0:
329,192,215262,1,0,0:0:0:0:
36,192,215399,1,0,0:0:0:0:
256,192,215399,1,0,0:0:0:0:
475,192,215399,1,0,0:0:0:0:
402,192,215399,128,0,215467:0:0:0:0:
329,192,215535,1,0,0:0:0:0:
182,192,215535,1,0,0:0:0:0:
256,192,215671,128,0,215808:0:0:0:0:
109,192,215671,1,0,0:0:0:0:
402,192,215671,1,0,0:0:0:0:
475,192,215808,128,0,215944:0:0:0:0:
36,192,215808,1,0,0:0:0:0:
182,192,215808,1,0,0:0:0:0:
109,192,215944,1,0,0:0:0:0:
256,192,215944,1,0,0:0:0:0:
402,192,215944,1,0,0:0:0:0:
329,192,215944,128,0,216012:0:0:0:0:
36,192,216081,128,0,217853:0:0:0:0:
182,192,216081,1,0,0:0:0:0:
475,192,216081,1,0,0:0:0:0:
402,192,216217,1,0,0:0:0:0:
256,192,216217,1,0,0:0:0:0:
109,192,216217,1,0,0:0:0:0:
402,192,216353,1,0,0:0:0:0:
182,192,216353,1,0,0:0:0:0:
329,192,216490,1,0,0:0:0:0:
109,192,216490,1,0,0:0:0:0:
475,192,216490,1,0,0:0:0:0:
256,192,216490,128,0,216558:0:0:0:0:
109,192,216626,1,0,0:0:0:0:
402,192,216626,1,0,0:0:0:0:
182,192,216762,1,0,0:0:0:0:
329,192,216762,1,0,0:0:0:0:
475,192,216762,1,0,0:0:0:0:
329,192,216899,1,0,0:0:0:0:
109,192,216899,1,0,0:0:0:0:
256,192,217035,1,0,0:0:0:0:
182,192,217035,1,0,0:0:0:0:
402,192,217035,1,0,0:0:0:0:
475,192,217035,128,0,217103:0:0:0:0:
402,192,217171,1,0,0:0:0:0:
109,192,217171,1,0,0:0:0:0:
182,192,217308,1,0,0:0:0:0:
329,192,217308,1,0,0:0:0:0:
475,192,217308,1,0,0:0:0:0:
182,192,217444,1,0,0:0:0:0:
402,192,217444,1,0,0:0:0:0:
256,192,217581,1,0,0:0:0:0:
329,192,217581,1,0,0:0:0:0:
475,192,217581,1,0,0:0:0:0:
109,192,217581,128,0,217649:0:0:0:0:
256,192,217717,1,0,0:0:0:0:
402,192,217717,1,0,0:0:0:0:
329,192,217853,1,0,0:0:0:0:
475,192,217853,1,0,0:0:0:0:
182,192,217853,1,0,0:0:0:0:
36,192,217921,1,0,0:0:0:0:
109,192,217990,1,0,0:0:0:0:
256,192,217990,1,0,0:0:0:0:
182,192,218126,1,0,0:0:0:0:
475,192,218126,1,0,0:0:0:0:
36,192,218126,1,0,0:0:0:0:
329,192,218126,128,0,218194:0:0:0:0:
402,192,218262,1,0,0:0:0:0:
256,192,218262,1,0,0:0:0:0:
36,192,218399,1,0,0:0:0:0:
182,192,218399,1,0,0:0:0:0:
475,192,218399,1,0,0:0:0:0:
402,192,218433,1,0,0:0:0:0:
329,192,218467,1,0,0:0:0:0:
109,192,218501,1,0,0:0:0:0:
182,192,218535,1,0,0:0:0:0:
402,192,218569,1,0,0:0:0:0:
329,192,218603,1,0,0:0:0:0:
256,192,218637,1,0,0:0:0:0:
36,192,218671,1,0,0:0:0:0:
109,192,218706,1,0,0:0:0:0:
182,192,218740,1,0,0:0:0:0:
402,192,218774,1,0,0:0:0:0:
329,192,218808,1,0,0:0:0:0:
109,192,218842,1,0,0:0:0:0:
182,192,218876,1,0,0:0:0:0:
256,192,218910,1,0,0:0:0:0:
475,192,218944,1,0,0:0:0:0:
402,192,218978,1,0,0:0:0:0:
329,192,219012,1,0,0:0:0:0:
182,192,219046,1,0,0:0:0:0:
109,192,219081,1,0,0:0:0:0:
36,192,219115,1,0,0:0:0:0:
402,192,219149,1,0,0:0:0:0:
329,192,219183,1,0,0:0:0:0:
256,192,219217,1,0,0:0:0:0:
182,192,219251,1,0,0:0:0:0:
475,192,219285,1,0,0:0:0:0:
402,192,219319,1,0,0:0:0:0:
329,192,219353,1,0,0:0:0:0:
36,192,219387,1,0,0:0:0:0:
109,192,219421,1,0,0:0:0:0:
182,192,219456,1,0,0:0:0:0:
329,192,219490,1,0,0:0:0:0:
402,192,219524,1,0,0:0:0:0:
475,192,219558,1,0,0:0:0:0:
256,192,219592,1,0,0:0:0:0:
182,192,219626,1,0,0:0:0:0:
109,192,219660,1,0,0:0:0:0:
402,192,219694,1,0,0:0:0:0:
329,192,219728,1,0,0:0:0:0:
36,192,219762,1,0,0:0:0:0:
109,192,219796,1,0,0:0:0:0:
182,192,219831,1,0,0:0:0:0:
402,192,219865,1,0,0:0:0:0:
329,192,219899,1,0,0:0:0:0:
256,192,219933,1,0,0:0:0:0:
475,192,219967,1,0,0:0:0:0:
402,192,220001,1,0,0:0:0:0:
36,192,220035,128,0,220171:0:0:0:0:
329,192,220035,1,0,0:0:0:0:
109,192,220069,1,0,0:0:0:0:
182,192,220103,1,0,0:0:0:0:
475,192,220171,128,0,220308:0:0:0:0:
402,192,220171,1,0,0:0:0:0:
329,192,220206,1,0,0:0:0:0:
256,192,220240,1,0,0:0:0:0:
36,192,220274,1,0,0:0:0:0:
109,192,220308,1,0,0:0:0:0:
182,192,220342,1,0,0:0:0:0:
402,192,220376,1,0,0:0:0:0:
329,192,220410,1,0,0:0:0:0:
256,192,220444,128,0,222217:0:0:0:0:
36,192,220478,1,0,0:0:0:0:
182,192,220512,1,0,0:0:0:0:
475,192,220546,1,0,0:0:0:0:
329,192,220581,1,0,0:0:0:0:
109,192,220581,1,0,0:0:0:0:
109,192,220717,1,0,0:0:0:0:
402,192,220717,1,0,0:0:0:0:
36,192,220853,1,0,0:0:0:0:
182,192,220853,1,0,0:0:0:0:
329,192,220853,1,0,0:0:0:0:
475,192,220853,128,0,220921:0:0:0:0:
329,192,220990,1,0,0:0:0:0:
109,192,220990,1,0,0:0:0:0:
182,192,221126,1,0,0:0:0:0:
475,192,221126,1,0,0:0:0:0:
36,192,221126,1,0,0:0:0:0:
36,192,221262,1,0,0:0:0:0:
402,192,221262,1,0,0:0:0:0:
109,192,221399,1,0,0:0:0:0:
329,192,221399,1,0,0:0:0:0:
475,192,221399,1,0,0:0:0:0:
182,192,221399,128,0,221467:0:0:0:0:
475,192,221535,1,0,0:0:0:0:
36,192,221535,1,0,0:0:0:0:
109,192,221671,1,0,0:0:0:0:
329,192,221671,1,0,0:0:0:0:
402,192,221671,1,0,0:0:0:0:
109,192,221808,1,0,0:0:0:0:
475,192,221808,1,0,0:0:0:0:
182,192,221944,1,0,0:0:0:0:
36,192,221944,1,0,0:0:0:0:
402,192,221944,1,0,0:0:0:0:
329,192,221944,128,0,222012:0:0:0:0:
402,192,222081,1,0,0:0:0:0:
109,192,222081,1,0,0:0:0:0:
329,192,222217,1,0,0:0:0:0:
36,192,222217,1,0,0:0:0:0:
182,192,222217,1,0,0:0:0:0:
475,192,222285,1,0,0:0:0:0:
402,192,222353,1,0,0:0:0:0:
256,192,222353,1,0,0:0:0:0:
329,192,222490,1,0,0:0:0:0:
182,192,222490,1,0,0:0:0:0:
475,192,222490,1,0,0:0:0:0:
36,192,222490,128,0,222558:0:0:0:0:
109,192,222626,1,0,0:0:0:0:
256,192,222626,1,0,0:0:0:0:
182,192,222762,1,0,0:0:0:0:
36,192,222762,1,0,0:0:0:0:
402,192,222762,1,0,0:0:0:0:
329,192,222899,1,0,0:0:0:0:
475,192,222899,1,0,0:0:0:0:
256,192,223035,1,0,0:0:0:0:
109,192,223035,1,0,0:0:0:0:
36,192,223035,1,0,0:0:0:0:
402,192,223035,128,0,223103:0:0:0:0:
182,192,223171,1,0,0:0:0:0:
329,192,223171,1,0,0:0:0:0:
36,192,223308,1,0,0:0:0:0:
256,192,223308,1,0,0:0:0:0:
475,192,223308,1,0,0:0:0:0:
329,192,223444,1,0,0:0:0:0:
109,192,223444,1,0,0:0:0:0:
256,192,223581,1,0,0:0:0:0:
475,192,223581,1,0,0:0:0:0:
402,192,223581,1,0,0:0:0:0:
182,192,223581,128,0,223649:0:0:0:0:
36,192,223717,1,0,0:0:0:0:
329,192,223717,1,0,0:0:0:0:
109,192,223853,1,0,0:0:0:0:
256,192,223853,1,0,0:0:0:0:
475,192,223853,1,0,0:0:0:0:
402,192,223990,1,0,0:0:0:0:
36,192,223990,1,0,0:0:0:0:
182,192,224126,1,0,0:0:0:0:
475,192,224126,1,0,0:0:0:0:
329,192,224126,128,0,224194:0:0:0:0:
109,192,224126,1,0,0:0:0:0:
36,192,224262,1,0,0:0:0:0:
256,192,224262,1,0,0:0:0:0:
109,192,224399,1,0,0:0:0:0:
402,192,224399,1,0,0:0:0:0:
475,192,224399,128,0,224535:0:0:0:0:
182,192,224535,128,0,224671:0:0:0:0:
329,192,224535,1,0,0:0:0:0:
36,192,224535,1,0,0:0:0:0:
109,192,224671,1,0,0:0:0:0:
256,192,224671,1,0,0:0:0:0:
475,192,224671,1,0,0:0:0:0:
402,192,224671,128,0,224740:0:0:0:0:
36,192,224808,128,0,226035:0:0:0:0:
182,192,224808,1,0,0:0:0:0:
329,192,224808,1,0,0:0:0:0:
256,192,224944,1,0,0:0:0:0:
109,192,224944,1,0,0:0:0:0:
475,192,224944,1,0,0:0:0:0:
402,192,224978,1,0,0:0:0:0:
329,192,225012,1,0,0:0:0:0:
182,192,225046,1,0,0:0:0:0:
256,192,225081,1,0,0:0:0:0:
475,192,225115,1,0,0:0:0:0:
402,192,225149,1,0,0:0:0:0:
109,192,225183,1,0,0:0:0:0:
182,192,225217,1,0,0:0:0:0:
256,192,225251,1,0,0:0:0:0:
475,192,225285,1,0,0:0:0:0:
402,192,225319,1,0,0:0:0:0:
329,192,225353,1,0,0:0:0:0:
109,192,225387,1,0,0:0:0:0:
182,192,225421,1,0,0:0:0:0:
402,192,225456,1,0,0:0:0:0:
329,192,225490,1,0,0:0:0:0:
256,192,225524,1,0,0:0:0:0:
182,192,225558,1,0,0:0:0:0:
475,192,225592,1,0,0:0:0:0:
402,192,225626,1,0,0:0:0:0:
329,192,225660,1,0,0:0:0:0:
109,192,225694,1,0,0:0:0:0:
182,192,225728,1,0,0:0:0:0:
256,192,225762,1,0,0:0:0:0:
329,192,225796,1,0,0:0:0:0:
475,192,225831,1,0,0:0:0:0:
402,192,225865,1,0,0:0:0:0:
182,192,225899,1,0,0:0:0:0:
256,192,225933,1,0,0:0:0:0:
329,192,225967,1,0,0:0:0:0:
402,192,226001,1,0,0:0:0:0:
109,192,226035,128,0,226171:0:0:0:0:
475,192,226035,128,0,226171:0:0:0:0:
256,192,226171,128,0,226308:0:0:0:0:
402,192,226171,128,0,226308:0:0:0:0:
329,192,226308,128,0,226444:0:0:0:0:
182,192,226308,128,0,226444:0:0:0:0:
36,192,226308,128,0,226444:0:0:0:0:
256,192,226444,128,0,226581:0:0:0:0:
475,192,226444,128,0,226581:0:0:0:0:
109,192,226581,128,0,226717:0:0:0:0:
329,192,226581,128,0,226717:0:0:0:0:
402,192,226581,128,0,226717:0:0:0:0:
182,192,226717,128,0,226853:0:0:0:0:
36,192,226717,128,0,226853:0:0:0:0:
256,192,226853,128,0,226990:0:0:0:0:
402,192,226853,128,0,226990:0:0:0:0:
475,192,226853,1,0,0:0:0:0:
329,192,226990,1,0,0:0:0:0:
109,192,226990,1,0,0:0:0:0:
36,192,226990,1,0,0:0:0:0:
182,192,226990,1,0,0:0:0:0:
475,192,226990,1,0,0:0:0:0:
