osu file format v14

[General]
AudioFilename: 105-march-ahead.mp3
AudioLeadIn: 0
PreviewTime: 7968
Countdown: 0
SampleSet: Normal
StackLeniency: 0.7
Mode: 1
LetterboxInBreaks: 0
WidescreenStoryboard: 0

[Editor]
DistanceSpacing: 1.2
BeatDivisor: 2
GridSize: 16
TimelineZoom: 1

[Metadata]
Title:March Ahead
TitleUnicode:野をこえ川をこえどこまでも
Artist:Yuka Tsujiyoko
ArtistUnicode:辻横由佳
Creator:-Tenshi-
Version:Kantan
Source:マリオストーリー
Tags:paper mario rpg n64 intelligent systems nintendo soundtrack game ost Kazaze
BeatmapID:1098226
BeatmapSetID:516809

[Difficulty]
HPDrainRate:7
CircleSize:2
OverallDifficulty:4
ApproachRate:5
SliderMultiplier:1.4
SliderTickRate:1

[Events]
//Background and Video events
0,0,"bg.jpg",0,0
//Break Periods
//Storyboard Layer 0 (Background)
//Storyboard Layer 1 (Fail)
//Storyboard Layer 2 (Pass)
//Storyboard Layer 3 (Foreground)
//Storyboard Sound Samples

[TimingPoints]
696,454.545454545455,4,1,0,60,1,0
7968,-100,4,1,0,60,0,1
22514,-100,4,1,0,40,0,0
26150,-100,4,1,0,60,0,0
29786,-100,4,1,0,60,0,1
44332,-100,4,1,0,40,0,0
47968,-100,4,1,0,60,0,0

[HitObjects]
320,144,696,5,0,0:0:0:0:
128,80,1605,1,8,0:0:0:0:
192,112,2514,1,0,0:0:0:0:
128,80,4332,1,0,0:0:0:0:
112,144,5241,1,8,0:0:0:0:
128,144,6150,1,0,0:0:0:0:
208,192,7514,1,4,0:0:0:0:
240,144,7968,1,0,0:0:0:0:
256,160,8877,1,8,0:0:0:0:
240,128,9786,1,0,0:0:0:0:
160,144,10241,1,0,0:0:0:0:
272,128,10696,1,8,0:0:0:0:
208,128,11605,1,0,0:0:0:0:
208,128,12514,1,8,0:0:0:0:
208,128,13423,1,0,0:0:0:0:
208,128,13877,1,8,0:0:0:0:
208,128,14332,1,0,0:0:0:0:
192,96,15241,1,0,0:0:0:0:
176,80,16150,1,8,0:0:0:0:
224,176,16605,1,0,0:0:0:0:
96,128,17059,1,0,0:0:0:0:
160,128,17968,1,8,0:0:0:0:
144,144,18877,1,8,0:0:0:0:
160,224,19332,1,8,0:0:0:0:
144,144,19786,1,0,0:0:0:0:
144,144,20696,1,0,0:0:0:0:
144,144,21605,1,0,0:0:0:0:
160,96,22059,1,8,0:0:0:0:
160,96,22514,1,0,0:0:0:0:
224,144,23423,1,0,0:0:0:0:
176,144,24332,1,0,0:0:0:0:
272,112,26150,1,8,0:0:0:0:
272,112,27059,1,8,0:0:0:0:
272,112,27968,1,8,0:0:0:0:
256,160,29332,1,12,0:0:0:0:
240,176,29786,1,0,0:0:0:0:
256,160,30696,1,8,0:0:0:0:
240,128,31605,1,0,0:0:0:0:
160,144,32060,1,0,0:0:0:0:
272,128,32515,1,8,0:0:0:0:
208,128,33424,1,0,0:0:0:0:
208,128,34333,1,8,0:0:0:0:
208,128,35242,1,0,0:0:0:0:
208,128,35696,1,8,0:0:0:0:
208,128,36151,1,0,0:0:0:0:
192,96,37060,1,0,0:0:0:0:
176,80,37969,1,8,0:0:0:0:
64,144,38423,1,0,0:0:0:0:
96,128,38878,1,0,0:0:0:0:
144,144,39786,1,8,0:0:0:0:
144,144,40696,1,8,0:0:0:0:
160,224,41151,1,8,0:0:0:0:
144,144,41605,1,0,0:0:0:0:
144,144,42515,1,0,0:0:0:0:
144,144,43424,1,0,0:0:0:0:
160,96,43878,1,8,0:0:0:0:
160,96,44333,1,0,0:0:0:0:
224,144,45242,1,0,0:0:0:0:
176,144,46151,1,0,0:0:0:0:
272,112,47969,1,8,0:0:0:0:
272,112,48878,1,8,0:0:0:0:
272,112,49787,1,8,0:0:0:0:
256,160,51151,1,12,0:0:0:0:
