osu file format v14

[General]
AudioFilename: 105-march-ahead.mp3
AudioLeadIn: 0
PreviewTime: 7968
Countdown: 0
SampleSet: Normal
StackLeniency: 0.7
Mode: 1
LetterboxInBreaks: 0
WidescreenStoryboard: 0

[Editor]
DistanceSpacing: 1.4
BeatDivisor: 4
GridSize: 32
TimelineZoom: 1

[Metadata]
Title:March Ahead
TitleUnicode:野をこえ川をこえどこまでも
Artist:Yuka Tsujiyoko
ArtistUnicode:辻横由佳
Creator:-Tenshi-
Version:Oni
Source:マリオストーリー
Tags:paper mario rpg n64 intelligent systems nintendo soundtrack game ost Kazaze
BeatmapID:1098217
BeatmapSetID:516809

[Difficulty]
HPDrainRate:6
CircleSize:5
OverallDifficulty:5.5
ApproachRate:5
SliderMultiplier:1.4
SliderTickRate:1

[Events]
//Background and Video events
0,0,"bg.jpg",0,0
//Break Periods
//Storyboard Layer 0 (Background)
//Storyboard Layer 1 (Fail)
//Storyboard Layer 2 (Pass)
//Storyboard Layer 3 (Foreground)
//Storyboard Sound Samples

[TimingPoints]
696,454.545454545455,4,1,0,60,1,0
7968,-100,4,1,0,60,0,1
22514,-100,4,1,0,40,0,0
26150,-100,4,1,0,60,0,0
29786,-100,4,1,0,60,0,1
44332,-100,4,1,0,40,0,0
47968,-100,4,1,0,60,0,0

[HitObjects]
256,160,696,5,8,0:0:0:0:
224,96,923,1,8,0:0:0:0:
208,80,1036,1,8,0:0:0:0:
224,96,1150,1,0,0:0:0:0:
224,96,1377,1,0,0:0:0:0:
192,128,1605,1,0,0:0:0:0:
176,64,1718,1,0,0:0:0:0:
176,64,1832,1,8,0:0:0:0:
176,64,2059,1,8,0:0:0:0:
176,64,2286,1,0,0:0:0:0:
144,80,2514,1,8,0:0:0:0:
144,80,2741,1,8,0:0:0:0:
144,64,2855,1,8,0:0:0:0:
208,96,2968,1,0,0:0:0:0:
112,64,3196,1,0,0:0:0:0:
144,128,3423,1,8,0:0:0:0:
144,96,3650,1,0,0:0:0:0:
144,96,3877,1,0,0:0:0:0:
176,160,4332,1,8,0:0:0:0:
208,112,4559,1,8,0:0:0:0:
224,64,4673,1,8,0:0:0:0:
224,64,4786,1,0,0:0:0:0:
112,80,5014,1,8,0:0:0:0:
112,80,5241,1,0,0:0:0:0:
112,80,5468,1,0,0:0:0:0:
112,80,5582,1,0,0:0:0:0:
160,64,5696,1,0,0:0:0:0:
160,64,5923,1,8,0:0:0:0:
160,64,6150,1,0,0:0:0:0:
208,80,6377,1,8,0:0:0:0:
176,96,6491,1,8,0:0:0:0:
208,80,6605,1,0,0:0:0:0:
224,64,6832,1,0,0:0:0:0:
224,64,7059,1,8,0:0:0:0:
256,192,7514,1,4,0:0:0:0:
128,112,7968,1,0,0:0:0:0:
192,192,8196,1,8,0:0:0:0:
160,96,8423,1,0,0:0:0:0:
128,96,8650,1,0,0:0:0:0:
160,96,8764,1,0,0:0:0:0:
192,96,8877,1,8,0:0:0:0:
128,80,9105,1,8,0:0:0:0:
128,80,9332,1,0,0:0:0:0:
112,128,9786,1,8,0:0:0:0:
112,128,10014,1,8,0:0:0:0:
144,64,10241,1,0,0:0:0:0:
176,112,10468,1,0,0:0:0:0:
112,128,10582,1,8,0:0:0:0:
176,112,10696,1,0,0:0:0:0:
176,64,10923,1,8,0:0:0:0:
176,64,11150,1,0,0:0:0:0:
224,208,11605,1,0,0:0:0:0:
144,192,11832,1,8,0:0:0:0:
144,192,12059,1,8,0:0:0:0:
160,112,12286,1,8,0:0:0:0:
192,144,12400,1,0,0:0:0:0:
160,112,12514,1,0,0:0:0:0:
208,96,12741,1,8,0:0:0:0:
208,96,12968,1,0,0:0:0:0:
128,96,13423,1,0,0:0:0:0:
128,96,13650,1,0,0:0:0:0:
128,96,13877,1,8,0:0:0:0:
128,96,14105,1,0,0:0:0:0:
112,96,14218,1,8,0:0:0:0:
128,96,14332,1,8,0:0:0:0:
192,64,14559,1,8,0:0:0:0:
192,64,14786,1,0,0:0:0:0:
192,64,15241,1,8,0:0:0:0:
192,64,15468,1,0,0:0:0:0:
192,64,15696,1,8,0:0:0:0:
192,64,15923,1,8,0:0:0:0:
192,64,16150,1,0,0:0:0:0:
160,176,16377,1,8,0:0:0:0:
176,144,16491,1,8,0:0:0:0:
176,144,16605,1,0,0:0:0:0:
208,112,16832,1,8,0:0:0:0:
160,128,16946,1,0,0:0:0:0:
208,112,17059,1,0,0:0:0:0:
160,112,17286,1,0,0:0:0:0:
160,112,17400,1,8,0:0:0:0:
96,128,17514,1,8,0:0:0:0:
144,160,17741,1,8,0:0:0:0:
144,160,17855,1,8,0:0:0:0:
144,160,17968,1,0,0:0:0:0:
192,80,18196,1,8,0:0:0:0:
192,80,18309,1,0,0:0:0:0:
192,80,18423,1,0,0:0:0:0:
192,80,18650,1,0,0:0:0:0:
192,80,18764,1,0,0:0:0:0:
192,80,18877,1,8,0:0:0:0:
192,80,19105,1,8,0:0:0:0:
192,80,19332,1,0,0:0:0:0:
192,128,19559,1,8,0:0:0:0:
192,128,19786,1,0,0:0:0:0:
192,128,19900,1,0,0:0:0:0:
192,128,20014,1,8,0:0:0:0:
192,128,20241,1,8,0:0:0:0:
192,176,20468,1,0,0:0:0:0:
224,176,20696,1,8,0:0:0:0:
240,96,20923,1,0,0:0:0:0:
208,128,21036,1,0,0:0:0:0:
208,128,21150,1,8,0:0:0:0:
208,144,21377,1,0,0:0:0:0:
208,144,21605,1,8,0:0:0:0:
208,144,21832,1,0,0:0:0:0:
208,128,22059,1,0,0:0:0:0:
208,128,22514,1,0,0:0:0:0:
208,128,22741,1,8,0:0:0:0:
208,128,22968,1,0,0:0:0:0:
208,128,23196,1,0,0:0:0:0:
208,112,23423,1,0,0:0:0:0:
208,112,23536,1,0,0:0:0:0:
208,112,23650,1,0,0:0:0:0:
208,112,23877,1,8,0:0:0:0:
208,112,24105,1,8,0:0:0:0:
208,112,24332,1,0,0:0:0:0:
208,112,24559,1,8,0:0:0:0:
208,112,24786,1,0,0:0:0:0:
208,112,25014,1,0,0:0:0:0:
208,112,25241,1,8,0:0:0:0:
208,112,25468,1,0,0:0:0:0:
256,112,25696,1,0,0:0:0:0:
240,192,26150,1,8,0:0:0:0:
240,192,26377,1,0,0:0:0:0:
240,192,26605,1,8,0:0:0:0:
272,160,26832,1,8,0:0:0:0:
272,160,27059,1,8,0:0:0:0:
272,160,27173,1,8,0:0:0:0:
272,160,27286,1,8,0:0:0:0:
176,192,27514,1,0,0:0:0:0:
176,192,27741,1,0,0:0:0:0:
160,128,27968,1,8,0:0:0:0:
160,112,28196,1,0,0:0:0:0:
176,128,28423,1,8,0:0:0:0:
176,128,28650,1,8,0:0:0:0:
160,144,28877,1,0,0:0:0:0:
176,144,29105,1,8,0:0:0:0:
176,144,29332,1,12,0:0:0:0:
128,112,29786,1,0,0:0:0:0:
128,128,30014,1,8,0:0:0:0:
160,96,30241,1,0,0:0:0:0:
128,96,30468,1,0,0:0:0:0:
160,96,30582,1,0,0:0:0:0:
192,96,30695,1,8,0:0:0:0:
128,80,30923,1,8,0:0:0:0:
128,80,31150,1,0,0:0:0:0:
112,128,31604,1,8,0:0:0:0:
112,128,31832,1,8,0:0:0:0:
144,64,32059,1,0,0:0:0:0:
176,112,32286,1,0,0:0:0:0:
112,128,32400,1,8,0:0:0:0:
176,112,32514,1,0,0:0:0:0:
176,64,32741,1,8,0:0:0:0:
176,64,32968,1,0,0:0:0:0:
224,208,33423,1,0,0:0:0:0:
144,192,33650,1,8,0:0:0:0:
144,192,33877,1,8,0:0:0:0:
160,112,34104,1,8,0:0:0:0:
192,144,34218,1,0,0:0:0:0:
160,112,34332,1,0,0:0:0:0:
208,96,34559,1,8,0:0:0:0:
208,96,34786,1,0,0:0:0:0:
128,96,35241,1,0,0:0:0:0:
128,96,35468,1,0,0:0:0:0:
128,96,35695,1,8,0:0:0:0:
128,96,35923,5,0,0:0:0:0:
112,96,36037,1,8,0:0:0:0:
128,96,36150,1,8,0:0:0:0:
192,64,36377,1,8,0:0:0:0:
192,64,36604,1,0,0:0:0:0:
192,64,37059,1,8,0:0:0:0:
192,64,37286,1,0,0:0:0:0:
192,64,37514,1,8,0:0:0:0:
192,64,37741,1,8,0:0:0:0:
192,64,37968,1,0,0:0:0:0:
160,176,38195,1,8,0:0:0:0:
176,144,38309,1,8,0:0:0:0:
176,144,38423,1,0,0:0:0:0:
208,112,38650,1,8,0:0:0:0:
160,128,38764,1,0,0:0:0:0:
208,112,38877,1,0,0:0:0:0:
160,112,39104,1,0,0:0:0:0:
160,112,39218,1,8,0:0:0:0:
96,128,39332,1,8,0:0:0:0:
144,160,39559,1,8,0:0:0:0:
144,160,39673,1,8,0:0:0:0:
144,160,39786,1,0,0:0:0:0:
192,80,40014,1,8,0:0:0:0:
192,80,40127,1,0,0:0:0:0:
192,80,40241,1,0,0:0:0:0:
192,80,40468,1,0,0:0:0:0:
192,80,40582,1,0,0:0:0:0:
192,80,40695,1,8,0:0:0:0:
192,80,40923,1,8,0:0:0:0:
192,80,41150,1,0,0:0:0:0:
192,128,41377,1,8,0:0:0:0:
192,128,41604,1,0,0:0:0:0:
192,128,41718,1,0,0:0:0:0:
192,128,41832,1,8,0:0:0:0:
192,128,42059,1,8,0:0:0:0:
192,176,42286,1,0,0:0:0:0:
224,176,42514,1,8,0:0:0:0:
240,96,42741,1,0,0:0:0:0:
208,128,42854,1,0,0:0:0:0:
208,128,42968,1,8,0:0:0:0:
208,144,43195,1,0,0:0:0:0:
208,144,43423,1,8,0:0:0:0:
208,144,43650,1,0,0:0:0:0:
208,128,43877,1,0,0:0:0:0:
208,128,44332,1,0,0:0:0:0:
208,128,44559,1,8,0:0:0:0:
208,128,44786,1,0,0:0:0:0:
208,128,45014,1,0,0:0:0:0:
208,112,45241,1,0,0:0:0:0:
208,112,45354,1,0,0:0:0:0:
208,112,45468,1,0,0:0:0:0:
208,112,45695,1,8,0:0:0:0:
208,112,45923,1,8,0:0:0:0:
208,112,46150,1,0,0:0:0:0:
208,112,46377,1,8,0:0:0:0:
208,112,46604,1,0,0:0:0:0:
208,112,46832,1,0,0:0:0:0:
208,112,47059,1,8,0:0:0:0:
208,112,47286,1,0,0:0:0:0:
256,112,47514,1,0,0:0:0:0:
240,192,47968,1,8,0:0:0:0:
240,192,48195,1,0,0:0:0:0:
240,192,48423,1,8,0:0:0:0:
272,160,48650,1,8,0:0:0:0:
272,160,48877,1,8,0:0:0:0:
272,160,48991,1,8,0:0:0:0:
272,160,49104,1,8,0:0:0:0:
176,192,49332,1,0,0:0:0:0:
176,192,49559,1,0,0:0:0:0:
160,128,49786,1,8,0:0:0:0:
160,112,50014,1,0,0:0:0:0:
176,128,50241,1,8,0:0:0:0:
176,128,50468,1,8,0:0:0:0:
160,144,50695,1,0,0:0:0:0:
176,144,50923,1,8,0:0:0:0:
176,144,51150,1,12,0:0:0:0:
