osu file format v14

[General]
AudioFilename: 105-march-ahead.mp3
AudioLeadIn: 0
PreviewTime: 7968
Countdown: 0
SampleSet: Normal
StackLeniency: 0.7
Mode: 1
LetterboxInBreaks: 0
WidescreenStoryboard: 0

[Editor]
DistanceSpacing: 1.2
BeatDivisor: 4
GridSize: 16
TimelineZoom: 1

[Metadata]
Title:March Ahead
TitleUnicode:野をこえ川をこえどこまでも
Artist:Yuka Tsujiyoko
ArtistUnicode:辻横由佳
Creator:-Tenshi-
Version:Kazaze's Muzukashii
Source:マリオストーリー
Tags:paper mario rpg n64 intelligent systems nintendo soundtrack game ost Kazaze
BeatmapID:1100364
BeatmapSetID:516809

[Difficulty]
HPDrainRate:6
CircleSize:5
OverallDifficulty:5
ApproachRate:5
SliderMultiplier:1.4
SliderTickRate:1

[Events]
//Background and Video events
0,0,"bg.jpg",0,0
//Break Periods
//Storyboard Layer 0 (Background)
//Storyboard Layer 1 (Fail)
//Storyboard Layer 2 (Pass)
//Storyboard Layer 3 (Foreground)
//Storyboard Sound Samples

[TimingPoints]
696,454.545454545455,4,1,0,60,1,0
7968,-100,4,1,0,60,0,1
22514,-100,4,1,0,40,0,0
26150,-100,4,1,0,60,0,0
29786,-100,4,1,0,60,0,1
44332,-100,4,1,0,40,0,0
47968,-100,4,1,0,60,0,0

[HitObjects]
336,256,696,5,2,0:0:0:0:
336,256,923,1,0,0:0:0:0:
336,256,1150,1,0,0:0:0:0:
320,256,1605,1,0,0:0:0:0:
320,256,1718,1,0,0:0:0:0:
320,256,1832,1,0,0:0:0:0:
320,256,2059,1,0,0:0:0:0:
352,240,2286,1,2,0:0:0:0:
320,256,2514,1,0,0:0:0:0:
320,256,2968,1,2,0:0:0:0:
336,208,3423,1,2,0:0:0:0:
336,208,3650,1,0,0:0:0:0:
336,208,3877,1,0,0:0:0:0:
352,192,4332,1,2,0:0:0:0:
320,192,4559,1,0,0:0:0:0:
320,192,4786,1,0,0:0:0:0:
336,208,5241,1,0,0:0:0:0:
336,208,5468,1,0,0:0:0:0:
336,208,5696,1,2,0:0:0:0:
272,192,6150,1,0,0:0:0:0:
272,192,6377,1,2,0:0:0:0:
288,160,6605,1,0,0:0:0:0:
288,160,6832,1,2,0:0:0:0:
288,160,7059,1,0,0:0:0:0:
304,144,7514,1,4,0:0:0:0:
320,208,7968,1,2,0:0:0:0:
320,208,8196,1,2,0:0:0:0:
320,208,8423,1,0,0:0:0:0:
320,208,8650,1,2,0:0:0:0:
320,208,8877,1,2,0:0:0:0:
320,208,9332,1,0,0:0:0:0:
320,208,9786,1,2,0:0:0:0:
320,208,10014,1,0,0:0:0:0:
320,208,10241,1,2,0:0:0:0:
320,208,10468,1,0,0:0:0:0:
320,208,10696,1,0,0:0:0:0:
288,176,11150,1,2,0:0:0:0:
288,176,11605,1,2,0:0:0:0:
288,176,11832,1,2,0:0:0:0:
288,176,12059,1,0,0:0:0:0:
288,176,12286,1,2,0:0:0:0:
288,176,12514,1,2,0:0:0:0:
288,176,12968,1,0,0:0:0:0:
288,176,13423,1,2,0:0:0:0:
288,176,13650,1,0,0:0:0:0:
288,176,13877,1,2,0:0:0:0:
288,176,14105,1,0,0:0:0:0:
288,176,14332,1,2,0:0:0:0:
288,176,14786,1,0,0:0:0:0:
240,80,15241,1,2,0:0:0:0:
240,80,15468,1,0,0:0:0:0:
240,80,15696,1,2,0:0:0:0:
240,80,15923,1,0,0:0:0:0:
240,80,16150,1,0,0:0:0:0:
240,80,16377,1,2,0:0:0:0:
240,80,16491,1,2,0:0:0:0:
240,80,16605,1,2,0:0:0:0:
320,144,16832,1,0,0:0:0:0:
320,144,16946,1,0,0:0:0:0:
320,144,17059,1,0,0:0:0:0:
256,256,17514,1,0,0:0:0:0:
288,48,17968,1,2,0:0:0:0:
256,256,18423,1,0,0:0:0:0:
288,48,18877,1,2,0:0:0:0:
288,48,19105,1,0,0:0:0:0:
288,48,19332,1,0,0:0:0:0:
288,48,19559,1,2,0:0:0:0:
288,48,19786,1,0,0:0:0:0:
288,48,19900,1,0,0:0:0:0:
288,64,20014,1,0,0:0:0:0:
288,64,20241,1,2,0:0:0:0:
288,64,20696,1,0,0:0:0:0:
320,112,20923,1,2,0:0:0:0:
320,112,21150,1,0,0:0:0:0:
320,112,21377,1,0,0:0:0:0:
320,112,21605,1,2,0:0:0:0:
320,112,21832,1,0,0:0:0:0:
320,112,22059,1,2,0:0:0:0:
384,192,22514,1,2,0:0:0:0:
384,192,23423,1,0,0:0:0:0:
384,192,23536,1,0,0:0:0:0:
304,224,23650,1,0,0:0:0:0:
352,224,23877,1,2,0:0:0:0:
352,224,24332,1,0,0:0:0:0:
352,224,24786,1,2,0:0:0:0:
352,224,25241,1,0,0:0:0:0:
352,224,25468,1,0,0:0:0:0:
352,224,25696,1,2,0:0:0:0:
384,192,26150,1,2,0:0:0:0:
384,192,26605,1,0,0:0:0:0:
384,192,27059,1,0,0:0:0:0:
384,192,27173,1,0,0:0:0:0:
304,224,27286,1,0,0:0:0:0:
352,224,27514,1,2,0:0:0:0:
352,224,27968,1,0,0:0:0:0:
352,224,28196,1,2,0:0:0:0:
352,224,28423,1,0,0:0:0:0:
352,224,28877,1,2,0:0:0:0:
352,224,29105,1,0,0:0:0:0:
352,224,29332,1,6,0:0:0:0:
320,208,29786,1,2,0:0:0:0:
320,208,30014,1,2,0:0:0:0:
320,208,30241,1,0,0:0:0:0:
320,208,30468,1,2,0:0:0:0:
320,208,30696,1,2,0:0:0:0:
320,208,31150,1,0,0:0:0:0:
320,208,31605,1,2,0:0:0:0:
320,208,31832,1,0,0:0:0:0:
320,208,32059,1,2,0:0:0:0:
320,208,32286,1,0,0:0:0:0:
320,208,32514,1,0,0:0:0:0:
288,176,32968,1,2,0:0:0:0:
288,176,33423,1,2,0:0:0:0:
288,176,33650,1,2,0:0:0:0:
288,176,33877,1,0,0:0:0:0:
288,176,34105,1,2,0:0:0:0:
288,176,34332,1,2,0:0:0:0:
288,176,34786,1,0,0:0:0:0:
288,176,35241,1,2,0:0:0:0:
288,176,35468,1,0,0:0:0:0:
288,176,35696,1,2,0:0:0:0:
288,176,35923,1,0,0:0:0:0:
288,176,36150,1,2,0:0:0:0:
288,176,36605,1,0,0:0:0:0:
240,80,37059,1,2,0:0:0:0:
240,80,37286,1,0,0:0:0:0:
240,80,37514,1,2,0:0:0:0:
240,80,37741,1,0,0:0:0:0:
240,80,37968,1,0,0:0:0:0:
240,80,38196,1,2,0:0:0:0:
208,192,38309,1,8,0:0:0:0:
240,80,38423,1,2,0:0:0:0:
320,144,38650,1,0,0:0:0:0:
320,144,38764,1,0,0:0:0:0:
320,144,38877,1,0,0:0:0:0:
272,48,39332,1,0,0:0:0:0:
288,48,39786,1,2,0:0:0:0:
384,256,40241,1,0,0:0:0:0:
288,48,40696,1,2,0:0:0:0:
288,48,40923,1,0,0:0:0:0:
288,48,41150,1,0,0:0:0:0:
288,48,41377,1,2,0:0:0:0:
288,48,41605,1,0,0:0:0:0:
288,48,41718,1,0,0:0:0:0:
288,64,41832,1,0,0:0:0:0:
288,64,42059,1,2,0:0:0:0:
288,64,42514,1,0,0:0:0:0:
320,112,42741,1,2,0:0:0:0:
320,112,42968,1,0,0:0:0:0:
320,112,43196,1,0,0:0:0:0:
320,112,43423,1,2,0:0:0:0:
320,112,43650,1,0,0:0:0:0:
320,112,43877,1,2,0:0:0:0:
384,192,44332,1,2,0:0:0:0:
384,192,45241,1,0,0:0:0:0:
384,192,45354,1,0,0:0:0:0:
304,224,45468,1,0,0:0:0:0:
352,224,45695,1,2,0:0:0:0:
352,224,46150,1,0,0:0:0:0:
352,224,46604,1,2,0:0:0:0:
352,224,47059,1,0,0:0:0:0:
352,224,47286,1,0,0:0:0:0:
352,224,47514,1,2,0:0:0:0:
384,192,47968,1,2,0:0:0:0:
384,192,48423,1,0,0:0:0:0:
384,192,48877,1,0,0:0:0:0:
384,192,48991,1,0,0:0:0:0:
304,224,49104,1,0,0:0:0:0:
352,224,49332,1,2,0:0:0:0:
352,224,49786,1,0,0:0:0:0:
352,224,50014,1,2,0:0:0:0:
352,224,50241,1,0,0:0:0:0:
352,224,50695,1,2,0:0:0:0:
352,224,50923,1,0,0:0:0:0:
352,224,51150,1,6,0:0:0:0:
