osu file format v14

[General]
AudioFilename: audio.mp3
AudioLeadIn: 0
PreviewTime: 38370
Countdown: 0
SampleSet: None
StackLeniency: 0.7
Mode: 1
LetterboxInBreaks: 0
WidescreenStoryboard: 0

[Editor]
DistanceSpacing: 2.1
BeatDivisor: 4
GridSize: 4
TimelineZoom: 3.399999

[Metadata]
Title:Beauty Is A Mad Mistress
TitleUnicode:Beauty Is A Mad Mistress
Artist:Yuka Tsujiyoko
ArtistUnicode:Yuka Tsujiyoko
Creator:Player-
Version:Heron
Source:Fire Emblem: Radiant Dawn
Tags:oliver
BeatmapID:2145314
BeatmapSetID:1025798

[Difficulty]
HPDrainRate:6
CircleSize:5
OverallDifficulty:5.3
ApproachRate:10
SliderMultiplier:1.4
SliderTickRate:1

[Events]
//Background and Video events
0,0,"image.jpg",0,0
//Break Periods
//Storyboard Layer 0 (Background)
//Storyboard Layer 1 (Fail)
//Storyboard Layer 2 (Pass)
//Storyboard Layer 3 (Foreground)
//Storyboard Layer 4 (Overlay)
//Storyboard Sound Samples

[TimingPoints]
30,240,4,1,0,80,1,0
13710,-133.333333333333,4,1,0,80,0,0
17310,-111.111111111111,4,1,0,80,0,0
21630,-133.333333333333,4,1,0,80,0,0
34830,-128.205128205128,4,1,0,80,0,0
35070,-123.456790123457,4,1,0,80,0,0
35310,-119.047619047619,4,1,0,80,0,0
35550,-114.942528735632,4,1,0,80,0,0
35790,-111.111111111111,4,1,0,80,0,0
36030,-107.52688172043,4,1,0,80,0,0
36270,-104.166666666667,4,1,0,80,0,0
36510,-101.010101010101,4,1,0,80,0,0
37950,-102.040816326531,4,1,0,80,0,0
38070,-103.092783505155,4,1,0,80,0,0
38190,-102.040816326531,4,1,0,80,0,0
38310,-101.010101010101,4,1,0,80,0,0
38430,-100,4,1,0,80,0,0
52110,-133.333333333333,4,1,0,80,0,0
55710,-111.111111111111,4,1,0,80,0,0
60030,-133.333333333333,4,1,0,80,0,0
73230,-128.205128205128,4,1,0,80,0,0
73470,-123.456790123457,4,1,0,80,0,0
73710,-119.047619047619,4,1,0,80,0,0
73950,-114.942528735632,4,1,0,80,0,0
74190,-111.111111111111,4,1,0,80,0,0
74430,-107.52688172043,4,1,0,80,0,0
74670,-104.166666666667,4,1,0,80,0,0
74910,-101.010101010101,4,1,0,80,0,0
76350,-102.040816326531,4,1,0,80,0,0
76470,-103.092783505155,4,1,0,80,0,0
76590,-102.040816326531,4,1,0,80,0,0
76710,-101.010101010101,4,1,0,80,0,0
76830,-100,4,1,0,80,0,0

[HitObjects]
270,235,30,5,8,0:0:0:0:
341,232,150,1,0,0:0:0:0:
207,223,270,1,0,0:0:0:0:
181,217,390,1,8,0:0:0:0:
290,262,510,1,0,0:0:0:0:
353,256,630,1,0,0:0:0:0:
380,285,750,1,8,0:0:0:0:
269,229,870,1,0,0:0:0:0:
303,238,990,1,0,0:0:0:0:
301,239,1110,1,8,0:0:0:0:
293,275,1230,1,0,0:0:0:0:
327,276,1350,1,0,0:0:0:0:
318,272,1470,1,8,0:0:0:0:
254,263,1590,1,0,0:0:0:0:
297,240,1710,1,8,0:0:0:0:
288,226,1770,1,8,0:0:0:0:
279,296,1830,1,0,0:0:0:0:
306,266,1950,1,12,0:0:0:0:
336,307,2070,1,0,0:0:0:0:
336,307,2130,1,0,0:0:0:0:
336,307,2190,1,8,0:0:0:0:
323,315,2310,1,0,0:0:0:0:
239,243,2430,1,8,0:0:0:0:
239,249,2490,1,8,0:0:0:0:
249,249,2550,1,0,0:0:0:0:
279,283,2610,1,0,0:0:0:0:
283,292,2670,1,8,0:0:0:0:
240,271,2790,1,8,0:0:0:0:
218,231,2910,1,8,0:0:0:0:
220,203,3030,1,8,0:0:0:0:
278,215,3090,1,8,0:0:0:0:
230,259,3150,1,0,0:0:0:0:
243,240,3270,1,8,0:0:0:0:
284,267,3390,1,0,0:0:0:0:
238,169,3510,1,0,0:0:0:0:
262,196,3570,1,0,0:0:0:0:
261,199,3630,1,8,0:0:0:0:
281,208,3750,1,0,0:0:0:0:
290,211,3870,1,8,0:0:0:0:
226,249,3930,1,8,0:0:0:0:
245,226,3990,1,0,0:0:0:0:
244,267,4050,1,0,0:0:0:0:
252,277,4110,1,0,0:0:0:0:
264,292,4230,1,0,0:0:0:0:
267,292,4350,1,8,0:0:0:0:
231,283,4590,1,0,0:0:0:0:
256,282,4710,1,0,0:0:0:0:
247,271,4830,1,8,0:0:0:0:
226,317,4890,1,8,0:0:0:0:
231,315,4950,1,0,0:0:0:0:
238,312,5070,1,8,0:0:0:0:
180,245,5190,1,8,0:0:0:0:
188,249,5310,1,0,0:0:0:0:
213,264,5370,1,8,0:0:0:0:
214,272,5430,1,0,0:0:0:0:
237,319,5490,1,0,0:0:0:0:
242,318,5550,1,8,0:0:0:0:
233,277,5670,1,0,0:0:0:0:
253,263,5790,1,8,0:0:0:0:
241,202,5850,1,8,0:0:0:0:
247,201,5910,1,0,0:0:0:0:
349,251,6030,1,0,0:0:0:0:
332,239,6150,1,0,0:0:0:0:
293,215,6270,1,8,0:0:0:0:
279,178,6510,1,8,0:0:0:0:
279,178,6630,1,0,0:0:0:0:
271,171,6690,1,0,0:0:0:0:
279,178,6750,1,8,0:0:0:0:
346,194,6990,1,8,0:0:0:0:
289,174,7110,1,0,0:0:0:0:
288,174,7230,1,8,0:0:0:0:
280,271,7470,1,8,0:0:0:0:
272,248,7590,1,0,0:0:0:0:
273,242,7710,1,8,0:0:0:0:
225,235,7770,1,8,0:0:0:0:
186,213,7830,1,0,0:0:0:0:
225,214,7950,1,8,0:0:0:0:
272,226,8070,1,0,0:0:0:0:
281,226,8130,1,0,0:0:0:0:
297,229,8190,1,8,0:0:0:0:
282,248,8310,1,0,0:0:0:0:
281,247,8430,1,8,0:0:0:0:
254,237,8550,1,8,0:0:0:0:
264,241,8610,1,0,0:0:0:0:
272,246,8670,1,8,0:0:0:0:
267,260,8910,1,8,0:0:0:0:
250,263,9030,1,0,0:0:0:0:
252,263,9090,1,0,0:0:0:0:
263,266,9150,1,8,0:0:0:0:
264,267,9270,1,0,0:0:0:0:
272,272,9390,1,8,0:0:0:0:
339,291,9510,1,8,0:0:0:0:
311,250,9570,1,0,0:0:0:0:
302,207,9630,1,8,0:0:0:0:
319,214,9750,1,8,0:0:0:0:
204,207,9870,1,8,0:0:0:0:
294,189,9990,1,0,0:0:0:0:
296,218,10110,1,0,0:0:0:0:
293,230,10230,1,8,0:0:0:0:
238,158,10350,1,8,0:0:0:0:
257,203,10470,1,0,0:0:0:0:
292,281,10590,1,8,0:0:0:0:
213,202,10650,1,0,0:0:0:0:
212,203,10710,1,8,0:0:0:0:
234,207,10770,1,0,0:0:0:0:
239,215,10830,1,8,0:0:0:0:
279,259,10950,1,8,0:0:0:0:
297,258,11070,1,0,0:0:0:0:
380,308,11190,1,0,0:0:0:0:
385,306,11310,1,8,0:0:0:0:
299,257,11430,1,0,0:0:0:0:
297,255,11550,1,8,0:0:0:0:
275,145,12030,1,8,0:0:0:0:
275,176,12270,1,8,0:0:0:0:
332,164,12390,1,0,0:0:0:0:
259,217,12510,1,8,0:0:0:0:
267,247,12750,1,0,0:0:0:0:
267,247,12870,1,0,0:0:0:0:
211,228,12990,1,8,0:0:0:0:
262,268,13350,1,0,0:0:0:0:
270,264,13470,1,12,0:0:0:0:
324,244,13710,1,0,0:0:0:0:
303,214,13950,1,0,0:0:0:0:
324,218,14190,1,8,0:0:0:0:
307,219,14430,1,0,0:0:0:0:
284,220,14670,1,0,0:0:0:0:
280,227,14910,1,8,0:0:0:0:
304,261,15390,1,8,0:0:0:0:
274,252,15630,1,8,0:0:0:0:
237,237,15690,1,0,0:0:0:0:
264,248,15750,1,8,0:0:0:0:
287,249,15870,1,8,0:0:0:0:
266,285,16110,1,8,0:0:0:0:
265,266,16350,1,0,0:0:0:0:
253,264,16590,1,0,0:0:0:0:
266,285,16830,1,8,0:0:0:0:
251,251,17310,1,12,0:0:0:0:
299,196,17550,1,12,0:0:0:0:
240,262,17790,1,8,0:0:0:0:
240,220,17910,1,8,0:0:0:0:
252,227,18030,1,0,0:0:0:0:
249,212,18270,1,4,0:0:0:0:
330,275,18510,1,0,0:0:0:0:
261,276,18750,1,8,0:0:0:0:
247,271,18870,1,0,0:0:0:0:
277,270,18990,1,8,0:0:0:0:
188,243,19230,1,4,0:0:0:0:
205,244,19470,1,4,0:0:0:0:
205,237,19710,1,0,0:0:0:0:
210,240,19830,1,0,0:0:0:0:
227,244,19950,1,8,0:0:0:0:
218,264,20190,1,4,0:0:0:0:
247,278,20430,1,0,0:0:0:0:
274,237,20550,1,8,0:0:0:0:
274,302,20670,1,8,0:0:0:0:
277,307,20910,1,8,0:0:0:0:
290,216,21150,1,0,0:0:0:0:
301,286,21630,1,0,0:0:0:0:
274,324,22110,1,8,0:0:0:0:
274,324,22350,1,0,0:0:0:0:
264,316,22590,1,8,0:0:0:0:
213,282,22830,1,0,0:0:0:0:
222,279,23070,1,8,0:0:0:0:
264,307,23550,1,0,0:0:0:0:
288,313,24030,1,8,0:0:0:0:
246,324,24270,1,0,0:0:0:0:
264,296,24510,1,8,0:0:0:0:
255,296,24870,1,0,0:0:0:0:
254,297,24990,1,8,0:0:0:0:
241,307,25470,1,8,0:0:0:0:
241,304,25710,1,0,0:0:0:0:
245,288,25950,1,0,0:0:0:0:
199,294,26430,1,0,0:0:0:0:
265,322,26910,1,8,0:0:0:0:
311,303,27390,1,8,0:0:0:0:
291,305,27870,1,0,0:0:0:0:
286,285,28350,1,0,0:0:0:0:
276,304,28830,1,8,0:0:0:0:
312,313,29310,1,0,0:0:0:0:
204,195,29790,1,8,0:0:0:0:
285,299,30030,1,0,0:0:0:0:
285,299,30270,1,8,0:0:0:0:
275,305,30510,1,0,0:0:0:0:
251,203,30750,1,8,0:0:0:0:
287,242,31230,1,8,0:0:0:0:
281,245,31710,1,8,0:0:0:0:
285,247,31950,1,0,0:0:0:0:
281,245,32190,1,8,0:0:0:0:
265,252,32430,1,0,0:0:0:0:
283,254,32670,1,8,0:0:0:0:
279,284,33390,1,8,0:0:0:0:
274,283,33630,1,0,0:0:0:0:
265,286,34110,1,0,0:0:0:0:
286,263,34590,1,0,0:0:0:0:
266,155,34830,1,12,0:0:0:0:
278,243,35070,1,0,0:0:0:0:
263,252,35310,1,12,0:0:0:0:
283,253,35550,1,0,0:0:0:0:
261,255,35790,1,12,0:0:0:0:
282,259,36030,1,0,0:0:0:0:
282,259,36270,1,12,0:0:0:0:
291,265,36510,1,4,0:0:0:0:
293,142,36750,1,4,0:0:0:0:
396,245,36990,1,0,0:0:0:0:
305,160,37110,1,0,0:0:0:0:
350,200,37230,1,8,0:0:0:0:
350,200,37350,1,8,0:0:0:0:
360,197,37470,1,4,0:0:0:0:
250,192,37710,1,4,0:0:0:0:
291,201,37950,1,8,0:0:0:0:
299,209,38070,1,0,0:0:0:0:
287,222,38190,1,0,0:0:0:0:
288,222,38310,1,0,0:0:0:0:
283,239,38430,1,8,0:0:0:0:
345,117,38550,1,0,0:0:0:0:
345,149,38670,1,0,0:0:0:0:
345,149,38790,1,8,0:0:0:0:
280,224,38910,1,0,0:0:0:0:
268,220,39030,1,0,0:0:0:0:
271,215,39150,1,8,0:0:0:0:
250,234,39270,1,0,0:0:0:0:
252,236,39390,1,0,0:0:0:0:
214,276,39510,1,8,0:0:0:0:
272,294,39630,1,0,0:0:0:0:
255,293,39750,1,0,0:0:0:0:
258,293,39870,1,8,0:0:0:0:
272,302,39990,1,0,0:0:0:0:
270,302,40110,1,8,0:0:0:0:
238,277,40170,1,8,0:0:0:0:
246,286,40230,1,0,0:0:0:0:
333,295,40350,1,12,0:0:0:0:
336,307,40470,1,0,0:0:0:0:
336,307,40590,1,8,0:0:0:0:
283,179,40650,1,0,0:0:0:0:
210,145,40710,1,8,0:0:0:0:
239,243,40830,1,8,0:0:0:0:
249,249,40950,1,0,0:0:0:0:
279,283,41010,1,0,0:0:0:0:
283,292,41070,1,8,0:0:0:0:
240,271,41190,1,0,0:0:0:0:
218,231,41310,1,8,0:0:0:0:
220,203,41430,1,8,0:0:0:0:
278,215,41490,1,8,0:0:0:0:
230,259,41550,1,0,0:0:0:0:
243,240,41670,1,8,0:0:0:0:
284,267,41790,1,0,0:0:0:0:
238,169,41910,1,0,0:0:0:0:
262,196,41970,1,0,0:0:0:0:
261,199,42030,1,8,0:0:0:0:
258,125,42090,1,0,0:0:0:0:
252,124,42150,1,8,0:0:0:0:
290,211,42270,1,8,0:0:0:0:
226,249,42330,1,8,0:0:0:0:
245,226,42390,1,0,0:0:0:0:
244,267,42450,1,0,0:0:0:0:
252,277,42510,1,0,0:0:0:0:
264,292,42630,1,0,0:0:0:0:
267,292,42750,1,8,0:0:0:0:
316,226,42810,1,8,0:0:0:0:
320,226,42870,1,8,0:0:0:0:
231,283,42990,1,0,0:0:0:0:
256,282,43110,1,0,0:0:0:0:
247,271,43230,1,8,0:0:0:0:
226,317,43290,1,8,0:0:0:0:
231,315,43350,1,0,0:0:0:0:
238,312,43470,1,0,0:0:0:0:
180,245,43590,1,0,0:0:0:0:
188,249,43710,1,8,0:0:0:0:
213,264,43770,1,0,0:0:0:0:
214,272,43830,1,8,0:0:0:0:
237,319,43890,1,8,0:0:0:0:
242,318,43950,1,0,0:0:0:0:
233,277,44070,1,0,0:0:0:0:
253,263,44190,1,8,0:0:0:0:
241,202,44250,1,8,0:0:0:0:
247,201,44310,1,0,0:0:0:0:
349,251,44430,1,0,0:0:0:0:
332,239,44550,1,0,0:0:0:0:
247,211,44610,1,0,0:0:0:0:
293,215,44670,1,8,0:0:0:0:
261,158,44790,1,0,0:0:0:0:
279,178,44910,1,8,0:0:0:0:
279,178,45030,1,0,0:0:0:0:
271,171,45090,1,0,0:0:0:0:
279,178,45150,1,8,0:0:0:0:
360,254,45270,1,8,0:0:0:0:
350,268,45390,1,0,0:0:0:0:
289,174,45510,1,0,0:0:0:0:
288,174,45630,1,8,0:0:0:0:
272,248,45750,1,0,0:0:0:0:
272,248,45810,1,0,0:0:0:0:
280,271,45870,1,8,0:0:0:0:
277,248,45930,1,8,0:0:0:0:
272,248,45990,1,0,0:0:0:0:
273,242,46110,1,8,0:0:0:0:
186,213,46230,1,0,0:0:0:0:
225,214,46350,1,8,0:0:0:0:
272,226,46470,1,0,0:0:0:0:
281,226,46530,1,0,0:0:0:0:
297,229,46590,1,8,0:0:0:0:
282,248,46710,1,0,0:0:0:0:
281,247,46830,1,8,0:0:0:0:
254,237,46950,1,8,0:0:0:0:
264,241,47010,1,0,0:0:0:0:
272,246,47070,1,8,0:0:0:0:
291,198,47190,1,0,0:0:0:0:
267,260,47310,1,8,0:0:0:0:
250,263,47430,1,0,0:0:0:0:
252,263,47490,1,0,0:0:0:0:
263,266,47550,1,8,0:0:0:0:
264,267,47670,1,0,0:0:0:0:
272,272,47790,1,8,0:0:0:0:
339,291,47910,1,8,0:0:0:0:
311,250,47970,1,0,0:0:0:0:
302,207,48030,1,8,0:0:0:0:
319,214,48150,1,8,0:0:0:0:
204,207,48270,1,8,0:0:0:0:
294,189,48390,1,0,0:0:0:0:
296,218,48510,1,0,0:0:0:0:
293,230,48630,1,8,0:0:0:0:
238,158,48750,1,8,0:0:0:0:
239,117,48810,1,8,0:0:0:0:
257,203,48870,1,0,0:0:0:0:
292,281,48990,1,8,0:0:0:0:
213,202,49050,1,0,0:0:0:0:
212,203,49110,1,8,0:0:0:0:
234,207,49170,1,0,0:0:0:0:
239,215,49230,1,8,0:0:0:0:
279,259,49350,1,8,0:0:0:0:
297,258,49470,1,0,0:0:0:0:
380,308,49590,1,0,0:0:0:0:
385,306,49710,1,8,0:0:0:0:
299,257,49830,1,0,0:0:0:0:
297,255,49950,1,8,0:0:0:0:
313,274,50430,1,0,0:0:0:0:
337,267,50910,1,8,0:0:0:0:
311,283,51390,1,8,0:0:0:0:
299,258,51750,1,8,0:0:0:0:
288,227,51870,1,4,0:0:0:0:
363,253,52110,1,0,0:0:0:0:
328,263,52350,1,0,0:0:0:0:
325,286,52590,1,8,0:0:0:0:
279,228,52830,1,8,0:0:0:0:
279,228,53070,1,0,0:0:0:0:
290,213,53310,1,8,0:0:0:0:
352,228,53790,1,8,0:0:0:0:
345,226,54030,1,8,0:0:0:0:
276,213,54090,1,0,0:0:0:0:
277,211,54150,1,8,0:0:0:0:
273,237,54270,1,8,0:0:0:0:
366,270,54510,1,8,0:0:0:0:
310,250,54750,1,0,0:0:0:0:
303,245,54990,1,0,0:0:0:0:
283,253,55230,1,8,0:0:0:0:
278,254,55710,1,4,0:0:0:0:
281,218,55950,1,4,0:0:0:0:
288,246,56190,1,8,0:0:0:0:
276,236,56250,1,8,0:0:0:0:
273,225,56310,1,0,0:0:0:0:
268,235,56430,1,0,0:0:0:0:
347,279,56670,1,4,0:0:0:0:
245,239,56910,1,0,0:0:0:0:
265,239,57150,1,8,0:0:0:0:
265,239,57390,1,8,0:0:0:0:
250,239,57630,1,4,0:0:0:0:
227,190,57870,1,0,0:0:0:0:
295,231,57930,1,8,0:0:0:0:
287,230,57990,1,0,0:0:0:0:
288,230,58050,1,0,0:0:0:0:
295,231,58110,1,8,0:0:0:0:
239,236,58230,1,0,0:0:0:0:
241,235,58350,1,8,0:0:0:0:
263,237,58590,1,4,0:0:0:0:
298,295,58830,1,0,0:0:0:0:
268,267,59070,1,8,0:0:0:0:
268,267,59310,1,8,0:0:0:0:
237,206,59550,1,0,0:0:0:0:
342,273,60030,1,0,0:0:0:0:
360,253,60510,1,8,0:0:0:0:
312,247,60750,1,0,0:0:0:0:
314,231,60990,1,8,0:0:0:0:
288,288,61230,1,0,0:0:0:0:
298,265,61470,1,8,0:0:0:0:
318,252,61950,1,8,0:0:0:0:
223,227,62430,1,8,0:0:0:0:
254,288,62670,1,0,0:0:0:0:
264,284,62910,1,8,0:0:0:0:
262,286,63150,1,0,0:0:0:0:
281,284,63390,1,8,0:0:0:0:
308,281,63870,1,8,0:0:0:0:
249,171,64110,1,8,0:0:0:0:
251,241,64350,1,0,0:0:0:0:
344,323,64830,1,0,0:0:0:0:
264,255,65310,1,8,0:0:0:0:
276,265,65550,1,0,0:0:0:0:
276,289,65670,1,0,0:0:0:0:
285,289,65790,1,8,0:0:0:0:
266,308,66030,1,8,0:0:0:0:
264,303,66270,1,0,0:0:0:0:
268,302,66750,1,0,0:0:0:0:
268,302,67230,1,8,0:0:0:0:
289,285,67710,1,0,0:0:0:0:
306,288,68190,1,8,0:0:0:0:
311,287,68430,1,0,0:0:0:0:
328,282,68670,1,8,0:0:0:0:
317,303,68910,1,0,0:0:0:0:
294,293,69150,1,8,0:0:0:0:
303,338,69270,1,0,0:0:0:0:
271,330,69390,1,0,0:0:0:0:
288,330,69510,1,0,0:0:0:0:
312,311,69630,1,8,0:0:0:0:
284,339,69750,1,0,0:0:0:0:
284,339,69870,1,8,0:0:0:0:
303,338,69990,1,8,0:0:0:0:
283,357,70110,1,0,0:0:0:0:
286,336,70350,1,0,0:0:0:0:
317,351,70590,1,8,0:0:0:0:
315,345,70830,1,0,0:0:0:0:
317,351,71070,1,8,0:0:0:0:
267,338,71310,1,0,0:0:0:0:
244,347,71430,1,0,0:0:0:0:
258,342,71550,1,8,0:0:0:0:
265,364,71670,1,0,0:0:0:0:
259,357,71790,1,8,0:0:0:0:
254,361,71910,1,8,0:0:0:0:
267,356,72030,1,0,0:0:0:0:
279,348,72510,1,0,0:0:0:0:
239,333,72990,1,0,0:0:0:0:
248,333,73230,1,12,0:0:0:0:
278,328,73470,1,0,0:0:0:0:
309,339,73710,1,12,0:0:0:0:
273,292,73950,1,0,0:0:0:0:
306,333,74190,1,12,0:0:0:0:
304,310,74430,1,0,0:0:0:0:
260,273,74670,1,4,0:0:0:0:
281,280,74910,1,12,0:0:0:0:
268,262,75150,1,12,0:0:0:0:
317,318,75390,1,0,0:0:0:0:
265,187,75510,1,0,0:0:0:0:
278,284,75630,1,8,0:0:0:0:
281,280,75750,1,8,0:0:0:0:
265,280,75870,1,4,0:0:0:0:
284,280,76110,1,4,0:0:0:0:
284,298,76350,1,8,0:0:0:0:
261,295,76470,1,0,0:0:0:0:
236,153,76590,1,0,0:0:0:0:
265,297,76710,1,0,0:0:0:0:
247,207,76830,1,8,0:0:0:0:
341,232,76950,1,0,0:0:0:0:
207,223,77070,1,0,0:0:0:0:
181,217,77190,1,8,0:0:0:0:
290,262,77310,1,0,0:0:0:0:
353,256,77430,1,0,0:0:0:0:
380,285,77550,1,8,0:0:0:0:
269,229,77670,1,0,0:0:0:0:
303,238,77790,1,0,0:0:0:0:
301,239,77910,1,8,0:0:0:0:
293,275,78030,1,0,0:0:0:0:
327,276,78150,1,0,0:0:0:0:
318,272,78270,1,8,0:0:0:0:
254,263,78390,1,0,0:0:0:0:
297,240,78510,1,8,0:0:0:0:
288,226,78570,1,8,0:0:0:0:
279,296,78630,1,0,0:0:0:0:
306,266,78750,1,12,0:0:0:0:
336,307,78870,1,0,0:0:0:0:
336,307,78930,1,0,0:0:0:0:
336,307,78990,1,8,0:0:0:0:
323,315,79110,1,0,0:0:0:0:
239,243,79230,1,8,0:0:0:0:
239,249,79290,1,8,0:0:0:0:
249,249,79350,1,0,0:0:0:0:
279,283,79410,1,0,0:0:0:0:
283,292,79470,1,8,0:0:0:0:
240,271,79590,1,8,0:0:0:0:
218,231,79710,1,8,0:0:0:0:
220,203,79830,1,8,0:0:0:0:
278,215,79890,1,8,0:0:0:0:
230,259,79950,1,0,0:0:0:0:
243,240,80070,1,8,0:0:0:0:
284,267,80190,1,0,0:0:0:0:
238,169,80310,1,0,0:0:0:0:
262,196,80370,1,0,0:0:0:0:
261,199,80430,1,8,0:0:0:0:
281,208,80550,1,0,0:0:0:0:
290,211,80670,1,8,0:0:0:0:
226,249,80730,1,8,0:0:0:0:
245,226,80790,1,0,0:0:0:0:
244,267,80850,1,0,0:0:0:0:
252,277,80910,1,0,0:0:0:0:
264,292,81030,1,0,0:0:0:0:
267,292,81150,1,8,0:0:0:0:
231,283,81390,1,0,0:0:0:0:
256,282,81510,1,0,0:0:0:0:
247,271,81630,1,8,0:0:0:0:
226,317,81690,1,8,0:0:0:0:
231,315,81750,1,0,0:0:0:0:
238,312,81870,1,8,0:0:0:0:
180,245,81990,1,8,0:0:0:0:
188,249,82110,1,0,0:0:0:0:
213,264,82170,1,8,0:0:0:0:
214,272,82230,1,0,0:0:0:0:
237,319,82290,1,0,0:0:0:0:
242,318,82350,1,8,0:0:0:0:
233,277,82470,1,0,0:0:0:0:
253,263,82590,1,8,0:0:0:0:
241,202,82650,1,8,0:0:0:0:
247,201,82710,1,0,0:0:0:0:
349,251,82830,1,0,0:0:0:0:
332,239,82950,1,0,0:0:0:0:
293,215,83070,1,8,0:0:0:0:
279,178,83310,1,8,0:0:0:0:
279,178,83430,1,0,0:0:0:0:
271,171,83490,1,0,0:0:0:0:
279,178,83550,1,8,0:0:0:0:
346,194,83790,1,8,0:0:0:0:
289,174,83910,1,0,0:0:0:0:
288,174,84030,1,8,0:0:0:0:
280,271,84270,1,8,0:0:0:0:
272,248,84390,1,0,0:0:0:0:
273,242,84510,1,8,0:0:0:0:
225,235,84570,1,8,0:0:0:0:
186,213,84630,1,0,0:0:0:0:
225,214,84750,1,8,0:0:0:0:
272,226,84870,1,0,0:0:0:0:
281,226,84930,1,0,0:0:0:0:
297,229,84990,1,8,0:0:0:0:
282,248,85110,1,0,0:0:0:0:
281,247,85230,1,8,0:0:0:0:
254,237,85350,1,8,0:0:0:0:
264,241,85410,1,0,0:0:0:0:
272,246,85470,1,8,0:0:0:0:
267,260,85710,1,8,0:0:0:0:
250,263,85830,1,0,0:0:0:0:
252,263,85890,1,0,0:0:0:0:
263,266,85950,1,8,0:0:0:0:
264,267,86070,1,0,0:0:0:0:
272,272,86190,1,8,0:0:0:0:
339,291,86310,1,8,0:0:0:0:
311,250,86370,1,0,0:0:0:0:
302,207,86430,1,8,0:0:0:0:
319,214,86550,1,8,0:0:0:0:
204,207,86670,1,8,0:0:0:0:
294,189,86790,1,0,0:0:0:0:
296,218,86910,1,0,0:0:0:0:
293,230,87030,1,8,0:0:0:0:
238,158,87150,1,8,0:0:0:0:
257,203,87270,1,0,0:0:0:0:
292,281,87390,1,8,0:0:0:0:
213,202,87450,1,0,0:0:0:0:
212,203,87510,1,8,0:0:0:0:
234,207,87570,1,0,0:0:0:0:
239,215,87630,1,8,0:0:0:0:
279,259,87750,1,8,0:0:0:0:
297,258,87870,1,0,0:0:0:0:
380,308,87990,1,0,0:0:0:0:
385,306,88110,1,8,0:0:0:0:
299,257,88230,1,0,0:0:0:0:
297,255,88350,1,8,0:0:0:0:
275,145,88830,1,8,0:0:0:0:
275,176,89070,1,8,0:0:0:0:
332,164,89190,1,0,0:0:0:0:
259,217,89310,1,8,0:0:0:0:
267,247,89550,1,0,0:0:0:0:
267,247,89670,1,0,0:0:0:0:
211,228,89790,1,8,0:0:0:0:
262,268,90150,1,8,0:0:0:0:
270,264,90270,1,4,0:0:0:0:
