osu file format v14

[General]
AudioFilename: audio.mp3
AudioLeadIn: 0
PreviewTime: 53117
Countdown: 1
SampleSet: Normal
StackLeniency: 0.7
Mode: 0
LetterboxInBreaks: 0
WidescreenStoryboard: 0

[Editor]
Bookmarks: 25005,26339,30450,33894,52339,55117,59005,74117,75561,81228,83339,83561
DistanceSpacing: 1.2
BeatDivisor: 3
GridSize: 16
TimelineZoom: 1.7

[Metadata]
Title:Natsuiro Present (TV size)
TitleUnicode:Natsuiro Present (TV size)
Artist:Yuka Iguchi, Kana Asumi, Yoko Hikasa, Yui Ogura
ArtistUnicode:Yuka Iguchi, Kana Asumi, Yoko Hikasa, Yui Ogura
Creator:Eqeminiv
Version:Insane
Source:
Tags:
BeatmapID:2113763
BeatmapSetID:1009740

[Difficulty]
HPDrainRate:7
CircleSize:3.9
OverallDifficulty:7
ApproachRate:9.1
SliderMultiplier:1.4
SliderTickRate:1

[Events]
//Background and Video events
0,0,"bg yamasusu.jpg",0,0
//Break Periods
//Storyboard Layer 0 (Background)
//Storyboard Layer 1 (Fail)
//Storyboard Layer 2 (Pass)
//Storyboard Layer 3 (Foreground)
//Storyboard Sound Samples

[TimingPoints]
228,444.445700955343,4,1,0,100,1,0
17561,-40,4,1,0,100,0,0
18005,-66.6666666666667,4,1,0,100,0,0
25116,-76.9230769230769,4,1,0,100,0,0
31339,-166.666666666667,4,1,0,100,0,0
32228,-76.9230769230769,4,1,0,100,0,0
39339,-100,4,1,0,100,0,0
53561,-57.1428571428571,4,1,0,100,0,0
69117,-40,4,1,0,100,0,0
69561,-57.1428571428571,4,1,0,100,0,0
83783,-133.333333333333,4,1,0,100,0,0

[HitObjects]
73,256,228,5,0,0:0:0:0:
96,220,376,1,0,0:0:0:0:
145,214,524,1,0,0:0:0:0:
172,172,672,1,0,0:0:0:0:
223,171,820,1,0,0:0:0:0:
249,132,968,1,0,0:0:0:0:
293,132,1116,1,0,0:0:0:0:
293,132,1561,5,0,0:0:0:0:
396,86,2005,6,0,L|387:182,1,70
375,299,2450,1,0,0:0:0:0:
55,51,2894,5,0,0:0:0:0:
84,219,3116,1,0,0:0:0:0:
234,60,3339,1,0,0:0:0:0:
356,215,3561,6,0,L|238:221,1,105
211,223,4005,1,0,0:0:0:0:
304,84,4228,1,0,0:0:0:0:
415,238,4450,1,0,0:0:0:0:
240,353,4672,5,0,0:0:0:0:
81,289,4894,1,0,0:0:0:0:
290,171,5116,1,0,0:0:0:0:
81,289,5339,6,0,P|77:222|86:205,1,70
152,71,5783,1,0,0:0:0:0:
263,193,6005,1,0,0:0:0:0:
431,289,6228,6,0,P|434:222|425:205,1,70
360,71,6672,1,0,0:0:0:0:
333,179,6894,1,0,0:0:0:0:
283,281,7116,2,0,P|210:340|169:330,1,140
156,80,8228,5,0,0:0:0:0:
156,80,8672,1,0,0:0:0:0:
406,110,9116,5,0,0:0:0:0:
295,195,9339,1,0,0:0:0:0:
444,243,9561,1,0,0:0:0:0:
319,326,9783,1,0,0:0:0:0:
217,252,10005,2,0,L|123:256,1,70
9,264,10450,1,0,0:0:0:0:
121,82,10672,6,0,L|250:74,1,105
260,74,11116,1,0,0:0:0:0:
308,220,11339,1,0,0:0:0:0:
308,220,11783,5,0,0:0:0:0:
96,110,12005,2,0,L|61:132,1,35
269,79,12228,2,0,L|293:110,1,35
193,226,12450,1,0,0:0:0:0:
448,131,12672,5,0,0:0:0:0:
219,135,12894,1,0,0:0:0:0:
427,279,13116,1,0,0:0:0:0:
311,68,13339,1,0,0:0:0:0:
291,288,13561,2,0,L|298:212,2,70
108,256,14228,1,0,0:0:0:0:
108,256,14672,5,0,0:0:0:0:
182,124,15561,5,0,0:0:0:0:
259,156,15783,1,0,0:0:0:0:
335,189,16005,1,0,0:0:0:0:
191,276,16450,5,0,0:0:0:0:
264,235,16672,1,0,0:0:0:0:
337,195,16894,1,0,0:0:0:0:
413,160,17116,1,0,0:0:0:0:
139,195,17561,6,0,B|363:82|363:82|476:82,1,350
82,326,18450,5,0,0:0:0:0:
136,320,18598,1,0,0:0:0:0:
190,315,18746,1,0,0:0:0:0:
235,312,18894,2,0,B|312:305|312:304|312:304|343:261,1,105.000004005432
371,102,19339,2,0,L|259:115,1,105.000004005432
97,131,19783,5,0,0:0:0:0:
86,78,20228,5,0,0:0:0:0:
97,131,20376,1,0,0:0:0:0:
108,184,20524,1,0,0:0:0:0:
120,231,20672,2,0,B|141:302|141:302|183:314,1,105.000004005432
365,311,21116,2,0,L|338:198,1,105.000004005432
302,66,21561,1,0,0:0:0:0:
356,75,22005,5,0,0:0:0:0:
302,66,22153,1,0,0:0:0:0:
249,57,22301,1,0,0:0:0:0:
200,51,22449,2,0,B|126:45|126:45|99:80,1,105.000004005432
38,251,22893,2,0,L|153:266,1,105.000004005432
323,291,23339,2,0,P|336:219|373:172,1,105.000004005432
463,67,23783,1,0,0:0:0:0:
417,302,24005,1,0,0:0:0:0:
417,302,24116,1,0,0:0:0:0:
417,302,24228,1,0,0:0:0:0:
306,139,24450,5,0,0:0:0:0:
274,111,24561,1,0,0:0:0:0:
242,87,24672,1,0,0:0:0:0:
210,69,24783,1,0,0:0:0:0:
174,53,24894,1,0,0:0:0:0:
139,50,25005,1,0,0:0:0:0:
98,64,25116,5,0,0:0:0:0:
325,305,25339,1,0,0:0:0:0:
284,103,25561,1,0,0:0:0:0:
313,260,25783,1,0,0:0:0:0:
270,53,26005,2,0,L|373:40,1,90.9999958343508
407,255,26450,2,0,L|307:273,1,90.9999958343508
267,284,26783,1,0,0:0:0:0:
214,295,26894,1,0,0:0:0:0:
162,84,27116,5,0,0:0:0:0:
366,38,27339,1,0,0:0:0:0:
203,75,27561,1,0,0:0:0:0:
414,26,27783,2,0,L|463:182,1,136.499993751526
454,156,28228,2,0,P|392:175|365:208,1,90.9999958343508
240,327,28672,5,0,0:0:0:0:
245,153,28894,1,0,0:0:0:0:
66,209,29116,1,0,0:0:0:0:
115,30,29339,2,0,L|175:34,1,45.4999979171754
274,43,29561,2,0,P|337:87|339:111,1,90.9999958343508
338,218,30005,2,0,P|332:268|353:324,1,90.9999958343508
131,298,30450,6,0,L|128:245,4,45.4999979171754
124,34,31116,5,0,0:0:0:0:
156,42,31228,1,0,0:0:0:0:
192,58,31339,2,0,P|245:80|277:102,1,83.9999974365235
405,99,32228,5,0,0:0:0:0:
242,211,32450,1,0,0:0:0:0:
405,99,32672,1,0,0:0:0:0:
242,211,32894,1,0,0:0:0:0:
405,99,33116,2,0,P|328:66|285:57,1,90.9999958343508
155,42,33561,1,0,0:0:0:0:
169,249,33783,1,0,0:0:0:0:
213,223,33894,1,0,0:0:0:0:
251,203,34005,1,0,0:0:0:0:
366,354,34228,5,0,0:0:0:0:
253,211,34450,1,0,0:0:0:0:
140,68,34672,1,0,0:0:0:0:
70,276,34894,2,0,P|135:240|167:229,1,90.9999958343508
262,363,35339,2,0,P|332:328|385:310,1,90.9999958343508
332,72,35783,6,0,L|392:182,1,90.9999958343508
199,243,36228,2,0,L|292:199,1,90.9999958343508
171,102,36672,2,0,L|81:142,1,90.9999958343508
174,312,37116,1,0,0:0:0:0:
396,243,37339,1,0,0:0:0:0:
396,243,37450,1,0,0:0:0:0:
396,243,37561,2,0,P|404:124|361:73,1,181.999991668702
186,54,38228,2,0,L|126:61,2,45.4999979171754
186,54,38672,2,0,P|187:131|228:245,1,181.999991668702
219,230,39339,5,0,0:0:0:0:
358,263,39561,1,0,0:0:0:0:
453,354,39783,1,0,0:0:0:0:
438,97,40005,5,0,0:0:0:0:
438,97,40228,2,0,P|372:82|277:75,1,140
394,230,40894,1,0,0:0:0:0:
394,230,41117,2,0,P|328:215|233:208,1,140
77,213,41783,1,0,0:0:0:0:
152,47,42005,1,0,0:0:0:0:
286,196,42228,1,0,0:0:0:0:
406,49,42450,5,0,0:0:0:0:
406,49,42561,1,0,0:0:0:0:
406,49,42672,1,0,0:0:0:0:
448,302,42894,6,0,L|435:213,2,70
212,281,43561,1,0,0:0:0:0:
353,147,43783,2,0,P|389:95|395:66,1,70
242,58,44228,1,0,0:0:0:0:
154,70,44450,1,0,0:0:0:0:
52,233,44672,6,0,P|139:226|219:223,1,140
379,220,45339,1,0,0:0:0:0:
210,67,45561,1,0,0:0:0:0:
210,67,45672,1,0,0:0:0:0:
210,67,45783,1,0,0:0:0:0:
446,88,46005,5,0,0:0:0:0:
446,88,46117,1,0,0:0:0:0:
446,88,46228,1,0,0:0:0:0:
310,227,46450,6,0,P|239:239|152:250,1,140
140,57,47117,1,0,0:0:0:0:
171,247,47339,6,0,P|240:238|310:227,1,140
288,36,48005,1,0,0:0:0:0:
448,100,48228,2,0,P|457:182|461:244,1,140
284,293,48894,1,0,0:0:0:0:
284,293,49005,1,0,0:0:0:0:
284,293,49117,1,0,0:0:0:0:
264,85,49339,1,0,0:0:0:0:
72,277,50005,5,0,0:0:0:0:
251,168,50228,1,0,0:0:0:0:
40,193,50450,1,0,0:0:0:0:
303,240,50672,1,0,0:0:0:0:
71,71,50894,1,0,0:0:0:0:
270,323,51117,1,0,0:0:0:0:
148,34,51339,1,0,0:0:0:0:
161,350,51561,1,0,0:0:0:0:
270,59,51783,5,0,0:0:0:0:
299,71,51894,1,0,0:0:0:0:
324,95,52005,1,0,0:0:0:0:
344,121,52117,1,0,0:0:0:0:
359,150,52228,1,0,0:0:0:0:
183,289,52450,5,0,0:0:0:0:
164,244,52561,1,0,0:0:0:0:
127,216,52672,1,0,0:0:0:0:
94,198,53561,5,0,0:0:0:0:
339,228,53783,1,0,0:0:0:0:
239,60,54005,1,0,0:0:0:0:
494,52,54228,2,0,P|421:57|360:59,1,122.500001168251
481,281,54672,1,0,0:0:0:0:
481,281,54894,1,0,0:0:0:0:
291,308,55117,6,0,P|181:269|178:209,1,183.750001752377
182,168,55561,1,0,0:0:0:0:
329,107,55783,1,0,0:0:0:0:
214,41,56005,1,0,0:0:0:0:
86,68,56228,1,0,0:0:0:0:
316,299,56450,1,0,0:0:0:0:
316,299,56672,1,0,0:0:0:0:
47,328,56894,6,0,P|125:348|178:332,1,122.500001168251
113,165,57339,1,0,0:0:0:0:
113,165,57561,1,0,0:0:0:0:
269,46,57783,2,0,P|257:109|304:160,1,122.500001168251
459,68,58228,1,0,0:0:0:0:
459,68,58450,1,0,0:0:0:0:
432,275,58672,2,0,P|367:224|286:284,1,183.750001752377
358,311,59117,2,0,P|237:350|169:259,1,245.000002336502
126,66,59783,6,0,L|252:82,1,122.500001168251
437,289,60228,2,0,L|292:272,1,122.500001168251
268,84,60672,5,0,0:0:0:0:
169,244,60894,1,0,0:0:0:0:
379,198,61117,1,0,0:0:0:0:
379,198,61339,2,0,P|319:243|254:281,1,122.500001168251
94,76,61783,1,0,0:0:0:0:
94,76,62005,1,0,0:0:0:0:
83,293,62228,6,0,P|179:215|237:224,1,183.750001752377
270,242,62672,1,0,0:0:0:0:
197,340,62894,1,0,0:0:0:0:
335,355,63117,1,0,0:0:0:0:
447,299,63339,1,0,0:0:0:0:
308,73,63561,1,0,0:0:0:0:
308,73,63783,1,0,0:0:0:0:
184,294,64228,5,0,0:0:0:0:
48,86,64450,1,0,0:0:0:0:
61,301,64672,1,0,0:0:0:0:
192,68,64894,1,0,0:0:0:0:
222,291,65117,2,0,L|352:283,2,122.500001168251
284,51,65783,1,0,0:0:0:0:
284,51,66228,5,0,0:0:0:0:
417,339,67117,5,0,0:0:0:0:
372,200,67339,1,0,0:0:0:0:
326,60,67561,1,0,0:0:0:0:
35,101,68005,5,0,0:0:0:0:
181,80,68228,1,0,0:0:0:0:
326,60,68450,1,0,0:0:0:0:
471,41,68672,1,0,0:0:0:0:
139,231,69117,6,0,B|435:191|435:191|460:123,1,350
303,73,69783,5,0,0:0:0:0:
99,102,70005,5,0,0:0:0:0:
94,155,70117,1,0,0:0:0:0:
87,211,70228,1,0,0:0:0:0:
337,234,70450,5,0,0:0:0:0:
139,220,70672,1,0,0:0:0:0:
393,243,70894,5,0,0:0:0:0:
393,243,71005,1,0,0:0:0:0:
393,243,71117,1,0,0:0:0:0:
443,47,71339,5,0,0:0:0:0:
217,89,71561,1,0,0:0:0:0:
285,261,71783,5,0,0:0:0:0:
337,251,71894,1,0,0:0:0:0:
393,243,72005,1,0,0:0:0:0:
354,53,72228,5,0,0:0:0:0:
414,338,72450,1,0,0:0:0:0:
361,95,72672,5,0,0:0:0:0:
288,109,72783,1,0,0:0:0:0:
215,123,72894,1,0,0:0:0:0:
277,305,73117,5,0,0:0:0:0:
31,219,73339,1,0,0:0:0:0:
299,206,73561,1,0,0:0:0:0:
22,302,73783,2,0,P|90:277|112:225,1,122.500001168251
24,101,74228,2,0,P|221:27|279:63,1,245.000002336502
274,57,74783,1,0,0:0:0:0:
312,93,74894,1,0,0:0:0:0:
398,275,75117,5,0,0:0:0:0:
453,49,75339,1,0,0:0:0:0:
312,93,75561,1,0,0:0:0:0:
201,49,75783,5,0,0:0:0:0:
154,66,75894,1,0,0:0:0:0:
116,101,76005,1,0,0:0:0:0:
93,149,76117,1,0,0:0:0:0:
92,200,76228,2,0,P|126:275|171:297,1,122.500001168251
366,277,76672,5,0,0:0:0:0:
178,113,76894,1,0,0:0:0:0:
421,43,77117,5,0,0:0:0:0:
384,71,77228,1,0,0:0:0:0:
349,99,77339,1,0,0:0:0:0:
175,44,77561,5,0,0:0:0:0:
199,263,77783,1,0,0:0:0:0:
31,85,78005,5,0,0:0:0:0:
31,85,78117,1,0,0:0:0:0:
31,85,78228,1,0,0:0:0:0:
34,271,78450,5,0,0:0:0:0:
217,131,78672,1,0,0:0:0:0:
323,331,78894,5,0,0:0:0:0:
269,320,79006,1,0,0:0:0:0:
215,306,79117,1,0,0:0:0:0:
323,138,79339,5,0,0:0:0:0:
479,359,79561,1,0,0:0:0:0:
201,206,79783,5,0,0:0:0:0:
269,232,79894,1,0,0:0:0:0:
338,259,80006,1,0,0:0:0:0:
421,78,80228,5,0,0:0:0:0:
449,292,80450,1,0,0:0:0:0:
279,95,80672,1,0,0:0:0:0:
70,159,80894,2,0,B|71:234|161:283,1,122.500001168251
185,88,81339,2,0,B|191:183|274:235|366:237,1,245.000002336502
351,236,81894,1,0,0:0:0:0:
351,236,82006,2,0,B|297:224|217:310|119:237,1,245.000002336502
118,236,82672,1,0,0:0:0:0:
118,236,82783,1,0,0:0:0:0:
118,236,82894,2,0,B|110:163|99:83|264:171|259:45,1,245.000002336502
322,274,83783,5,0,0:0:0:0:
339,254,84006,1,0,0:0:0:0:
343,280,84228,1,0,0:0:0:0:
317,71,84672,2,0,B|301:89|301:89|280:88|280:88|270:73|270:73|252:89|252:89|229:85,1,105.000004005432
99,74,85339,5,0,0:0:0:0:
99,74,85783,5,0,0:0:0:0:
128,67,86006,1,0,0:0:0:0:
119,97,86450,1,0,0:0:0:0:
98,311,86894,5,0,0:0:0:0:
493,282,87339,5,0,0:0:0:0:
461,228,87487,1,0,0:0:0:0:
398,220,87635,1,0,0:0:0:0:
364,166,87783,1,0,0:0:0:0:
298,164,87931,1,0,0:0:0:0:
262,113,88079,1,0,0:0:0:0:
199,113,88227,1,0,0:0:0:0:
