osu file format v14

[General]
AudioFilename: audio.mp3
AudioLeadIn: 0
PreviewTime: -1
Countdown: 1
SampleSet: Normal
StackLeniency: 0.2
Mode: 0
LetterboxInBreaks: 0
WidescreenStoryboard: 0

[Editor]
Bookmarks: 2129,55462,71872,153923,154436,170334,186744
DistanceSpacing: 0.8
BeatDivisor: 4
GridSize: 16
TimelineZoom: 1

[Metadata]
Title:Platinum Disco (Syntax Error Remix) Version R
TitleUnicode:Platinum Disco (Syntax Error Remix) Version R
Artist:Yuka Iguchi
ArtistUnicode:Yuka Iguchi
Creator:Vespuur
Version:
Source:
Tags:
BeatmapID:1482519
BeatmapSetID:700238

[Difficulty]
HPDrainRate:7
CircleSize:4.2
OverallDifficulty:10
ApproachRate:10
SliderMultiplier:1.79999990463257
SliderTickRate:1

[Events]
//Background and Video events
0,0,"discobackground.png",0,0
//Break Periods
2,88738,103580
//Storyboard Layer 0 (Background)
//Storyboard Layer 1 (Fail)
//Storyboard Layer 2 (Pass)
//Storyboard Layer 3 (Foreground)
//Storyboard Sound Samples

[TimingPoints]
2129,512.820512820513,4,1,0,100,1,0
19821,-62.5,4,1,0,100,0,0
20077,-100,4,1,0,100,0,0
22641,-74.0740740740741,4,1,0,100,0,0
24180,-66.6666666666667,4,1,0,100,0,0
24564,-100,4,1,0,100,0,0
25718,-111.111111111111,4,1,0,100,0,0
26231,-100,4,1,0,100,0,0
27000,-50,4,1,0,100,0,0
27257,-100,4,1,0,100,0,0
28154,-66.6666666666667,4,1,0,100,0,0
28411,-100,4,1,0,100,0,0
29821,-50,4,1,0,100,0,0
30077,-100,4,1,0,100,0,0
31872,-50,4,1,0,100,0,0
32129,-100,4,1,0,100,0,0
32898,-133.333333333333,4,1,0,100,0,0
33928,-100,4,1,0,100,0,0
35205,-100,4,1,0,100,0,0
39052,-55.5555555555556,4,1,0,100,0,0
39308,-100,4,1,0,100,0,0
41359,-55.5555555555556,4,1,0,100,0,0
41616,-100,4,1,0,100,0,0
44180,-54.054054054054,4,1,0,100,0,0
44564,-100,4,1,0,100,0,0
44693,-50,4,1,0,100,0,0
44821,-100,4,1,0,100,0,0
45205,-55.5555555555556,4,1,0,100,0,0
45590,-100,4,1,0,100,0,0
46744,-66.6666666666667,4,1,0,100,0,0
47129,-100,4,1,0,100,0,0
47257,-50,4,1,0,100,0,0
47513,-100,4,1,0,100,0,0
49308,-200,4,1,0,100,0,0
49821,-153.846153846154,4,1,0,100,0,0
51359,-200,4,1,0,100,0,0
52770,-100,4,1,0,100,0,0
59564,-66.6666666666667,4,1,0,100,0,0
60077,-100,4,1,0,100,0,0
61616,-66.6666666666667,4,1,0,100,0,0
62129,-100,4,1,0,100,0,0
71872,-100,4,1,0,100,0,1
88282,-50,4,1,0,100,0,1
88539,-100,4,1,0,100,0,0
104693,-50,4,1,0,100,0,0
104949,-100,4,1,0,100,0,0
108795,-133.333333333333,4,1,0,100,0,0
109180,-100,4,1,0,100,0,0
109821,-66.6666666666667,4,1,0,100,0,0
110205,-100,4,1,0,100,0,0
112898,-50,4,1,0,100,0,0
113282,-100,4,1,0,100,0,0
116744,-166.666666666667,4,1,0,100,0,0
117000,-166.666666666667,4,1,0,100,0,0
117513,-100,4,1,0,100,0,0
119052,-200,4,1,0,100,0,0
120334,-100,4,1,0,100,0,0
124180,-200,4,1,0,100,0,0
124693,-100,4,1,0,100,0,0
127257,-58.8235294117647,4,1,0,100,0,0
127257,-58.8235294117647,4,1,0,100,0,0
127257,-58.8235294117647,4,1,0,100,0,0
127513,-100,4,1,0,100,0,0
128282,-149.253731343284,4,1,0,100,0,0
128667,-100,4,1,0,100,0,0
133411,-55.5555555555556,4,1,0,100,0,0
133667,-100,4,1,0,100,0,0
134177,-55.5555555555556,4,1,0,100,0,0
134436,-76.9230769230769,4,1,0,100,0,0
134693,-100,4,1,0,100,0,0
135975,-66.6666666666667,4,1,0,100,0,0
136359,-100,4,1,0,100,0,0
137257,-66.6666666666667,4,1,0,100,0,0
137898,-100,4,1,0,100,0,0
139564,-50,4,1,0,100,0,0
140077,-100,4,1,0,100,0,0
143667,-66.6666666666667,4,1,0,100,0,0
144180,-100,4,1,0,100,0,0
147770,-50,4,1,0,100,0,0
148282,-100,4,1,0,100,0,0
151872,-50,4,1,0,100,0,0
152385,-100,4,1,0,100,0,0
153923,-58.8235294117647,4,1,0,100,0,0
154436,-100,4,1,0,100,0,0
157513,-50,4,1,0,100,0,0
158026,-100,4,1,0,100,0,0

[HitObjects]
80,80,2129,5,0,0:0:0:0:
432,80,2641,1,0,0:0:0:0:
432,304,3154,1,0,0:0:0:0:
80,80,3667,5,0,0:0:0:0:
80,304,4180,1,0,0:0:0:0:
432,304,4693,1,0,0:0:0:0:
80,80,5205,5,0,0:0:0:0:
432,80,5718,1,0,0:0:0:0:
432,304,6231,1,0,0:0:0:0:
80,304,6744,1,0,0:0:0:0:
80,80,7257,5,0,0:0:0:0:
80,304,7770,1,0,0:0:0:0:
432,304,8282,1,0,0:0:0:0:
432,80,8795,1,0,0:0:0:0:
416,192,9308,5,0,0:0:0:0:
256,336,9821,1,0,0:0:0:0:
96,192,10334,1,0,3:0:0:0:
256,48,10846,1,0,3:0:0:0:
256,192,10975,12,0,18026,0:0:0:0:
144,80,18282,6,0,L|144:160,1,44.9999976158143
144,192,18795,1,0,0:0:0:0:
176,240,18923,1,0,0:0:0:0:
256,288,19308,1,0,0:0:0:0:
368,208,19564,1,0,0:0:0:0:
400,160,19821,2,0,P|368:128|336:128,2,70
368,224,20334,5,0,0:0:0:0:
336,288,20590,1,0,0:0:0:0:
288,320,20846,2,0,P|238:305|216:273,1,70
170,205,21359,1,0,0:0:0:0:
154,97,21616,1,0,0:0:0:0:
213,151,21872,1,0,0:0:0:0:
267,47,22000,1,0,0:0:0:0:
448,64,22385,5,0,0:0:0:0:
448,64,22641,2,0,P|384:48|384:112,1,140
377,105,23154,2,0,P|365:165|306:146,1,140
306,146,23667,2,0,P|242:130|242:194,1,140
235,187,24180,2,0,P|223:247|164:228,1,140
64,48,24693,5,0,0:0:0:0:
144,128,24949,1,0,0:0:0:0:
144,48,25205,1,0,0:0:0:0:
64,128,25462,1,0,0:0:0:0:
64,128,25718,2,0,L|64:288,1,157.500006008148
96,336,26487,5,0,0:0:0:0:
128,304,26616,1,0,0:0:0:0:
160,272,26744,1,0,0:0:0:0:
176,240,27000,2,0,L|176:192,1,35
192,256,27129,2,0,L|240:256,1,35,0|0,3:0|3:0,0:0:0:0:
240,192,27513,5,0,0:0:0:0:
272,160,27641,1,0,0:0:0:0:
304,192,27770,1,0,0:0:0:0:
304,192,28026,1,0,0:0:0:0:
304,192,28154,2,0,L|352:256,1,70
416,96,28539,5,0,0:0:0:0:
416,96,28667,1,0,0:0:0:0:
368,64,28795,2,0,P|320:64|304:80,1,70
288,112,29180,1,0,0:0:0:0:
256,160,29564,5,0,0:0:0:0:
256,160,29693,1,0,0:0:0:0:
224,208,29821,2,0,P|144:208|144:192,1,105
144,176,30077,1,0,0:0:0:0:
144,64,30205,1,0,0:0:0:0:
256,64,30590,5,0,0:0:0:0:
317,171,30846,2,0,L|237:283,1,105
255,256,31359,2,0,L|193:170,1,105
193,170,31872,2,0,L|305:170,1,105
448,64,32129,5,0,0:0:0:0:
448,192,32385,1,0,0:0:0:0:
448,320,32641,1,0,0:0:0:0:
448,320,32898,2,0,L|240:176,1,236.249996495247
32,192,35205,5,0,0:0:0:0:
144,64,35462,1,0,0:0:0:0:
256,192,35718,1,0,0:0:0:0:
368,320,35975,1,0,0:0:0:0:
480,192,36231,1,0,0:0:0:0:
368,64,36487,1,0,0:0:0:0:
256,192,36744,1,0,0:0:0:0:
144,320,37000,1,0,0:0:0:0:
256,192,37257,1,0,0:0:0:0:
368,64,37513,1,0,0:0:0:0:
480,192,37770,1,0,0:0:0:0:
368,320,38026,1,0,0:0:0:0:
256,192,38282,1,0,0:0:0:0:
144,64,38539,1,0,0:0:0:0:
32,192,38795,1,0,0:0:0:0:
32,192,39052,2,0,P|59:228|98:224,1,78.7499976396561
112,224,39308,1,0,0:0:0:0:
176,288,39564,5,0,0:0:0:0:
336,288,40077,1,0,0:0:0:0:
256,256,40590,1,0,0:0:0:0:
256,192,40846,5,0,0:0:0:0:
256,32,41103,1,0,0:0:0:0:
256,192,41359,2,0,L|256:320,1,125.999987571717
352,80,42129,5,0,0:0:0:0:
160,80,42641,1,0,0:0:0:0:
256,80,43154,1,0,0:0:0:0:
432,80,43411,5,0,0:0:0:0:
432,80,43667,1,0,0:0:0:0:
256,192,43923,1,0,0:0:0:0:
192,208,44180,2,0,P|320:208|320:192,1,188.999981357575
320,205,44693,2,0,P|299:142|257:137,1,69.9999952316285
170,130,44949,1,0,0:0:0:0:
169,63,45205,2,0,B|217:63|217:63|233:79|233:79|281:79|281:79|297:63|297:63|345:63,1,174.999988079071
432,64,45718,5,0,0:0:0:0:
432,64,45975,1,0,0:0:0:0:
432,64,46231,2,0,L|432:112,2,34.9999976158143
400,320,46744,6,0,L|320:320,2,69.9999952316285
272,320,47257,2,0,L|416:320,1,134.999992847443
464,320,47513,1,0,0:0:0:0:
419,238,48026,5,0,0:0:0:0:
74,202,48282,1,0,0:0:0:0:
212,103,48539,1,0,0:0:0:0:
352,64,49052,5,0,0:0:0:0:
352,304,49308,2,0,L|256:304,1,89.9999952316285
208,272,50334,2,0,L|128:208,1,89.9999952316285
112,192,50846,2,0,L|224:192,1,94.499992109299
256,64,51359,2,0,L|256:320,1,247.499986886978
192,192,54436,5,0,0:0:0:0:
320,192,54949,1,0,0:0:0:0:
176,304,55462,5,0,0:0:0:0:
176,304,55718,1,0,0:0:0:0:
116,243,55975,1,0,0:0:0:0:
106,207,56103,1,0,0:0:0:0:
109,172,56231,1,0,0:0:0:0:
132,145,56359,1,0,0:0:0:0:
169,134,56487,1,0,0:0:0:0:
210,140,56616,1,0,0:0:0:0:
241,158,56744,1,0,0:0:0:0:
245,123,56872,1,0,0:0:0:0:
267,88,57001,1,0,0:0:0:0:
299,66,57129,1,0,0:0:0:0:
335,66,57257,1,0,0:0:0:0:
363,86,57385,1,0,0:0:0:0:
393,118,57513,6,0,L|348:144,1,44.9999976158143
418,155,57770,2,0,L|369:185,1,44.9999976158143
429,199,57898,1,0,0:0:0:0:
439,235,58026,1,0,0:0:0:0:
436,270,58154,1,0,0:0:0:0:
413,297,58282,1,0,0:0:0:0:
376,308,58410,1,0,0:0:0:0:
335,302,58539,1,0,0:0:0:0:
304,284,58667,1,0,0:0:0:0:
299,318,58795,1,0,0:0:0:0:
277,357,58924,1,0,0:0:0:0:
238,376,59052,1,0,0:0:0:0:
185,366,59180,1,0,0:0:0:0:
151,326,59308,1,0,0:0:0:0:
125,277,59436,1,0,0:0:0:0:
96,192,59564,6,0,L|48:256,1,67.499998998642
96,192,59821,2,0,L|48:128,1,67.499998998642
112,192,60077,1,0,0:0:0:0:
144,192,60205,1,0,0:0:0:0:
176,192,60334,1,0,0:0:0:0:
208,192,60462,1,0,0:0:0:0:
240,192,60590,1,0,0:0:0:0:
272,80,60718,1,0,0:0:0:0:
304,304,60846,1,0,0:0:0:0:
336,80,60975,1,0,0:0:0:0:
368,304,61103,1,0,0:0:0:0:
400,80,61231,1,0,0:0:0:0:
432,304,61359,1,0,0:0:0:0:
464,80,61487,1,0,0:0:0:0:
312,335,61616,6,0,L|248:255,1,89.9999952316285
256,264,61872,2,0,L|199:334,1,89.9999952316285
144,304,62129,1,0,0:0:0:0:
96,272,62257,1,0,0:0:0:0:
48,240,62385,1,0,0:0:0:0:
96,208,62513,1,0,0:0:0:0:
144,176,62641,1,0,0:0:0:0:
96,144,62770,1,0,0:0:0:0:
48,112,62898,1,0,0:0:0:0:
96,80,63026,1,0,0:0:0:0:
144,48,63154,1,0,0:0:0:0:
208,48,63411,1,0,0:0:0:0:
256,48,63667,6,0,L|288:96,1,44.9999976158143
320,48,63923,2,0,L|352:96,1,44.9999976158143
368,112,64180,5,0,0:0:0:0:
432,160,64308,1,0,0:0:0:0:
336,192,64436,1,0,0:0:0:0:
432,224,64564,1,0,0:0:0:0:
336,256,64693,1,0,0:0:0:0:
432,288,64821,1,0,0:0:0:0:
336,320,64949,1,0,0:0:0:0:
304,368,65077,1,0,0:0:0:0:
272,272,65205,1,0,0:0:0:0:
240,368,65334,1,0,0:0:0:0:
208,272,65462,1,0,0:0:0:0:
176,368,65590,1,0,0:0:0:0:
144,320,65718,6,0,L|112:352,1,44.9999976158143
128,288,65975,2,0,L|96:240,1,44.9999976158143
80,208,66231,5,0,0:0:0:0:
80,144,66359,1,0,0:0:0:0:
80,80,66487,1,0,0:0:0:0:
144,80,66616,1,0,0:0:0:0:
208,80,66744,1,0,0:0:0:0:
208,144,66872,1,0,0:0:0:0:
208,208,67000,1,0,0:0:0:0:
256,208,67129,1,0,0:0:0:0:
304,160,67257,1,0,0:0:0:0:
352,112,67385,1,0,0:0:0:0:
400,64,67513,1,0,0:0:0:0:
352,112,67641,1,0,0:0:0:0:
304,160,67770,2,0,L|224:160,1,44.9999976158143
256,208,68026,2,0,L|288:240,1,44.9999976158143
304,256,68282,5,0,0:0:0:0:
319,273,68410,1,0,0:0:0:0:
339,285,68538,1,0,0:0:0:0:
361,291,68666,1,0,0:0:0:0:
384,289,68795,1,0,0:0:0:0:
406,280,68923,1,0,0:0:0:0:
424,265,69051,1,0,0:0:0:0:
436,245,69180,1,0,0:0:0:0:
441,222,69307,1,0,0:0:0:0:
440,199,69435,1,0,0:0:0:0:
431,178,69564,1,0,0:0:0:0:
416,160,69692,1,0,0:0:0:0:
400,144,69821,6,0,L|368:176,1,44.9999976158143
368,112,70077,2,0,L|400:80,1,44.9999976158143
304,112,70334,5,0,0:0:0:0:
256,112,70462,1,0,0:0:0:0:
208,112,70590,1,0,0:0:0:0:
160,112,70718,1,0,0:0:0:0:
304,112,70846,1,0,0:0:0:0:
256,112,70975,1,0,0:0:0:0:
208,112,71103,2,0,L|160:112,1,44.9999976158143
80,32,71359,1,0,0:0:0:0:
80,192,71616,1,0,0:0:0:0:
112,304,71872,6,0,L|160:272,1,44.9999976158143
362,104,72129,2,0,L|400:80,1,44.9999976158143
64,64,72385,5,0,0:0:0:0:
448,320,72513,1,0,0:0:0:0:
96,80,72641,1,0,0:0:0:0:
416,304,72770,1,0,0:0:0:0:
128,96,72898,1,0,0:0:0:0:
384,288,73026,1,0,0:0:0:0:
160,112,73154,1,0,0:0:0:0:
352,272,73282,1,0,0:0:0:0:
128,160,73411,1,0,0:0:0:0:
384,224,73539,1,0,0:0:0:0:
128,224,73667,1,0,0:0:0:0:
384,160,73795,1,0,0:0:0:0:
160,272,73923,1,0,0:0:0:0:
352,112,74180,1,0,0:0:0:0:
448,64,74436,5,0,0:0:0:0:
64,320,74564,1,0,0:0:0:0:
416,80,74693,1,0,0:0:0:0:
96,304,74821,1,0,0:0:0:0:
384,96,74949,1,0,0:0:0:0:
128,288,75077,1,0,0:0:0:0:
352,112,75205,1,0,0:0:0:0:
160,272,75334,1,0,0:0:0:0:
384,160,75462,1,0,0:0:0:0:
128,224,75590,1,0,0:0:0:0:
384,224,75718,1,0,0:0:0:0:
128,160,75846,1,0,0:0:0:0:
352,272,75975,1,0,0:0:0:0:
160,112,76231,1,0,0:0:0:0:
112,96,76487,5,0,0:0:0:0:
99,112,76615,1,0,0:0:0:0:
89,129,76743,1,0,0:0:0:0:
80,148,76871,1,0,0:0:0:0:
74,167,76999,1,0,0:0:0:0:
71,188,77128,1,0,0:0:0:0:
69,208,77256,1,0,0:0:0:0:
71,228,77384,1,0,0:0:0:0:
74,248,77512,1,0,0:0:0:0:
81,268,77640,1,0,0:0:0:0:
89,287,77769,1,0,0:0:0:0:
100,304,77897,1,0,0:0:0:0:
176,272,78026,6,0,L|208:240,1,44.9999976158143
336,112,78283,6,0,L|304:144,1,44.9999976158143
412,80,78540,1,0,0:0:0:0:
423,97,78668,1,0,0:0:0:0:
431,116,78797,1,0,0:0:0:0:
438,136,78925,1,0,0:0:0:0:
441,156,79053,1,0,0:0:0:0:
443,176,79181,1,0,0:0:0:0:
441,196,79309,1,0,0:0:0:0:
438,217,79438,1,0,0:0:0:0:
432,236,79566,1,0,0:0:0:0:
423,255,79694,1,0,0:0:0:0:
413,272,79822,1,0,0:0:0:0:
256,192,79950,5,0,0:0:0:0:
48,48,80334,1,0,0:0:0:0:
352,96,80590,5,0,0:0:0:0:
320,64,80718,1,0,0:0:0:0:
276,69,80846,1,0,0:0:0:0:
240,48,80975,1,0,0:0:0:0:
198,87,81103,1,0,0:0:0:0:
160,96,81231,1,0,0:0:0:0:
142,144,81359,1,0,0:0:0:0:
112,176,81487,1,0,0:0:0:0:
126,222,81616,1,0,0:0:0:0:
112,256,81744,1,0,0:0:0:0:
154,297,81872,1,0,0:0:0:0:
176,336,82000,1,0,0:0:0:0:
256,192,82129,5,0,0:0:0:0:
464,48,82385,1,0,0:0:0:0:
160,96,82642,5,0,0:0:0:0:
192,64,82770,1,0,0:0:0:0:
235,69,82898,1,0,0:0:0:0:
272,48,83027,1,0,0:0:0:0:
313,87,83155,1,0,0:0:0:0:
352,96,83283,1,0,0:0:0:0:
369,144,83411,1,0,0:0:0:0:
400,176,83539,1,0,0:0:0:0:
385,222,83668,1,0,0:0:0:0:
400,256,83796,1,0,0:0:0:0:
357,297,83924,1,0,0:0:0:0:
336,336,84052,1,0,0:0:0:0:
256,192,84180,5,0,0:0:0:0:
48,336,84436,1,0,0:0:0:0:
352,288,84692,5,0,0:0:0:0:
320,320,84820,1,0,0:0:0:0:
276,314,84948,1,0,0:0:0:0:
240,336,85077,1,0,0:0:0:0:
198,296,85205,1,0,0:0:0:0:
160,288,85333,1,0,0:0:0:0:
142,239,85461,1,0,0:0:0:0:
112,208,85589,1,0,0:0:0:0:
126,161,85718,1,0,0:0:0:0:
112,128,85846,1,0,0:0:0:0:
154,86,85974,1,0,0:0:0:0:
176,48,86102,1,0,0:0:0:0:
256,192,86231,5,0,0:0:0:0:
464,336,86487,1,0,0:0:0:0:
160,288,86744,5,0,0:0:0:0:
192,320,86872,1,0,0:0:0:0:
235,314,87000,1,0,0:0:0:0:
272,336,87129,1,0,0:0:0:0:
313,296,87257,1,0,0:0:0:0:
352,288,87385,1,0,0:0:0:0:
369,239,87513,1,0,0:0:0:0:
400,208,87641,1,0,0:0:0:0:
385,161,87770,1,0,0:0:0:0:
400,128,87898,1,0,0:0:0:0:
357,86,88026,1,0,0:0:0:0:
336,48,88154,1,0,0:0:0:0:
224,96,88282,6,0,B|176:112|224:144|80:160,2,89.9999952316285
128,112,104180,5,0,0:0:0:0:
192,112,104436,1,0,0:0:0:0:
256,112,104693,2,0,P|301:108|301:41,2,89.9999952316285
192,192,105205,1,0,0:0:0:0:
144,240,105462,1,0,0:0:0:0:
80,304,105718,2,0,P|41:234|40:206,1,89.9999952316285
48,48,106231,5,0,0:0:0:0:
192,272,106487,1,0,0:0:0:0:
400,192,106744,1,0,0:0:0:0:
208,64,107000,1,0,0:0:0:0:
288,256,107257,1,0,0:0:0:0:
336,288,107513,1,0,0:0:0:0:
448,240,107770,1,0,0:0:0:0:
288,128,108539,5,0,0:0:0:0:
224,144,108795,2,0,B|224:208|256:208|272:224,1,89.9999952316285
432,320,109308,1,0,0:0:0:0:
224,144,109564,6,0,L|176:112,1,44.9999976158143
224,144,109821,2,0,L|64:48,1,179.999990463257
224,48,110334,1,0,0:0:0:0:
352,48,110590,1,0,0:0:0:0:
480,48,110846,1,0,0:0:0:0:
480,48,110975,1,0,0:0:0:0:
480,48,111103,1,0,0:0:0:0:
480,48,111231,1,0,0:0:0:0:
480,48,111359,1,0,0:0:0:0:
480,48,111487,1,0,0:0:0:0:
480,48,111616,1,0,0:0:0:0:
480,48,111744,1,0,0:0:0:0:
288,240,112385,5,0,0:0:0:0:
240,192,112641,1,0,0:0:0:0:
288,144,112898,2,0,P|218:132|187:152,2,89.9999952316285
432,208,113411,5,0,0:0:0:0:
384,352,113667,1,0,0:0:0:0:
304,320,113923,2,0,B|189:275|239:222|272:222,1,89.9999952316285
128,240,114436,5,0,0:0:0:0:
128,240,114693,1,0,0:0:0:0:
128,240,114949,2,0,B|119:174|144:152|123:147|182:147|171:114|150:102|131:96|114:88,1,179.999990463257
16,144,115718,1,0,0:0:0:0:
16,256,115975,2,0,L|112:352,1,134.999992847443
352,336,116744,6,0,L|352:288,1,44.9999976158143
352,272,117000,2,0,L|352:176,1,80.999993236542
320,160,117513,2,0,L|272:208,1,44.9999976158143
288,128,117770,2,0,L|320:96,1,44.9999976158143
192,144,118026,6,0,L|64:288,1,179.999990463257
256,304,118795,1,0,0:0:0:0:
72,278,119052,2,0,L|224:112,1,224.999988079071
480,192,120846,5,0,0:0:0:0:
32,192,121103,1,0,0:0:0:0:
416,192,121872,1,0,0:0:0:0:
96,192,122129,1,0,0:0:0:0:
81,355,122898,1,0,0:0:0:0:
81,130,123154,1,0,0:0:0:0:
275,242,123411,1,0,0:0:0:0:
81,130,123667,1,0,0:0:0:0:
274,15,123923,1,0,0:0:0:0:
275,242,124180,2,0,L|240:304,1,67.4999964237214
256,96,124949,5,0,0:0:0:0:
256,288,125205,1,0,0:0:0:0:
256,32,125975,1,0,0:0:0:0:
256,352,126231,1,0,0:0:0:0:
384,80,127000,5,0,0:0:0:0:
384,80,127257,2,0,P|396:142|383:161,1,89.9999952316285
352,192,127513,1,0,0:0:0:0:
352,320,127770,5,0,0:0:0:0:
208,192,128026,1,0,0:0:0:0:
352,320,128282,2,0,P|414:333|433:320,1,89.9999952316285
128,144,129052,5,0,0:0:0:0:
112,112,129308,2,0,P|64:64|32:64,1,89.9999952316285
128,144,130077,5,0,0:0:0:0:
144,112,130333,2,0,P|192:64|224:64,1,89.9999952316285
256,329,131103,5,0,0:0:0:0:
124,234,131359,1,0,0:0:0:0:
175,80,131616,1,0,0:0:0:0:
337,80,131872,1,0,0:0:0:0:
387,234,132129,1,0,0:0:0:0:
296,167,132385,6,0,B|191:155|254:193|152:189,1,134.999992847443
166,189,132898,1,0,0:0:0:0:
96,288,133154,1,0,0:0:0:0:
176,304,133411,6,0,B|226:317|255:338|274:366,1,89.9999952316285,0|0,0:0|0:0,3:0:0:0:
254,343,133667,2,0,B|260:343|281:314|295:264,1,89.9999952316285,0|0,0:0|0:0,3:0:0:0:
341,100,134180,6,0,B|290:86|261:65|242:37,1,89.9999952316285,0|0,0:0|0:0,3:0:0:0:
263,61,134436,2,0,B|257:60|236:90|222:140,1,89.9999952316285,0|0,0:0|0:0,3:0:0:0:
222,139,134693,1,0,0:0:0:0:
144,272,135205,5,0,0:0:0:0:
144,112,135462,1,0,0:0:0:0:
368,192,135718,1,0,0:0:0:0:
307,260,135975,6,0,B|273:227|273:227|273:204|273:204|239:170|239:170|217:170|217:170|183:136,1,174.999988079071,0|0,0:0|0:0,3:0:0:0:
160,112,136487,1,0,0:0:0:0:
417,331,137000,5,0,0:0:0:0:
417,331,137129,1,0,0:0:0:0:
416,112,137257,2,0,L|368:80,1,58.4999942226413
192,176,137513,6,0,L|192:240,1,58.4999942226413
192,368,137770,2,0,L|128:352,1,58.4999942226413
64,336,138026,5,0,0:0:0:0:
16,304,138154,1,0,0:0:0:0:
64,272,138282,1,0,0:0:0:0:
112,240,138411,1,0,0:0:0:0:
160,208,138539,1,0,0:0:0:0:
288,128,138667,1,0,0:0:0:0:
261,61,138795,1,0,0:0:0:0:
192,64,138923,1,0,0:0:0:0:
64,0,139052,1,0,0:0:0:0:
80,64,139180,1,0,0:0:0:0:
48,128,139308,1,0,0:0:0:0:
64,192,139436,1,0,0:0:0:0:
144,240,139564,6,0,B|140:258|205:275|253:246,1,116.999988445283
288,304,139821,6,0,B|284:286|349:269|397:298,1,116.999988445283
432,32,140077,5,0,0:0:0:0:
480,80,140205,1,0,0:0:0:0:
352,48,140334,1,0,0:0:0:0:
464,160,140462,1,0,0:0:0:0:
272,64,140590,1,0,0:0:0:0:
448,240,140718,1,0,0:0:0:0:
192,80,140846,1,0,0:0:0:0:
432,320,140975,1,0,0:0:0:0:
112,96,141103,1,0,0:0:0:0:
352,288,141231,1,0,0:0:0:0:
80,112,141359,1,0,0:0:0:0:
272,256,141487,1,0,0:0:0:0:
48,144,141616,6,0,L|32:192,1,44.9999976158143
32,208,141872,2,0,L|48:256,1,44.9999976158143
112,272,142129,5,0,0:0:0:0:
160,272,142257,1,0,0:0:0:0:
208,272,142385,1,0,0:0:0:0:
224,352,142513,1,0,0:0:0:0:
272,352,142641,1,0,0:0:0:0:
320,352,142770,1,0,0:0:0:0:
448,272,142898,1,0,0:0:0:0:
400,272,143026,1,0,0:0:0:0:
352,272,143154,1,0,0:0:0:0:
320,352,143282,1,0,0:0:0:0:
272,352,143411,1,0,0:0:0:0:
224,352,143539,1,0,0:0:0:0:
240,160,143667,6,0,P|304:176|304:192,1,89.9999952316285,0|0,0:3|0:3,0:3:0:0:
320,144,143923,6,0,P|296:109|255:119,1,89.9999952316285,0|0,0:3|0:3,0:3:0:0:
32,128,144180,5,0,0:0:0:0:
96,32,144308,1,0,0:0:0:0:
160,128,144436,1,0,0:0:0:0:
224,32,144564,1,0,0:0:0:0:
288,128,144693,1,0,0:0:0:0:
352,32,144821,1,0,0:0:0:0:
464,128,144949,1,0,0:0:0:0:
352,224,145077,1,0,0:0:0:0:
480,336,145205,2,0,L|416:336,1,44.9999976158143
112,304,145462,2,0,L|64:288,1,44.9999976158143
224,128,145718,6,0,L|224:80,1,44.9999976158143
288,128,145975,2,0,L|288:80,1,44.9999976158143
512,192,146231,5,0,0:0:0:0:
448,192,146359,1,0,0:0:0:0:
384,192,146487,1,0,0:0:0:0:
320,192,146616,1,0,0:0:0:0:
256,192,146744,1,0,0:0:0:0:
256,32,146872,1,0,0:0:0:0:
256,256,147000,1,0,0:0:0:0:
320,64,147129,1,0,0:0:0:0:
320,288,147257,1,0,0:0:0:0:
384,96,147385,1,0,0:0:0:0:
384,320,147513,1,0,0:0:0:0:
448,128,147641,1,0,0:0:0:0:
448,352,147770,6,0,P|382:341|369:374,1,89.9999952316285
137,352,148026,2,0,P|101:330|64:352,1,89.9999952316285
96,287,148283,5,0,0:0:0:0:
131,291,148411,1,0,0:0:0:0:
166,289,148539,1,0,0:0:0:0:
199,276,148667,1,0,0:0:0:0:
226,253,148795,1,0,0:0:0:0:
240,219,148924,1,0,0:0:0:0:
235,183,149052,1,0,0:0:0:0:
209,158,149180,1,0,0:0:0:0:
173,153,149308,1,0,0:0:0:0:
137,154,149436,1,0,0:0:0:0:
100,139,149565,1,0,0:0:0:0:
87,97,149693,1,0,0:0:0:0:
102,56,149821,6,0,L|154:46,1,44.9999976158143
179,42,150077,2,0,L|229:42,1,44.9999976158143
400,64,150334,5,0,0:0:0:0:
416,80,150462,1,0,0:0:0:0:
304,128,150590,1,0,0:0:0:0:
288,144,150718,1,0,0:0:0:0:
400,192,150846,1,0,0:0:0:0:
416,208,150975,1,0,0:0:0:0:
400,352,151103,1,0,0:0:0:0:
383,368,151231,1,0,0:0:0:0:
336,256,151359,1,0,0:0:0:0:
320,240,151487,1,0,0:0:0:0:
272,352,151615,1,0,0:0:0:0:
256,368,151744,1,0,0:0:0:0:
64,64,151872,6,0,B|128:96|192:80|192:16|176:32,1,89.9999952316285
64,64,152129,2,0,B|62:135|103:186|161:159|140:151,1,89.9999952316285,0|0,0:3|0:0,0:0:0:0:
304,192,152385,5,0,0:0:0:0:
208,192,152513,1,0,0:0:0:0:
348,216,152641,1,0,0:0:0:0:
163,167,152770,1,0,0:0:0:0:
380,264,152898,1,0,0:0:0:0:
131,120,153026,1,0,0:0:0:0:
391,327,153154,1,0,0:0:0:0:
120,56,153282,1,0,0:0:0:0:
376,399,153411,1,0,0:0:0:0:
136,0,153667,1,0,0:0:0:0:
352,176,153923,6,0,L|272:112,1,89.9999952316285
320,80,154180,2,0,L|416:160,1,76.4999974060059
288,320,154436,5,0,0:0:0:0:
256,224,154564,1,0,0:0:0:0:
272,272,154693,1,0,0:0:0:0:
256,224,154821,1,0,0:0:0:0:
192,240,154949,5,0,0:0:0:0:
160,144,155077,1,0,0:0:0:0:
176,192,155206,1,0,0:0:0:0:
160,144,155334,1,0,0:0:0:0:
96,160,155462,5,0,0:0:0:0:
64,64,155590,1,0,0:0:0:0:
80,112,155719,1,0,0:0:0:0:
64,64,155847,1,0,0:0:0:0:
128,48,155975,6,0,L|144:96,1,44.9999976158143
192,32,156231,2,0,L|208:80,1,44.9999976158143
368,80,156487,5,0,0:0:0:0:
368,256,156616,1,0,0:0:0:0:
448,192,156744,5,0,0:0:0:0:
272,192,156873,1,0,0:0:0:0:
272,192,157000,1,0,0:0:0:0:
368,80,157129,1,0,0:0:0:0:
448,192,157257,1,0,0:0:0:0:
368,256,157385,1,0,0:0:0:0:
368,304,157513,6,0,L|304:368,1,89.9999952316285
304,367,157770,2,0,L|224:271,1,89.9999952316285
144,160,158026,2,0,L|80:160,1,44.9999976158143
99,160,158282,2,0,L|99:96,1,44.9999976158143
