osu file format v14

[General]
AudioFilename: audio.mp3
AudioLeadIn: 0
PreviewTime: 22394
Countdown: 0
SampleSet: Soft
StackLeniency: 0.2
Mode: 0
LetterboxInBreaks: 0
WidescreenStoryboard: 1

[Editor]
Bookmarks: 306478
DistanceSpacing: 1
BeatDivisor: 4
GridSize: 8
TimelineZoom: 1.6

[Metadata]
Title:Resurrection
TitleUnicode:Resurrection
Artist:Yuka
ArtistUnicode:悠花
Creator:Lunala
Version:Harmonium
Source:フィリスのアトリエ ~不思議な旅の錬金術士~
Tags:Atelier Firis:The Alchemist and the Mysterious Journey Liane Lia gust Japanese full ver. version vocals aria Achiwa video game ユカ Boss Battle Theme Thema ボスバトルテーマ Ressurection
BeatmapID:2165168
BeatmapSetID:1021170

[Difficulty]
HPDrainRate:6
CircleSize:4.2
OverallDifficulty:8
ApproachRate:9
SliderMultiplier:1.6
SliderTickRate:1

[Events]
//Background and Video events
0,0,"1920x1080.jpg",0,0
//Break Periods
2,44011,44678
2,116678,117344
2,189345,192678
2,194678,195344
2,285344,293178
//Storyboard Layer 0 (Background)
//Storyboard Layer 1 (Fail)
//Storyboard Layer 2 (Pass)
//Storyboard Layer 3 (Foreground)
//Storyboard Layer 4 (Overlay)
//Storyboard Sound Samples

[TimingPoints]
1145,333.333333333333,4,2,1,20,1,0
10978,-125,4,2,1,30,0,0
21144,-111.111111111111,4,2,1,30,0,0
22478,-100,4,2,1,40,0,0
46478,-200,4,2,1,25,0,0
53144,-153.846153846154,4,2,1,35,0,0
54478,-133.333333333333,4,2,1,30,0,0
65144,-111.111111111111,4,2,1,40,0,0
81811,-90.9090909090909,4,2,1,45,0,1
103144,-100,4,2,1,45,0,1
115144,-125,4,2,1,25,0,1
116478,-200,4,2,1,25,0,0
124478,-181.818181818182,4,2,1,30,0,0
127144,-133.333333333333,4,2,1,30,0,0
137811,-111.111111111111,4,2,1,40,0,0
154478,-90.9090909090909,4,2,1,45,0,1
175811,-100,4,2,1,45,0,1
189144,-125,4,2,1,40,0,0
210478,-111.111111111111,4,2,1,40,0,0
227811,-133.333333333333,4,2,1,25,0,0
238478,-117.647058823529,4,2,1,30,0,0
249144,-105.263157894737,4,2,1,40,0,0
250478,-90.9090909090909,4,2,1,45,0,1
271811,-100,4,2,1,45,0,1
285144,-125,4,2,1,30,0,0

[Colours]
Combo1 : 179,109,255
Combo2 : 81,255,239

[HitObjects]
139,49,10978,5,0,0:0:0:0:
128,37,11061,1,0,0:0:0:0:
120,27,11144,2,0,L|205:32,1,64
276,88,11478,2,0,P|259:115|183:106,1,96
49,87,11811,6,0,P|74:136|107:151,1,64
200,121,12145,1,0,0:0:0:0:
19,182,12311,2,0,P|67:210|103:207,1,64,0|0,0:0|0:0,0:0:0:0:
168,136,12645,1,0,0:0:0:0:
42,280,12811,2,0,P|97:281|126:259,1,64,0|0,0:0|0:0,0:0:0:0:
147,166,13145,1,0,0:0:0:0:
109,353,13311,2,0,P|159:325|174:292,1,64,0|0,0:0|0:0,0:0:0:0:
144,200,13645,1,0,0:0:0:0:
276,244,13811,6,0,P|354:243|383:222,1,96
367,235,14144,2,0,P|328:227|266:252,1,96,0|0,0:0|0:0,0:0:0:0:
442,264,14478,6,0,P|442:223|421:186,1,64
348,112,14811,1,0,0:0:0:0:
343,292,14978,2,0,P|363:256|363:215,1,64,0|0,0:0|0:0,0:0:0:0:
385,128,15311,1,0,0:0:0:0:
234,277,15478,2,0,P|269:257|289:221,1,64,0|0,0:0|0:0,0:0:0:0:
370,172,15811,1,0,0:0:0:0:
162,205,15978,2,0,P|202:205|239:185,1,64,0|0,0:0|0:0,0:0:0:0:
330,153,16311,1,0,0:0:0:0:
148,83,16478,6,0,P|200:114|246:116,1,96,0|0,0:0|0:0,0:0:0:0:
233,117,16811,2,0,P|191:85|139:85,1,96,0|0,0:0|0:0,0:0:0:0:
12,178,17144,6,0,P|66:168|90:140,1,64,0|0,0:0|0:0,0:0:0:0:
91,44,17478,1,0,0:0:0:0:
93,234,17644,2,0,P|134:196|143:161,1,64,0|0,0:0|0:0,0:0:0:0:
95,79,17978,1,0,0:0:0:0:
193,243,18144,2,0,P|211:190|200:155,1,64,0|0,0:0|0:0,0:0:0:0:
117,107,18478,1,0,0:0:0:0:
283,201,18644,2,0,P|273:145|245:121,1,64,0|0,0:0|0:0,0:0:0:0:
148,122,18978,1,0,0:0:0:0:
370,138,19144,6,0,P|351:69|311:47,1,96,0|0,0:0|0:0,0:0:0:0:
334,55,19478,2,0,P|354:124|391:148,1,96,0|0,0:0|0:0,0:0:0:0:
441,236,19811,6,0,B|393:222|393:222|299:228,1,128,0|0,0:0|0:0,0:0:0:0:
147,166,20311,1,2,0:0:0:0:
147,166,20394,1,2,0:0:0:0:
147,166,20478,2,0,L|172:82,1,64,4|0,0:0|0:0,0:0:0:0:
240,220,20811,2,0,L|220:289,1,64,0|2,0:0|0:0,0:0:0:0:
195,360,21061,5,2,0:0:0:0:
195,360,21144,2,0,L|295:342,1,71.9999978027344,2|0,0:0|0:0,0:0:0:0:
367,368,21478,2,0,L|445:347,1,71.9999978027344,0|2,0:0|0:0,0:0:0:0:
491,198,21811,1,2,0:0:0:0:
433,126,21978,1,0,0:0:0:0:
360,241,22144,1,2,0:0:0:0:
436,266,22311,1,0,0:0:0:0:
351,152,22478,6,0,B|256:131|293:204|192:174,1,160,4|8,0:0|0:0,0:0:0:0:
138,33,22978,2,0,P|186:77|186:108,1,80,0|0,0:0|0:0,0:0:0:0:
34,180,23311,2,0,P|47:117|80:101,1,80,0|8,0:0|0:0,0:0:0:0:
177,203,23644,2,0,B|176:259|176:259|200:296|200:296|162:379,1,160,2|0,0:0|0:0,0:0:0:0:
9,363,24144,2,0,P|12:337|94:313,1,120,8|0,0:0|0:0,0:0:0:0:
176,351,24478,2,0,L|320:317,1,120,2|0,0:0|0:0,0:0:0:0:
367,333,24811,2,0,L|270:356,1,80,8|0,0:0|0:0,0:0:0:0:
464,358,25144,6,0,P|454:282|350:253,1,160,4|8,0:0|0:0,0:0:0:0:
291,139,25644,2,0,P|307:68|340:43,1,80,0|0,0:0|0:0,0:0:0:0:
200,196,25978,2,0,P|166:161|160:111,1,80,0|8,0:0|0:0,0:0:0:0:
250,315,26311,2,0,B|202:308|202:308|79:353,1,160,2|0,0:0|0:0,0:0:0:0:
0,384,26811,1,8,0:0:0:0:
10,282,26978,1,0,0:0:0:0:
23,167,27144,6,0,P|75:212|117:201,1,80,2|0,0:0|0:0,0:0:0:0:
220,183,27478,1,8,0:0:0:0:
116,44,27644,2,0,P|100:115|120:149,1,80,2|0,0:0|0:0,0:0:0:0:
197,91,27978,1,0,0:0:0:0:
350,169,28144,6,0,B|412:154|412:154|452:171|452:171|536:150,1,160,12|2,0:0|0:0,0:0:0:0:
471,84,28644,1,2,0:0:0:0:
438,245,28811,1,8,0:0:0:0:
267,231,28978,2,0,P|237:163|293:90,1,160,4|0,0:0|0:0,0:0:0:0:
325,264,29478,2,0,L|173:248,1,120,8|0,0:0|0:0,0:0:0:0:
160,242,29811,5,2,0:0:0:0:
176,337,29978,1,0,0:0:0:0:
91,384,30144,1,8,0:0:0:0:
67,292,30311,1,0,0:0:0:0:
145,152,30478,6,0,B|248:138|205:203|322:175,1,160,4|8,0:0|0:0,0:0:0:0:
389,48,30978,2,0,P|299:49|280:132,1,160,2|0,0:0|0:0,0:0:0:0:
469,93,31478,2,0,B|494:59|494:59|478:-5,1,80,8|0,0:0|0:0,0:0:0:0:
351,112,31811,6,0,L|375:234,1,120,2|0,0:0|0:0,0:0:0:0:
439,285,32144,2,0,P|387:264|336:326,1,120,12|0,0:0|0:0,0:0:0:0:
327,340,32478,1,2,0:0:0:0:
228,313,32644,1,2,0:0:0:0:
132,239,32811,1,2,0:0:0:0:
229,204,32978,1,2,0:0:0:0:
95,327,33144,6,0,P|42:260|64:183,1,160,4|8,0:0|0:0,0:0:0:0:
163,71,33644,2,0,L|176:176,1,80,0|0,0:0|0:0,0:0:0:0:
251,1,33978,2,0,L|261:106,1,80,0|8,0:0|0:0,0:0:0:0:
374,164,34311,2,0,B|418:93|418:93|368:22,1,160,2|0,0:0|0:0,0:0:0:0:
303,206,34811,2,0,P|371:251|422:230,1,120,8|0,0:0|0:0,0:0:0:0:
494,196,35144,2,0,L|467:317,1,120,2|0,0:0|0:0,0:0:0:0:
472,384,35478,2,0,L|496:285,1,80,8|0,0:0|0:0,0:0:0:0:
334,227,35811,6,2,B|233:206|287:282|149:248,1,160,4|8,0:0|0:0,0:0:0:0:
111,122,36311,2,0,P|143:68|171:61,1,80
39,218,36644,2,0,P|2:186|6:144,1,80,0|8,0:0|0:0,0:0:0:0:
168,228,36978,2,0,B|160:281|160:281|173:305|173:305|154:323|154:323|144:384,1,160,2|0,0:0|0:0,0:0:0:0:
23,376,37478,1,8,0:0:0:0:
54,288,37644,1,0,0:0:0:0:
173,365,37811,6,0,L|258:342,1,80,2|0,0:0|0:0,0:0:0:0:
340,294,38144,1,8,0:0:0:0:
182,269,38311,2,0,L|262:247,1,80,2|0,0:0|0:0,0:0:0:0:
351,191,38644,1,0,0:0:0:0:
190,134,38811,6,0,P|168:91|229:-1,1,160,12|2,0:0|0:0,0:0:0:0:
272,82,39311,1,2,0:0:0:0:
239,201,39478,1,8,0:0:0:0:
360,64,39644,6,0,B|427:39|427:39|545:73,1,160,4|0,0:0|0:0,0:0:0:0:
488,210,40144,2,0,L|466:125,1,80,8|0,0:0|0:0,0:0:0:0:
340,182,40478,2,0,L|365:273,1,80,2|0,0:0|0:0,0:0:0:0:
386,378,40811,1,8,0:0:0:0:
473,303,40978,1,0,0:0:0:0:
344,246,41144,6,0,P|266:231|207:277,1,120,2|0,0:0|0:0,0:0:0:0:
195,280,41478,1,12,0:0:0:0:
77,205,41644,2,0,L|94:115,1,80,0|2,0:0|0:0,0:0:0:0:
169,27,41978,1,0,0:0:0:0:
255,108,42144,1,8,0:0:0:0:
175,159,42311,1,4,0:0:0:0:
313,49,42478,2,0,P|352:90|425:90,1,120,2|0,0:0|0:0,0:0:0:0:
464,84,42811,2,0,P|422:140|436:173,1,80,8|0,0:0|0:0,0:0:0:0:
479,240,43144,5,2,0:0:0:0:
425,317,43311,1,2,0:0:0:0:
301,280,43478,1,2,0:0:0:0:
383,232,43644,1,2,0:0:0:0:
342,374,43811,1,2,0:0:0:0:
309,213,46478,6,0,L|261:230,1,40,2|0,0:0|0:0,0:0:0:0:
123,143,48478,5,0,0:0:0:0:
123,143,48644,2,0,B|168:150|168:150|207:119,1,80,2|0,0:0|0:0,0:0:0:0:
295,99,49144,2,0,L|283:150,1,40,2|0,0:0|0:0,0:0:0:0:
434,281,51811,6,0,P|380:259|319:333,1,160,2|0,0:0|0:0,0:0:0:0:
150,176,53144,2,0,P|241:175|249:262,1,155.999992858887,2|0,0:0|0:0,0:0:0:0:
239,265,53728,1,0,0:0:0:0:
239,265,53811,2,0,L|163:255,1,51.999997619629,0|0,0:0|0:0,0:0:0:0:
111,293,54144,2,0,L|46:282,1,51.999997619629,2|0,0:3|0:0,0:0:0:0:
22,83,54478,6,0,P|53:141|87:148,1,90.0000034332277,2|0,0:0|0:0,0:0:0:0:
119,147,54811,2,0,L|196:139,1,60.0000022888184,0|2,0:0|0:0,0:0:0:0:
302,120,55144,2,0,B|324:64|324:64|267:6,1,120.000004577637,0|0,0:0|0:0,0:0:0:0:
223,132,55644,2,0,P|269:193|332:181,1,120.000004577637,2|2,0:0|0:0,0:0:0:0:
396,184,56144,2,0,L|392:261,1,60.0000022888184,0|2,0:0|0:0,0:0:0:0:
482,313,56478,2,0,L|485:246,1,60.0000022888184
386,346,56811,2,0,P|316:328|308:333,1,60.0000022888184,0|2,0:0|0:0,0:0:0:0:
235,292,57144,6,0,P|244:209|207:179,1,120.000004577637,2|0,0:0|0:0,0:0:0:0:
89,167,57644,2,0,P|116:230|169:239,1,120.000004577637,2|0,0:0|0:0,0:0:0:0:
330,78,58311,2,0,B|312:141|312:141|351:200,1,120.000004577637
465,245,58978,1,2,0:0:0:0:
423,325,59144,2,0,L|437:403,1,60.0000022888184,0|2,0:0|0:0,0:0:0:0:
326,314,59478,2,0,L|315:256,1,60.0000022888184,0|2,0:0|0:0,0:0:0:0:
204,264,59811,6,0,P|176:305|117:317,1,90.0000034332277,2|0,0:0|0:0,0:0:0:0:
99,331,60144,2,0,L|35:307,1,60.0000022888184,0|2,0:0|0:0,0:0:0:0:
14,217,60478,2,0,B|39:162|39:162|13:106,1,120.000004577637
96,35,60978,2,0,L|165:17,2,60.0000022888184,2|0|2,0:0|0:0|0:0,0:0:0:0:
167,114,61478,2,0,L|239:94,1,60.0000022888184,0|2,0:0|0:0,0:0:0:0:
312,174,61811,2,0,L|298:246,1,60.0000022888184
385,306,62144,2,0,L|445:285,1,60.0000022888184,0|2,0:0|0:0,0:0:0:0:
275,353,62478,6,0,P|215:334|165:380,1,120.000004577637,2|0,0:0|0:0,0:0:0:0:
70,315,62978,2,0,B|95:273|95:273|83:182,1,120.000004577637,2|0,0:0|0:0,0:0:0:0:
10,49,63644,1,2,0:0:0:0:
49,138,63811,1,0,0:0:0:0:
156,112,63978,2,0,P|207:97|242:50,1,90.0000034332277,2|0,0:0|0:0,0:0:0:0:
325,33,64311,5,8,0:0:0:0:
325,33,64394,1,0,0:0:0:0:
325,33,64478,1,2,0:0:0:0:
409,61,64644,1,2,0:0:0:0:
332,167,64811,1,2,0:0:0:0:
281,99,64978,1,2,0:0:0:0:
445,151,65144,6,0,P|445:220|408:270,1,107.999996704102,4|0,0:0|0:0,0:0:0:0:
388,288,65478,2,0,L|485:277,1,71.9999978027344,8|0,0:0|0:0,0:0:0:0:
379,384,65811,1,2,0:0:0:0:
289,287,65978,1,0,0:0:0:0:
388,288,66144,1,8,0:0:0:0:
286,372,66311,1,0,0:0:0:0:
171,290,66478,6,0,P|171:236|190:207,1,71.9999978027344,2|0,0:0|0:0,0:0:0:0:
207,45,66811,2,0,P|264:131|255:169,1,143.999995605469,8|2,0:0|0:0,0:0:0:0:
157,129,67311,1,2,0:0:0:0:
315,243,67478,2,0,L|227:235,1,71.9999978027344,8|0,0:0|0:0,0:0:0:0:
27,306,67811,6,0,B|185:288,1,143.999995605469,4|8,0:0|0:0,0:0:0:0:
315,243,68311,2,0,L|308:341,1,71.9999978027344,0|2,0:0|0:0,0:0:0:0:
401,197,68644,1,0,0:0:0:0:
438,313,68811,2,0,L|418:414,1,71.9999978027344,8|0,0:0|0:0,0:0:0:0:
315,243,69144,6,0,P|306:180|347:127,1,107.999996704102,2|0,0:0|0:0,0:0:0:0:
349,97,69478,2,0,L|246:121,1,71.9999978027344,8|0,0:0|0:0,0:0:0:0:
181,34,69811,2,0,L|263:13,1,71.9999978027344,2|0,0:0|0:0,0:0:0:0:
97,118,70144,2,0,B|65:76|65:76|79:12,1,107.999996704102,8|0,0:0|0:0,0:0:0:0:
198,125,70478,6,0,P|179:185|112:220,1,107.999996704102,4|0,0:0|0:0,0:0:0:0:
100,226,70811,2,0,L|116:308,1,71.9999978027344,8|0,0:0|0:0,0:0:0:0:
210,365,71144,1,2,0:0:0:0:
280,273,71311,1,0,0:0:0:0:
184,278,71478,1,8,0:0:0:0:
306,365,71644,1,0,0:0:0:0:
426,290,71811,6,0,P|423:225|403:201,1,71.9999978027344,2|0,0:0|0:0,0:0:0:0:
234,112,72144,2,0,P|291:186|347:193,1,143.999995605469,8|2,0:0|0:0,0:0:0:0:
457,130,72644,1,0,0:0:0:0:
379,34,72811,2,0,P|373:119|379:133,1,71.9999978027344,8|0,0:0|0:0,0:0:0:0:
343,244,73144,6,0,L|191:224,1,143.999995605469,4|8,0:0|0:0,0:0:0:0:
39,281,73644,2,0,L|122:267,1,71.9999978027344,0|8,0:0|0:0,0:0:0:0:
172,149,73978,1,0,0:0:0:0:
188,257,74144,1,8,0:0:0:0:
86,129,74311,1,0,0:0:0:0:
259,45,74478,6,0,P|282:130|263:173,1,107.999996704102,2|0,0:0|0:0,0:0:0:0:
266,190,74811,2,0,L|399:162,1,107.999996704102,12|0,0:0|0:0,0:0:0:0:
463,134,75144,1,2,0:0:0:0:
405,249,75311,1,2,0:0:0:0:
409,72,75478,2,0,P|475:50|505:63,1,71.9999978027344,0|0,0:0|0:0,0:0:0:0:
479,281,75811,6,0,P|415:326|338:293,1,143.999995605469,4|0,0:0|0:0,0:0:0:0:
256,282,76311,2,0,L|262:381,1,71.9999978027344,2|12,0:0|0:0,0:0:0:0:
145,235,76644,2,0,L|157:326,1,71.9999978027344,0|0,0:0|0:0,0:0:0:0:
223,140,76978,6,0,B|239:76|239:76|192:4,1,143.999995605469,2|0,0:0|0:0,0:0:0:0:
67,83,77478,2,0,L|156:70,1,71.9999978027344,0|0,0:0|0:0,0:0:0:0:
317,138,77811,2,0,B|270:165|270:165|202:129,1,107.999996704102,8|0,0:0|0:0,0:0:0:0:
174,151,78144,2,0,L|184:230,1,71.9999978027344,0|0,0:0|0:0,0:0:0:0:
393,196,78478,6,0,P|412:108|356:53,1,143.999995605469,4|0,0:0|0:0,0:0:0:0:
380,275,78978,2,0,L|472:258,1,71.9999978027344,2|12,0:0|0:0,0:0:0:0:
422,369,79311,2,0,L|525:358,1,71.9999978027344,0|0,0:0|0:0,0:0:0:0:
294,321,79644,6,0,P|228:302|161:347,1,143.999995605469,0|0,0:0|0:0,0:0:0:0:
132,372,80061,1,2,0:0:0:0:
132,372,80144,2,0,L|110:287,1,71.9999978027344,2|0,0:0|0:0,0:0:0:0:
138,205,80478,2,0,L|118:130,1,71.9999978027344,2|0,0:0|0:0,0:0:0:0:
168,39,80811,5,2,0:0:0:0:
267,87,80978,1,2,0:0:0:0:
189,120,81144,1,2,0:0:0:0:
243,10,81311,1,2,0:0:0:0:
348,107,81478,2,0,L|357:196,1,71.9999978027344,0|0,0:0|0:0,0:0:0:0:
425,280,81811,6,0,P|358:219|298:253,1,132.00000402832,4|0,0:0|0:0,0:0:0:0:
287,251,82144,1,8,0:0:0:0:
173,147,82311,2,0,P|191:103|262:137,1,132.00000402832,2|0,0:0|0:0,0:0:0:0:
107,230,82644,2,0,L|3:208,1,88.000002685547,2|8,0:0|0:0,0:0:0:0:
227,335,82978,2,0,B|296:311|296:311|334:328|334:328|423:293,1,176.000005371094,2|0,0:0|0:0,0:0:0:0:
469,203,83478,1,8,0:0:0:0:
380,138,83644,1,0,0:0:0:0:
300,251,83811,6,0,P|314:314|264:386,1,132.00000402832,2|0,0:0|0:0,0:0:0:0:
216,297,84144,2,0,P|211:218|239:189,1,88.000002685547,8|0,0:0|0:0,0:0:0:0:
391,146,84478,6,0,B|341:168|341:168|243:149,1,132.00000402832,4|0,0:0|0:0,0:0:0:0:
222,144,84811,1,8,0:0:0:0:
102,69,84978,2,0,P|130:21|199:50,1,132.00000402832,2|0,0:0|0:0,0:0:0:0:
43,158,85311,2,0,P|2:116|6:68,1,88.000002685547,2|8,0:0|0:0,0:0:0:0:
153,190,85644,2,0,B|149:249|149:249|166:272|166:272|145:303|145:303|142:369,1,176.000005371094,0|0,0:0|0:0,0:0:0:0:
58,374,86144,1,8,0:0:0:0:
222,337,86311,1,0,0:0:0:0:
72,264,86478,6,0,L|-39:239,1,88.000002685547,2|0,0:0|0:0,0:0:0:0:
235,208,86811,2,0,L|335:195,1,88.000002685547,8|0,0:0|0:0,0:0:0:0:
447,174,87144,6,0,P|363:102|368:73,1,132.00000402832,4|0,0:0|0:0,0:0:0:0:
371,50,87478,1,8,0:0:0:0:
251,111,87644,2,0,P|286:56|243:4,1,132.00000402832,2|0,0:0|0:0,0:0:0:0:
144,108,87978,2,0,L|169:212,1,88.000002685547,2|8,0:0|0:0,0:0:0:0:
61,280,88311,2,0,P|119:228|214:276,1,176.000005371094,4|0,0:0|0:0,0:0:0:0:
233,379,88811,1,8,0:0:0:0:
141,332,88978,1,0,0:0:0:0:
306,290,89144,6,0,B|327:254|327:254|319:123,1,132.00000402832,2|0,0:0|0:0,0:0:0:0:
408,111,89478,2,0,P|420:163|387:201,1,88.000002685547,8|0,0:0|0:0,0:0:0:0:
266,78,89811,6,0,P|285:4|317:-13,1,88.000002685547,4|0,0:0|0:0,0:0:0:0:
408,111,90144,1,8,0:0:0:0:
239,159,90311,2,0,P|176:138|90:133,1,132.00000402832,2|0,0:0|0:0,0:0:0:0:
70,123,90644,2,0,L|107:193,2,44.0000013427735,0|0|8,0:0|0:0|0:0,0:0:0:0:
79,341,90978,6,0,P|146:270|234:301,1,176.000005371094,4|0,0:0|0:0,0:0:0:0:
321,356,91478,1,8,0:0:0:0:
172,304,91644,1,0,0:0:0:0:
172,304,91728,1,2,0:0:0:0:
172,304,91811,1,2,0:0:0:0:
324,267,91978,1,2,0:0:0:0:
221,374,92144,1,2,0:0:0:0:
229,217,92311,1,2,0:0:0:0:
408,168,92478,6,0,P|453:246|427:310,1,132.00000402832,4|0,0:0|0:0,0:0:0:0:
420,318,92811,1,8,0:0:0:0:
280,126,92978,2,0,P|280:79|351:87,1,132.00000402832,2|0,0:0|0:0,0:0:0:0:
245,213,93311,2,0,L|146:185,1,88.000002685547,2|8,0:0|0:0,0:0:0:0:
39,204,93644,2,0,P|106:206|138:109,1,176.000005371094,2|0,0:0|0:0,0:0:0:0:
88,28,94144,1,8,0:0:0:0:
56,127,94311,1,0,0:0:0:0:
219,175,94478,6,0,B|281:155|281:155|367:165,1,132.00000402832,2|0,0:0|0:0,0:0:0:0:
462,117,94811,2,0,L|442:226,1,88.000002685547,8|0,0:0|0:0,0:0:0:0:
349,372,95144,6,0,P|331:304|403:275,1,132.00000402832,4|0,0:0|0:0,0:0:0:0:
418,268,95478,1,8,0:0:0:0:
232,330,95644,2,0,P|147:301|90:296,1,132.00000402832,2|0,0:0|0:0,0:0:0:0:
29,215,95978,2,0,P|130:177|135:169,1,88.000002685547,2|8,0:0|0:0,0:0:0:0:
176,64,96311,2,0,B|223:115|223:115|196:248,1,176.000005371094,2|0,0:0|0:0,0:0:0:0:
232,330,96811,1,8,0:0:0:0:
315,264,96978,1,0,0:0:0:0:
128,282,97144,6,0,L|41:313,1,88.000002685547,2|0,0:0|0:0,0:0:0:0:
202,169,97478,2,0,L|168:72,1,88.000002685547,8|0,0:0|0:0,0:0:0:0:
315,264,97811,6,0,P|395:283|434:243,1,132.00000402832,4|0,0:0|0:0,0:0:0:0:
454,216,98144,1,8,0:0:0:0:
327,108,98311,2,0,P|258:128|294:182,1,132.00000402832,2|0,0:0|0:0,0:0:0:0:
415,141,98644,2,0,P|435:101|378:56,1,88.000002685547,2|8,0:0|0:0,0:0:0:0:
189,271,98978,6,0,B|250:244|250:244|293:261|293:261|368:233,1,176.000005371094,4|0,0:0|0:0,0:0:0:0:
437,344,99478,1,0,0:0:0:0:
510,264,99644,1,0,0:0:0:0:
418,118,99811,6,0,B|403:67|403:67|455:-17,1,132.00000402832,2|0,0:0|0:0,0:0:0:0:
496,122,100144,2,0,P|464:188|385:187,1,132.00000402832,8|0,0:0|0:0,0:0:0:0:
322,176,100478,6,0,L|226:149,1,88.000002685547,2|0,0:0|0:0,0:0:0:0:
147,91,100811,1,12,0:0:0:0:
31,206,100978,2,0,L|130:179,1,88.000002685547,2|0,0:0|0:0,0:0:0:0:
234,70,101311,1,2,0:0:0:0:
118,17,101478,1,2,0:0:0:0:
244,154,101644,6,0,P|327:101|301:10,1,176.000005371094,4|0,0:0|0:0,0:0:0:0:
156,155,102144,2,0,L|162:253,1,88.000002685547,8|0,0:0|0:0,0:0:0:0:
243,352,102478,1,2,0:0:0:0:
255,267,102644,1,2,0:0:0:0:
100,315,102811,1,2,0:0:0:0:
164,380,102978,1,2,0:0:0:0:
322,316,103144,6,0,B|386:304|386:304|422:322|422:322|507:303,1,160,4|0,0:0|0:0,0:0:0:0:
508,222,103644,1,0,0:0:0:0:
482,125,103811,2,0,P|406:162|419:221,1,120,8|0,0:0|0:0,0:0:0:0:
333,237,104144,6,0,L|229:203,1,80,2|0,0:0|0:0,0:0:0:0:
170,117,104478,2,0,P|248:93|258:80,1,80,0|2,0:0|0:0,0:0:0:0:
71,70,104811,2,0,P|68:147|89:173,1,80,0|2,0:0|0:0,0:0:0:0:
189,217,105144,1,8,0:0:0:0:
244,96,105311,2,0,B|245:-6|245:-6|201:40,1,160
86,154,105811,6,0,L|-13:138,1,80,4|0,0:0|0:0,0:0:0:0:
44,256,106144,2,0,L|154:272,1,80,2|0,0:0|0:0,0:0:0:0:
233,321,106478,1,8,0:0:0:0:
282,228,106644,1,0,0:0:0:0:
181,151,106811,1,0,0:0:0:0:
188,237,106978,1,2,0:0:0:0:
344,288,107144,6,0,B|376:237|376:237|354:120,1,160,0|0,0:0|0:0,0:0:0:0:
268,140,107644,1,2,0:0:0:0:
442,180,107811,1,2,0:0:0:0:
509,107,107978,1,2,0:0:0:0:
409,76,108144,1,2,0:0:0:0:
511,231,108311,1,2,0:0:0:0:
353,153,108478,6,0,B|291:131|291:131|192:161,1,160,4|0,0:0|0:0,0:0:0:0:
119,230,108978,1,0,0:0:0:0:
215,351,109144,2,0,P|254:272|217:239,1,120,8|0,0:0|0:0,0:0:0:0:
197,180,109478,6,0,L|205:97,1,80,2|0,0:0|0:0,0:0:0:0:
106,126,109811,2,0,L|96:36,1,80,0|2,0:0|0:0,0:0:0:0:
275,244,110144,2,0,L|299:139,1,80,0|2,0:0|0:0,0:0:0:0:
183,282,110478,1,8,0:0:0:0:
325,352,110644,2,0,B|430:326|386:399|493:348,1,160,0|0,0:0|0:0,0:0:0:0:
467,231,111144,6,0,L|445:142,1,80,4|0,0:0|0:0,0:0:0:0:
317,81,111478,2,0,P|373:86|432:17,1,120,0|0,0:0|0:0,0:0:0:0:
254,18,111811,2,0,P|222:76|232:118,1,80,8|0,0:0|0:0,0:0:0:0:
356,195,112144,2,0,P|298:163|256:173,1,80,0|0,0:0|0:0,0:0:0:0:
172,292,112478,2,0,P|204:234|194:192,1,80,0|0,0:0|0:0,0:0:0:0:
70,115,112811,2,0,P|128:146|170:136,1,80,0|0,0:0|0:0,0:0:0:0:
263,173,113144,5,8,0:0:0:0:
241,75,113311,1,0,0:0:0:0:
145,47,113478,1,0,0:0:0:0:
70,115,113644,1,0,0:0:0:0:
94,212,113811,5,0,0:0:0:0:
70,115,113978,1,0,0:0:0:0:
145,47,114144,1,0,0:0:0:0:
263,173,114311,1,0,0:0:0:0:
94,212,114478,5,12,0:0:0:0:
70,115,114644,1,0,0:0:0:0:
145,47,114811,1,0,0:0:0:0:
241,75,114978,5,0,0:0:0:0:
241,75,115061,1,0,0:0:0:0:
241,75,115144,2,0,L|333:83,1,64,2|0,0:0|0:0,0:0:0:0:
263,173,115478,2,0,L|334:180,1,64,0|0,0:0|0:0,0:0:0:0:
390,266,115811,1,2,0:0:0:0:
310,324,115978,1,0,0:0:0:0:
233,264,116144,1,0,0:0:0:0:
263,173,116311,1,0,0:0:0:0:
361,174,116478,1,2,0:0:0:0:
217,196,119144,5,2,0:0:0:0:
214,142,121144,5,0,0:0:0:0:
214,142,121311,2,0,B|265:146|265:146|297:123,1,80,2|0,0:0|0:0,0:0:0:0:
375,112,121811,2,0,L|363:159,1,40,2|0,0:0|0:0,0:0:0:0:
284,152,124478,6,0,P|310:79|240:20,1,176.000005371094,2|0,0:0|0:0,0:0:0:0:
100,70,125811,2,0,P|74:140|117:182,1,132.00000402832,2|0,0:0|0:0,0:0:0:0:
132,216,126394,1,0,0:0:0:0:
132,216,126478,2,0,L|75:219,1,44.0000013427735,0|0,0:0|0:0,0:0:0:0:
54,308,126811,2,0,L|140:303,1,66.0000020141602,2|0,0:3|0:0,0:0:0:0:
166,301,127144,6,0,P|218:321|270:306,1,90.0000034332277,2|0,0:0|0:0,0:0:0:0:
290,306,127478,2,0,L|285:387,1,60.0000022888184,0|2,0:0|0:0,0:0:0:0:
385,250,127811,2,0,B|407:194|407:194|350:136,1,120.000004577637,0|0,0:0|0:0,0:0:0:0:
211,162,128311,2,0,P|262:218|325:206,1,120.000004577637,2|2,0:0|0:0,0:0:0:0:
289,132,128811,2,0,L|282:46,1,60.0000022888184,0|2,0:0|0:0,0:0:0:0:
187,0,129144,2,0,L|193:67,1,60.0000022888184
123,123,129478,2,0,P|75:99|55:100,1,60.0000022888184,0|2,0:0|0:0,0:0:0:0:
0,171,129811,6,0,B|27:216|27:216|-4:299,1,120.000004577637
83,332,130311,2,0,P|157:303|192:342,1,120.000004577637
307,384,130978,2,0,L|320:262,1,120.000004577637,2|2,0:0|0:0,0:0:0:0:
226,122,131645,1,2,0:0:0:0:
130,170,131811,2,0,L|70:188,1,60.0000022888184,0|2,0:0|0:0,0:0:0:0:
103,83,132145,2,0,L|35:87,1,60.0000022888184,0|2,0:0|0:0,0:0:0:0:
205,48,132478,6,0,P|263:49|297:87,1,90.0000034332277,2|0,0:0|0:0,0:0:0:0:
318,102,132811,2,0,L|301:160,1,60.0000022888184,0|2,0:0|0:0,0:0:0:0:
312,276,133145,2,0,B|368:250|368:250|425:292,1,120.000004577637,0|0,0:0|0:0,0:0:0:0:
277,359,133645,2,0,L|156:352,1,120.000004577637,2|2,0:0|0:0,0:0:0:0:
65,287,134145,2,0,P|105:280|138:255,1,60.0000022888184,0|2,0:0|0:0,0:0:0:0:
185,195,134478,2,0,L|207:272,1,60.0000022888184,0|0,0:0|0:0,0:0:0:0:
259,117,134811,2,0,L|282:196,1,60.0000022888184,0|2,0:0|0:0,0:0:0:0:
347,246,135144,6,0,P|403:211|464:250,1,120.000004577637,2|0,0:0|0:0,0:0:0:0:
408,295,135644,2,0,L|379:172,1,120.000004577637,2|0,0:0|0:0,0:0:0:0:
434,49,136311,1,2,0:0:0:0:
485,124,136478,1,0,0:0:0:0:
345,114,136644,2,0,P|316:100|257:98,1,90.0000034332277,2|0,0:0|0:0,0:0:0:0:
224,109,136978,2,0,L|230:66,1,30.0000011444092,8|0,0:0|0:0,0:0:0:0:
172,20,137144,5,2,0:0:0:0:
101,130,137311,1,2,0:0:0:0:
84,28,137478,1,2,0:0:0:0:
175,178,137644,1,2,0:0:0:0:
11,76,137811,6,0,P|-12:141|18:198,1,107.999996704102,4|0,0:0|0:0,0:0:0:0:
16,217,138144,2,0,L|-3:310,1,71.9999978027344,8|0,0:0|0:0,0:0:0:0:
81,368,138478,1,2,0:0:0:0:
173,288,138644,1,0,0:0:0:0:
79,269,138811,1,8,0:0:0:0:
168,384,138978,1,0,0:0:0:0:
279,247,139144,6,0,P|288:193|274:161,1,71.9999978027344,2|0,0:0|0:0,0:0:0:0:
257,6,139477,2,0,P|198:91|208:129,1,143.999995605469,8|2,0:0|0:0,0:0:0:0:
312,100,139977,1,2,0:0:0:0:
428,167,140144,2,0,L|516:174,1,71.9999978027344,8|0,0:0|0:0,0:0:0:0:
288,226,140477,6,0,B|135:242,1,143.999995605469,4|8,0:0|0:0,0:0:0:0:
5,209,140978,2,0,L|33:305,1,71.9999978027344,0|2,0:0|0:0,0:0:0:0:
82,131,141311,1,0,0:0:0:0:
135,261,141478,2,0,L|130:357,1,71.9999978027344,8|0,0:0|0:0,0:0:0:0:
181,144,141811,6,0,P|167:65|129:37,1,107.999996704102,2|0,0:0|0:0,0:0:0:0:
113,29,142144,2,0,L|203:16,1,71.9999978027344,8|0,0:0|0:0,0:0:0:0:
339,61,142478,2,0,L|261:71,1,71.9999978027344,2|0,0:0|0:0,0:0:0:0:
351,166,142811,2,0,B|406:184|406:184|471:140,1,107.999996704102,8|0,0:0|0:0,0:0:0:0:
512,218,143144,6,0,P|460:277|472:334,1,107.999996704102,4|0,0:0|0:0,0:0:0:0:
466,348,143478,2,0,L|374:335,1,71.9999978027344,8|0,0:0|0:0,0:0:0:0:
255,290,143811,1,2,0:0:0:0:
361,269,143978,1,0,0:0:0:0:
320,356,144144,1,8,0:0:0:0:
292,210,144311,1,0,0:0:0:0:
391,120,144478,6,0,P|402:158|396:204,1,71.9999978027344,2|0,0:0|0:0,0:0:0:0:
179,109,144811,2,0,P|318:139|323:149,1,143.999995605469,8|2,0:0|0:0,0:0:0:0:
361,269,145311,1,0,0:0:0:0:
175,223,145478,2,0,P|216:180|259:172,1,71.9999978027344,8|0,0:0|0:0,0:0:0:0:
206,322,145811,6,0,P|154:307|59:295,1,143.999995605469,4|8,0:0|0:0,0:0:0:0:
5,194,146311,2,0,L|88:180,1,71.9999978027344,0|8,0:0|0:0,0:0:0:0:
175,223,146645,1,0,0:0:0:0:
130,128,146811,1,8,0:0:0:0:
191,41,146978,1,0,0:0:0:0:
320,102,147144,6,0,P|237:141|203:122,1,107.999996704102,2|0,0:0|0:0,0:0:0:0:
379,23,147478,2,0,P|414:69|402:146,1,107.999996704102,12|0,0:0|0:0,0:0:0:0:
409,157,147811,2,0,L|489:139,1,71.9999978027344,2|2,0:0|0:0,0:0:0:0:
414,257,148144,1,0,0:0:0:0:
324,167,148311,1,0,0:0:0:0:
498,223,148478,6,0,P|505:280|424:348,1,143.999995605469,4|0,0:0|0:0,0:0:0:0:
305,348,148978,2,0,L|381:337,1,71.9999978027344,2|12,0:0|0:0,0:0:0:0:
248,261,149311,2,0,L|331:251,1,71.9999978027344,0|0,0:0|0:0,0:0:0:0:
422,136,149644,6,0,B|457:204|457:204|420:275,1,143.999995605469,2|0,0:0|0:0,0:0:0:0:
323,101,150144,2,0,L|331:18,1,71.9999978027344,0|0,0:0|0:0,0:0:0:0:
224,155,150478,2,0,L|214:292,1,107.999996704102,8|0,0:0|0:0,0:0:0:0:
209,311,150811,2,0,L|112:281,1,71.9999978027344,0|0,0:0|0:0,0:0:0:0:
243,67,151144,6,0,P|306:113|307:194,1,143.999995605469,4|0,0:0|0:0,0:0:0:0:
309,313,151644,2,0,L|321:416,1,71.9999978027344,2|12,0:0|0:0,0:0:0:0:
394,234,151978,2,0,P|418:210|416:161,1,71.9999978027344,0|0,0:0|0:0,0:0:0:0:
251,248,152311,6,0,P|200:231|122:270,1,143.999995605469,0|0,0:0|0:0,0:0:0:0:
85,302,152728,1,2,0:0:0:0:
85,302,152811,2,0,L|81:223,1,71.9999978027344,2|0,0:0|0:0,0:0:0:0:
156,166,153144,2,0,L|149:90,1,71.9999978027344,2|0,0:0|0:0,0:0:0:0:
46,4,153478,5,2,0:0:0:0:
77,130,153644,1,2,0:0:0:0:
128,14,153811,1,2,0:0:0:0:
18,76,153978,1,2,0:0:0:0:
149,94,154144,2,0,P|222:90|249:50,1,107.999996704102,8|0,0:0|0:0,0:0:0:0:
288,45,154478,6,0,B|270:89|270:89|284:196,1,132.00000402832,4|0,0:0|0:0,0:0:0:0:
289,220,154811,1,8,0:0:0:0:
424,264,154978,2,0,P|455:229|392:180,1,132.00000402832,2|0,0:0|0:0,0:0:0:0:
331,289,155311,2,0,L|340:382,1,88.000002685547,2|8,0:0|0:0,0:0:0:0:
206,212,155644,2,0,B|145:174|145:174|30:193,1,176.000005371094,2|0,0:0|0:0,0:0:0:0:
35,301,156144,1,8,0:0:0:0:
121,376,156311,1,0,0:0:0:0:
229,291,156478,6,0,L|247:144,1,132.00000402832,2|0,0:0|0:0,0:0:0:0:
353,109,156811,2,0,P|358:160|322:198,1,88.000002685547,8|0,0:0|0:0,0:0:0:0:
164,124,157144,6,0,P|183:31|241:6,1,132.00000402832,4|0,0:0|0:0,0:0:0:0:
254,7,157478,1,8,0:0:0:0:
353,109,157644,2,0,P|408:90|375:31,1,132.00000402832,2|0,0:0|0:0,0:0:0:0:
261,153,157978,2,0,L|278:249,1,88.000002685547,2|8,0:0|0:0,0:0:0:0:
402,348,158311,2,0,B|338:335|338:335|327:313|327:313|305:327|305:327|220:307,1,176.000005371094,0|0,0:0|0:0,0:0:0:0:
128,278,158811,1,8,0:0:0:0:
209,193,158978,1,0,0:0:0:0:
35,283,159144,6,0,L|23:382,1,88.000002685547,2|0,0:0|0:0,0:0:0:0:
78,164,159478,2,0,L|59:46,1,88.000002685547,8|0,0:0|0:0,0:0:0:0:
209,193,159811,6,0,P|261:216|330:142,1,132.00000402832,4|0,0:0|0:0,0:0:0:0:
347,142,160144,1,8,0:0:0:0:
152,73,160311,2,0,P|95:115|117:159,1,132.00000402832,2|0,0:0|0:0,0:0:0:0:
261,106,160644,2,0,B|277:58|277:58|256:15,1,88.000002685547,2|8,0:0|0:0,0:0:0:0:
311,242,160978,2,0,P|373:219|504:222,1,176.000005371094,4|0,0:0|0:0,0:0:0:0:
444,292,161478,1,8,0:0:0:0:
443,128,161644,1,0,0:0:0:0:
311,242,161811,6,0,L|296:393,1,132.00000402832,2|0,0:0|0:0,0:0:0:0:
203,321,162144,2,0,P|151:261|108:262,1,88.000002685547,8|0,0:0|0:0,0:0:0:0:
67,149,162478,2,0,P|111:92|96:58,1,88.000002685547,4|0,0:0|0:0,0:0:0:0:
1,222,162811,1,8,0:0:0:0:
196,169,162978,2,0,P|238:152|336:140,1,132.00000402832,2|0,0:0|0:0,0:0:0:0:
364,139,163311,2,0,L|345:221,2,44.0000013427735,0|0|8,0:0|0:0|0:0,0:0:0:0:
178,87,163644,6,0,P|113:192|161:239,1,176.000005371094,4|0,0:0|0:0,0:0:0:0:
205,357,164144,1,8,0:0:0:0:
64,332,164311,1,0,0:0:0:0:
64,332,164394,1,2,0:0:0:0:
64,332,164478,1,2,0:0:0:0:
76,193,164644,1,2,0:0:0:0:
142,314,164811,1,2,0:0:0:0:
19,254,164978,1,2,0:0:0:0:
211,226,165144,6,0,P|250:291|231:363,1,132.00000402832,4|0,0:0|0:0,0:0:0:0:
230,383,165478,1,8,0:0:0:0:
369,310,165644,2,0,P|447:287|465:348,1,132.00000402832,2|0,0:0|0:0,0:0:0:0:
295,217,165978,2,0,P|306:143|334:123,1,88.000002685547,2|8,0:0|0:0,0:0:0:0:
217,325,166311,2,0,B|149:338|149:338|39:282,1,176.000005371094,2|0,0:0|0:0,0:0:0:0:
12,202,166811,1,8,0:0:0:0:
1,342,166978,1,0,0:0:0:0:
104,173,167144,6,0,B|125:113|125:113|80:48,1,132.00000402832,2|0,0:0|0:0,0:0:0:0:
194,227,167478,2,0,L|285:197,1,88.000002685547,8|0,0:0|0:0,0:0:0:0:
430,108,167811,6,0,P|358:166|381:229,1,132.00000402832,4|0,0:0|0:0,0:0:0:0:
372,244,168144,1,0,0:0:0:0:
501,338,168311,2,0,P|500:258|425:243,1,132.00000402832,2|0,0:0|0:0,0:0:0:0:
370,325,168644,2,0,P|405:383|451:370,1,88.000002685547,2|8,0:0|0:0,0:0:0:0:
279,250,168978,2,0,B|174:228|229:303|88:281,1,176.000005371094,6|0,0:0|0:0,0:0:0:0:
16,194,169478,1,8,0:0:0:0:
112,139,169644,1,0,0:0:0:0:
112,284,169811,6,0,L|96:392,1,88.000002685547,2|0,0:0|0:0,0:0:0:0:
199,192,170144,2,0,L|216:76,1,88.000002685547,8|0,0:0|0:0,0:0:0:0:
297,291,170478,6,0,P|361:304|409:224,1,132.00000402832,4|0,0:0|0:0,0:0:0:0:
418,217,170811,1,8,0:0:0:0:
349,48,170978,2,0,P|321:136|366:147,1,132.00000402832,2|0,0:0|0:0,0:0:0:0:
424,134,171311,2,0,L|512:103,1,88.000002685547,2|8,0:0|0:0,0:0:0:0:
314,243,171644,2,0,B|252:222|252:222|206:237|206:237|129:218,1,176.000005371094,4|0,0:0|0:0,0:0:0:0:
21,268,172144,1,0,0:0:0:0:
115,337,172311,1,0,0:0:0:0:
193,198,172478,6,0,B|220:148|220:148|175:71,1,132.00000402832,2|0,0:0|0:0,0:0:0:0:
73,107,172811,2,0,P|71:186|134:218,1,132.00000402832,8|0,0:0|0:0,0:0:0:0:
193,198,173144,6,0,L|310:171,1,88.000002685547,2|0,0:0|0:0,0:0:0:0:
375,131,173478,1,12,0:0:0:0:
259,272,173644,2,0,L|374:240,1,88.000002685547,2|0,0:0|0:0,0:0:0:0:
444,215,173978,1,2,0:0:0:0:
488,106,174144,1,2,0:0:0:0:
346,17,174311,6,0,B|309:73|309:73|342:203,1,176.000005371094,4|0,0:0|0:0,0:0:0:0:
399,289,174811,1,8,0:0:0:0:
399,289,174894,1,0,0:0:0:0:
399,289,174978,1,0,0:0:0:0:
427,188,175144,5,2,0:0:0:0:
325,210,175311,1,2,0:0:0:0:
447,376,175478,1,2,0:0:0:0:
493,286,175644,1,2,0:0:0:0:
292,310,175811,6,0,P|238:288|113:287,1,160,4|0,0:0|0:0,0:0:0:0:
49,347,176311,1,0,0:0:0:0:
76,213,176478,2,0,P|53:145|-18:145,1,120,8|0,0:0|0:0,0:0:0:0:
28,39,176811,6,0,L|121:74,1,80,2|0,0:0|0:0,0:0:0:0:
243,76,177144,2,0,P|243:19|209:-22,1,80,0|2,0:0|0:0,0:0:0:0:
331,164,177478,2,0,P|385:153|405:117,1,80,0|2,0:0|0:0,0:0:0:0:
338,30,177811,1,8,0:0:0:0:
243,156,177978,2,0,B|208:211|208:211|259:314,1,160
368,331,178478,6,0,L|451:309,1,80,4|0,0:0|0:0,0:0:0:0:
500,189,178811,2,0,L|410:212,1,80,2|0,0:0|0:0,0:0:0:0:
314,131,179144,1,8,0:0:0:0:
377,52,179311,1,0,0:0:0:0:
434,167,179478,1,0,0:0:0:0:
394,261,179644,1,2,0:0:0:0:
235,202,179811,6,0,P|144:170|71:165,1,160,0|0,0:0|0:0,0:0:0:0:
88,76,180311,1,2,0:0:0:0:
247,81,180478,1,2,0:0:0:0:
142,168,180644,1,2,0:0:0:0:
161,27,180811,1,2,0:0:0:0:
235,202,180978,1,2,0:0:0:0:
55,328,181144,6,0,P|98:248|176:256,1,160,4|0,0:0|0:0,0:0:0:0:
241,300,181644,1,0,0:0:0:0:
299,147,181811,2,0,B|307:95|307:95|271:39,1,120,8|0,0:0|0:0,0:0:0:0:
163,6,182144,6,0,P|135:71|141:94,1,80,2|0,0:0|0:0,0:0:0:0:
0,78,182478,2,0,P|52:123|76:125,1,80,0|2,0:0|0:0,0:0:0:0:
29,250,182811,2,0,P|89:212|98:190,1,80,0|2,0:0|0:0,0:0:0:0:
127,75,183144,1,8,0:0:0:0:
205,199,183311,2,0,L|395:170,1,160,0|0,0:0|0:0,0:0:0:0:
450,71,183811,6,0,L|343:66,1,80,4|0,0:0|0:0,0:0:0:0:
434,204,184144,2,0,L|521:186,1,80,0|0,0:0|0:0,0:0:0:0:
409,357,184478,2,0,P|378:322|368:278,1,80,8|0,0:0|0:0,0:0:0:0:
243,307,184811,2,0,P|257:262|290:231,1,80,0|2,0:0|0:0,0:0:0:0:
178,149,185144,2,0,P|223:139|266:152,1,80,0|2,0:0|0:0,0:0:0:0:
290,15,185478,2,0,P|321:50|331:94,1,80,0|2,0:0|0:0,0:0:0:0:
339,208,185811,5,8,0:0:0:0:
308,304,185978,1,0,0:0:0:0:
210,324,186145,1,0,0:0:0:0:
141,249,186311,1,0,0:0:0:0:
174,155,186478,5,0,0:0:0:0:
141,249,186645,1,0,0:0:0:0:
210,324,186811,1,0,0:0:0:0:
339,208,186978,1,0,0:0:0:0:
174,155,187145,5,12,0:0:0:0:
141,249,187311,1,0,0:0:0:0:
210,324,187478,1,0,0:0:0:0:
308,304,187645,5,0,0:0:0:0:
308,304,187728,1,0,0:0:0:0:
308,304,187811,2,0,L|318:393,1,80,2|0,0:0|0:0,0:0:0:0:
205,244,188145,2,0,L|211:348,1,80
160,161,188478,1,2,0:0:0:0:
151,67,188645,1,0,0:0:0:0:
61,48,188811,1,0,0:0:0:0:
14,124,188978,1,0,0:0:0:0:
72,196,189145,1,12,0:0:0:0:
212,158,194478,5,4,0:0:0:0:
225,171,197144,5,4,0:0:0:0:
200,55,198978,5,8,0:0:0:0:
200,55,199061,1,8,0:0:0:0:
200,55,199144,2,0,L|218:141,1,64,8|0,0:0|0:0,0:0:0:0:
295,0,199478,2,0,L|294:75,1,64,0|2,0:0|0:0,0:0:0:0:
268,198,199811,6,0,P|231:237|150:231,1,128,4|0,0:0|0:0,0:0:0:0:
0,330,200478,2,0,B|42:306|42:306|129:316,1,128,8|0,0:0|0:0,0:0:0:0:
230,383,200978,1,2,0:0:0:0:
300,295,201144,2,0,L|279:225,1,64,0|2,0:0|0:0,0:0:0:0:
387,210,201478,2,0,L|367:130,1,64,0|2,0:0|0:0,0:0:0:0:
418,57,201811,2,0,L|462:59,3,32,8|0|0|0,0:0|0:0|0:0|0:0,0:0:0:0:
322,9,202144,2,0,L|279:6,3,32,0|0|0|0,0:0|0:0|0:0|0:0,0:0:0:0:
235,99,202478,6,0,P|177:97|149:30,1,128,4|0,0:0|0:0,0:0:0:0:
315,82,202978,1,2,0:0:0:0:
388,158,203144,2,0,L|383:227,1,64,8|0,0:0|0:0,0:0:0:0:
435,278,203394,2,0,L|428:350,1,64
399,380,203644,1,2,0:0:0:0:
295,351,203811,5,0,0:0:0:0:
208,273,203978,2,0,P|266:258|265:186,1,128,2|2,0:0|0:0,0:0:0:0:
172,126,204478,2,0,L|96:140,1,64,8|0,0:0|0:0,0:0:0:0:
52,49,204811,2,0,L|121:40,1,64
256,52,205144,6,0,P|288:111|264:175,1,128,4|0,0:0|0:0,0:0:0:0:
201,253,205644,1,2,2:0:0:0:
335,256,205811,2,0,L|410:237,1,64,8|0,0:0|0:0,0:0:0:0:
493,316,206144,2,0,L|432:333,1,64,0|2,0:0|0:0,0:0:0:0:
311,382,206478,1,0,0:0:0:0:
175,365,206644,2,0,P|125:313|160:248,1,128,2|0,0:0|0:0,0:0:0:0:
125,143,207144,2,0,L|14:170,1,96,8|0,0:0|0:0,0:0:0:0:
1,169,207478,2,0,L|77:133,1,64,0|2,0:0|0:0,0:0:0:0:
194,51,207811,6,0,P|236:92|232:181,1,128,6|0,0:0|0:0,0:0:0:0:
274,275,208256,1,0,0:0:0:0:
318,273,208367,1,0,0:0:0:0:
351,245,208478,2,0,L|212:274,1,128,12|0,0:0|0:0,0:0:0:0:
298,164,208922,1,0,0:0:0:0:
318,130,209033,1,0,0:0:0:0:
360,117,209145,6,0,L|348:271,1,128,6|0,0:0|0:0,0:0:0:0:
219,199,209589,1,0,0:0:0:0:
176,179,209700,1,0,0:0:0:0:
154,140,209811,2,0,L|213:114,2,42.6666666666667,8|0|0,0:0|0:0|0:0,0:0:0:0:
80,256,210144,2,0,L|22:277,2,42.6666666666667,0|0|0,0:0|0:0|0:0,0:0:0:0:
232,301,210478,6,0,P|297:285|316:194,1,143.999995605469,2|8,0:0|0:0,0:0:0:0:
355,64,210978,1,0,0:0:0:0:
343,87,211061,1,0,0:0:0:0:
332,110,211144,2,0,B|392:120|392:120|482:70,1,143.999995605469,0|8,0:0|0:0,0:0:0:0:
259,31,211644,1,2,0:0:0:0:
240,18,211728,1,0,0:0:0:0:
222,2,211811,2,0,P|184:63|228:146,1,143.999995605469,0|8,0:0|0:0,0:0:0:0:
301,250,212311,5,0,0:0:0:0:
324,227,212394,1,0,0:0:0:0:
341,210,212478,2,0,L|240:225,1,71.9999978027344,0|0,0:0|0:0,0:0:0:0:
192,264,212728,1,0,0:0:0:0:
192,264,212811,2,0,L|93:246,1,71.9999978027344,8|0,0:0|0:0,0:0:0:0:
25,175,213144,6,0,P|0:249|36:320,1,143.999995605469,4|8,0:0|0:0,0:0:0:0:
158,169,213644,1,0,0:0:0:0:
170,146,213728,1,0,0:0:0:0:
183,121,213811,2,0,L|99:136,1,71.9999978027344,0|0,0:0|0:0,0:0:0:0:
64,62,214061,1,0,0:0:0:0:
64,62,214144,2,0,L|160:47,1,71.9999978027344,8|0,0:0|0:0,0:0:0:0:
281,113,214478,6,0,L|274:276,1,143.999995605469,0|8,0:0|0:0,0:0:0:0:
359,340,214978,1,0,0:0:0:0:
403,224,215144,2,0,L|389:125,1,71.9999978027344,2|0,0:0|0:0,0:0:0:0:
500,122,215478,2,0,L|505:28,1,71.9999978027344,8|0,0:0|0:0,0:0:0:0:
354,32,215811,6,0,P|290:68|240:41,1,107.999996704102,4|0,0:0|0:0,0:0:0:0:
222,56,216144,2,0,L|244:156,1,71.9999978027344,8|0,0:0|0:0,0:0:0:0:
219,249,216478,1,2,0:0:0:0:
149,160,216644,1,2,0:0:0:0:
282,190,216811,1,8,0:0:0:0:
69,201,216978,6,0,P|70:114|139:67,1,143.999995605469,4|0,0:0|0:0,0:0:0:0:
302,98,217478,2,0,L|220:121,1,71.9999978027344,8|0,0:0|0:0,0:0:0:0:
245,26,217728,1,0,0:0:0:0:
245,26,217811,2,0,L|340:-3,1,71.9999978027344,2|0,0:0|0:0,0:0:0:0:
426,120,218144,1,8,0:0:0:0:
302,98,218311,1,0,0:0:0:0:
474,41,218478,6,0,P|512:103|482:194,1,143.999995605469,4|8,0:0|0:0,0:0:0:0:
441,272,218978,2,0,L|519:260,1,71.9999978027344
421,370,219311,2,0,L|513:354,1,71.9999978027344,0|8,0:0|0:0,0:0:0:0:
337,310,219644,1,2,0:0:0:0:
199,253,219811,6,0,P|179:184|204:141,1,107.999996704102,0|0,0:0|0:0,0:0:0:0:
224,112,220144,2,0,B|183:141|183:141|116:112,1,107.999996704102,12|0,0:0|0:0,0:0:0:0:
54,58,220478,1,2,0:0:0:0:
154,25,220644,1,2,0:0:0:0:
150,184,220811,1,2,0:0:0:0:
56,149,220978,1,2,0:0:0:0:
224,112,221144,6,0,P|262:217|237:247,1,143.999995605469,4|0,0:0|0:0,0:0:0:0:
368,289,221644,2,0,L|442:276,1,71.9999978027344,2|8,0:0|0:0,0:0:0:0:
292,380,221978,2,0,L|204:375,1,71.9999978027344,0|0,0:0|0:0,0:0:0:0:
100,265,222311,6,0,B|167:229|167:229|248:286,1,143.999995605469,4|2,0:0|0:0,0:0:0:0:
51,347,222811,2,0,P|6:309|14:237,1,107.999996704102,0|0,0:0|0:0,0:0:0:0:
45,192,223144,1,12,0:0:0:0:
185,85,223311,1,0,0:0:0:0:
176,110,223394,1,0,0:0:0:0:
171,135,223478,2,0,L|272:124,1,71.9999978027344,0|2,0:0|0:0,0:0:0:0:
442,212,223811,6,0,B|382:248|382:248|287:204,1,143.999995605469,4|0,0:0|0:0,0:0:0:0:
187,262,224311,2,0,L|203:356,1,71.9999978027344,2|8,0:0|0:0,0:0:0:0:
233,131,224644,2,0,L|215:51,1,71.9999978027344
99,202,224978,6,0,P|81:258|126:345,1,143.999995605469,6|0,0:0|0:0,0:0:0:0:
256,245,225478,2,0,L|169:266,1,71.9999978027344,0|2,0:0|0:0,0:0:0:0:
285,142,225811,2,0,L|197:161,1,71.9999978027344,0|2,0:0|0:0,0:0:0:0:
358,63,226144,6,0,L|344:2,2,47.9999985351563
434,123,226478,1,0,0:0:0:0:
442,144,226561,1,0,0:0:0:0:
451,165,226644,1,8,0:0:0:0:
460,183,226728,1,0,0:0:0:0:
469,201,226811,2,0,L|386:183,1,71.9999978027344,0|0,0:0|0:0,0:0:0:0:
253,263,227144,2,0,L|344:241,1,71.9999978027344,0|2,0:0|0:0,0:0:0:0:
234,149,227478,2,0,L|154:125,1,71.9999978027344,0|2,0:0|0:0,0:0:0:0:
358,110,227811,6,0,P|367:36|425:10,1,120.000004577637
455,93,228311,2,0,L|453:161,1,60.0000022888184,0|0,0:0|0:0,0:0:0:0:
401,225,228644,2,0,L|411:292,1,60.0000022888184,0|0,0:0|0:0,0:0:0:0:
419,369,228978,2,0,P|371:352|285:345,1,120.000004577637,2|0,0:0|0:0,0:0:0:0:
130,177,229811,5,0,0:0:0:0:
204,126,230144,1,0,0:0:0:0:
258,216,230478,2,0,L|249:338,1,120.000004577637,2|0,0:0|0:0,0:0:0:0:
356,223,230978,2,0,L|357:147,1,60.0000022888184,0|0,0:0|0:0,0:0:0:0:
440,102,231311,2,0,L|457:173,1,60.0000022888184,0|0,0:0|0:0,0:0:0:0:
419,261,231644,2,0,P|368:298|308:271,1,120.000004577637,2|0,0:0|0:0,0:0:0:0:
137,130,232478,6,0,L|214:111,1,60.0000022888184,0|0,0:0|0:0,0:0:0:0:
128,216,232811,2,0,L|194:197,1,60.0000022888184,0|0,0:0|0:0,0:0:0:0:
282,143,233144,2,0,P|282:72|245:40,1,120.000004577637,2|0,0:0|0:0,0:0:0:0:
195,153,233644,2,0,L|213:221,1,60.0000022888184,0|0,0:0|0:0,0:0:0:0:
277,267,233978,2,0,L|263:347,1,60.0000022888184,0|0,0:0|0:0,0:0:0:0:
337,372,234311,2,0,P|389:355|458:377,1,120.000004577637,2|0,0:0|0:0,0:0:0:0:
390,105,235144,5,0,0:0:0:0:
317,182,235478,1,0,0:0:0:0:
435,40,235811,2,0,P|467:75|453:156,1,120.000004577637,2|0,0:0|0:0,0:0:0:0:
397,243,236311,2,0,L|518:209,1,120.000004577637,0|0,0:0|0:0,0:0:0:0:
370,345,236978,2,0,P|318:373|222:288,1,180.000006866455,2|0,0:0|0:0,0:0:0:0:
134,239,237644,1,0,0:0:0:0:
134,239,237728,1,0,0:0:0:0:
134,239,237811,2,0,L|149:300,1,60.0000022888184,2|0,0:0|0:0,0:0:0:0:
27,196,238144,2,0,L|49:273,1,60.0000022888184,2|0,0:3|0:0,0:0:0:0:
188,125,238478,6,0,P|193:61|142:5,1,136.000002593994,2|0,0:0|0:0,0:0:0:0:
37,97,238978,2,0,L|110:82,1,68.0000012969971,2|0,0:0|0:0,0:0:0:0:
254,109,239311,2,0,L|170:129,1,68.0000012969971,0|0,0:0|0:0,0:0:0:0:
98,229,239644,2,0,L|237:202,1,136.000002593994,2|2,0:0|0:0,0:0:0:0:
328,243,240144,2,0,L|322:336,1,68.0000012969971,0|2,0:0|0:0,0:0:0:0:
416,366,240478,1,0,0:0:0:0:
481,291,240644,1,0,0:0:0:0:
419,208,240811,1,0,0:0:0:0:
328,243,240978,1,0,0:0:0:0:
328,243,241061,1,0,0:0:0:0:
328,243,241144,6,0,B|265:269|265:269|192:230,1,136.000002593994,2|0,0:0|0:0,0:0:0:0:
152,111,241644,2,0,P|189:133|202:180,1,68.0000012969971,2|0,0:0|0:0,0:0:0:0:
100,246,241978,2,0,P|63:224|50:177,1,68.0000012969971,0|0,0:0|0:0,0:0:0:0:
69,65,242311,1,2,0:0:0:0:
148,14,242478,1,0,0:0:0:0:
231,58,242644,1,2,0:0:0:0:
244,155,242811,2,0,L|251:225,1,68.0000012969971,0|2,0:0|0:0,0:0:0:0:
345,316,243144,6,0,L|340:234,1,68.0000012969971,0|2,0:0|0:0,0:0:0:0:
437,153,243478,2,0,L|436:247,1,68.0000012969971,0|2,0:0|0:0,0:0:0:0:
349,122,243811,2,0,P|383:72|456:66,1,136.000002593994,2|0,0:0|0:0,0:0:0:0:
330,208,244311,2,0,L|246:223,1,68.0000012969971,2|0,0:0|0:0,0:0:0:0:
447,284,244644,2,0,L|522:264,1,68.0000012969971,0|0,0:0|0:0,0:0:0:0:
331,345,244978,2,0,P|269:321|190:319,1,136.000002593994,0|2,0:0|0:0,0:0:0:0:
102,298,245478,2,0,L|119:382,1,68.0000012969971,0|2,0:0|0:0,0:0:0:0:
11,233,245811,2,0,P|29:163|68:140,1,102.000001945496,0|0,0:0|0:0,0:0:0:0:
80,128,246144,2,0,L|-9:142,1,68.0000012969971,0|2,0:0|0:0,0:0:0:0:
188,181,246478,6,0,P|264:159|281:88,1,136.000002593994,2|0,0:0|0:0,0:0:0:0:
380,51,246978,2,0,L|388:137,1,68.0000012969971,2|0,0:0|0:0,0:0:0:0:
384,260,247311,1,0,0:0:0:0:
293,163,247478,1,0,0:0:0:0:
444,201,247644,2,0,L|523:181,1,68.0000012969971,2|0,0:0|0:0,0:0:0:0:
316,303,247978,2,0,L|222:293,1,68.0000012969971,2|0,0:0|0:0,0:0:0:0:
158,214,248311,5,8,0:0:0:0:
158,214,248394,1,8,0:0:0:0:
158,214,248478,1,8,0:0:0:0:
25,205,248644,1,8,0:0:0:0:
128,128,248811,1,8,0:0:0:0:
84,290,248978,1,8,0:0:0:0:
0,119,249144,6,0,P|14:27|75:-1,1,151.999995941162,4|0,0:0|0:0,0:0:0:0:
128,128,249644,1,2,0:0:0:0:
47,188,249811,1,2,0:0:0:0:
128,49,249978,1,2,0:0:0:0:
198,225,250144,2,0,L|185:362,1,113.999996955872,8|0,0:0|0:0,0:0:0:0:
180,381,250478,6,0,P|250:337|314:357,1,132.00000402832,4|0,0:0|0:0,0:0:0:0:
337,363,250811,1,8,0:0:0:0:
470,288,250978,2,0,P|472:228|408:222,1,132.00000402832,2|0,0:0|0:0,0:0:0:0:
309,157,251311,2,0,L|340:249,1,88.000002685547,2|8,0:0|0:0,0:0:0:0:
199,104,251644,2,0,L|253:288,1,176.000005371094,6|0,0:0|0:0,0:0:0:0:
110,347,252144,1,8,0:0:0:0:
132,255,252311,1,0,0:0:0:0:
260,384,252478,6,0,B|288:327|288:327|236:254,1,132.00000402832,2|0,0:0|0:0,0:0:0:0:
290,184,252811,2,0,L|379:164,1,88.000002685547,8|0,0:0|0:0,0:0:0:0:
187,106,253144,6,0,B|185:11|185:11|241:52,1,132.00000402832,4|0,0:0|0:0,0:0:0:0:
249,50,253478,1,8,0:0:0:0:
116,190,253644,2,0,P|37:172|38:117,1,132.00000402832,2|0,0:0|0:0,0:0:0:0:
210,267,253978,2,0,P|191:331|153:350,1,88.000002685547,2|8,0:0|0:0,0:0:0:0:
345,214,254311,2,0,B|432:201|409:272|518:256,1,176.000005371094,4|0,0:0|0:0,0:0:0:0:
472,169,254811,1,8,0:0:0:0:
369,302,254978,1,0,0:0:0:0:
271,177,255144,6,0,L|252:92,1,88.000002685547,2|0,0:0|0:0,0:0:0:0:
205,299,255478,2,0,L|227:399,1,88.000002685547,8|0,0:0|0:0,0:0:0:0:
79,241,255811,6,0,P|20:225|10:137,1,132.00000402832,4|0,0:0|0:0,0:0:0:0:
4,115,256144,1,8,0:0:0:0:
162,87,256311,2,0,P|131:155|74:161,1,132.00000402832,2|0,0:0|0:0,0:0:0:0:
88,87,256644,2,0,L|94:-4,1,88.000002685547,2|8,0:0|0:0,0:0:0:0:
249,146,256978,2,0,B|274:197|274:197|228:343,1,176.000005371094,4|0,0:0|0:0,0:0:0:0:
142,356,257478,1,8,0:0:0:0:
107,256,257644,1,0,0:0:0:0:
292,214,257811,6,0,L|422:192,1,132.00000402832,2|0,0:0|0:0,0:0:0:0:
298,120,258144,2,0,L|389:92,1,88.000002685547,8|0,0:0|0:0,0:0:0:0:
199,171,258478,6,0,P|178:92|199:62,1,88.000002685547,4|0,0:0|0:0,0:0:0:0:
264,4,258811,1,12,0:0:0:0:
298,120,258978,2,0,L|279:239,1,88.000002685547,2|0,0:0|0:0,0:0:0:0:
338,346,259311,1,0,0:0:0:0:
437,232,259478,1,8,0:0:0:0:
264,289,259644,6,0,B|164:271|202:350|85:322,1,176.000005371094,4|0,0:0|0:0,0:0:0:0:
56,210,260144,1,8,0:0:0:0:
56,79,260311,1,0,0:0:0:0:
56,79,260394,1,2,0:0:0:0:
56,79,260478,1,2,0:0:0:0:
136,184,260644,1,2,0:0:0:0:
3,143,260811,1,2,0:0:0:0:
136,108,260978,1,2,0:0:0:0:
256,224,261144,6,0,B|275:268|275:268|237:373,1,132.00000402832,4|0,0:0|0:0,0:0:0:0:
236,384,261478,1,8,0:0:0:0:
169,241,261644,2,0,P|171:178|237:137,1,132.00000402832,2|0,0:0|0:0,0:0:0:0:
340,236,261978,2,0,P|319:287|274:304,1,88.000002685547,2|8,0:0|0:0,0:0:0:0:
230,63,262311,2,0,B|271:115|271:115|251:254,1,176.000005371094,6|0,0:0|0:0,0:0:0:0:
333,338,262811,1,8,0:0:0:0:
428,274,262978,1,0,0:0:0:0:
377,149,263144,6,0,P|438:170|502:104,1,132.00000402832,2|0,0:0|0:0,0:0:0:0:
423,8,263478,2,0,L|432:114,1,88.000002685547,8|0,0:0|0:0,0:0:0:0:
330,217,263811,6,0,P|291:198|166:185,1,132.00000402832,4|0,0:0|0:0,0:0:0:0:
159,183,264144,1,8,0:0:0:0:
161,338,264311,2,0,P|219:324|216:247,1,132.00000402832,2|0,0:0|0:0,0:0:0:0:
70,290,264644,2,0,L|64:390,1,88.000002685547,2|8,0:0|0:0,0:0:0:0:
0,178,264978,2,0,B|-1:58|-1:58|49:99,1,176.000005371094,6|0,0:0|0:0,0:0:0:0:
161,155,265478,1,8,0:0:0:0:
79,210,265644,1,0,0:0:0:0:
131,74,265811,6,0,P|217:91|234:114,1,88.000002685547,2|0,0:0|0:0,0:0:0:0:
270,251,266144,2,0,P|241:168|253:141,1,88.000002685547,8|0,0:0|0:0,0:0:0:0:
384,18,266478,6,0,P|355:85|273:109,1,132.00000402832,4|0,0:0|0:0,0:0:0:0:
265,117,266811,1,8,0:0:0:0:
270,251,266978,2,0,P|305:200|377:204,1,132.00000402832,2|0,0:0|0:0,0:0:0:0:
439,283,267311,2,0,L|321:269,1,88.000002685547,2|8,0:0|0:0,0:0:0:0:
161,369,267644,2,0,B|229:349|229:349|270:363|270:363|341:343,1,176.000005371094,4|0,0:0|0:0,0:0:0:0:
439,283,268144,1,0,0:0:0:0:
358,189,268311,1,0,0:0:0:0:
204,183,268478,6,0,P|214:76|235:64,1,132.00000402832,2|0,0:0|0:0,0:0:0:0:
223,1,268811,2,0,L|248:105,1,88.000002685547,8|0,0:0|0:0,0:0:0:0:
135,246,269144,6,0,L|106:153,1,88.000002685547,2|0,0:0|0:0,0:0:0:0:
115,60,269478,1,12,0:0:0:0:
261,122,269644,2,0,P|227:172|169:184,1,88.000002685547,2|0,0:0|0:0,0:0:0:0:
356,49,269978,2,0,P|385:107|370:163,1,88.000002685547,2|2,0:0|0:0,0:0:0:0:
338,310,270311,6,0,L|530:282,1,176.000005371094,4|0,0:0|0:0,0:0:0:0:
470,124,270811,2,0,L|451:220,1,88.000002685547,8|0,0:0|0:0,0:0:0:0:
338,310,271144,1,2,0:0:0:0:
254,195,271311,1,2,0:0:0:0:
382,236,271478,1,2,0:0:0:0:
293,376,271644,1,2,0:0:0:0:
190,272,271811,6,0,B|130:258|130:258|95:279|95:279|3:259,1,160,4|0,0:0|0:0,0:0:0:0:
0,148,272311,1,0,0:0:0:0:
67,38,272478,2,0,P|108:48|139:117,1,120,8|0,0:0|0:0,0:0:0:0:
219,152,272811,6,0,P|248:137|262:80,1,80,2|0,0:0|0:0,0:0:0:0:
337,0,273144,2,0,P|335:32|377:73,1,80,0|2,0:0|0:0,0:0:0:0:
427,170,273478,2,0,P|399:152|343:168,1,80,0|2,0:0|0:0,0:0:0:0:
265,58,273811,1,8,0:0:0:0:
241,202,273978,2,0,B|227:268|227:268|241:300|241:300|232:383,1,160
76,281,274477,6,0,L|183:297,1,80,4|0,0:0|0:0,0:0:0:0:
39,179,274811,2,0,L|128:193,1,80,2|0,0:0|0:0,0:0:0:0:
263,140,275144,1,8,0:0:0:0:
155,97,275311,1,0,0:0:0:0:
223,250,275477,1,0,0:0:0:0:
120,225,275644,1,2,0:0:0:0:
263,140,275811,6,0,L|367:118,1,80,0|2,0:0|0:0,0:0:0:0:
493,85,276144,1,2,0:0:0:0:
465,69,276228,1,2,0:0:0:0:
436,55,276311,1,2,0:0:0:0:
375,226,276478,1,8,0:0:0:0:
499,169,276644,1,0,0:0:0:0:
336,142,276811,1,2,0:0:0:0:
490,276,276978,1,0,0:0:0:0:
340,348,277144,6,0,B|255:336|255:336|236:303|236:303|209:329|209:329|117:315,1,240,4|0,0:0|0:0,0:0:0:0:
23,180,277811,2,0,P|86:166|139:193,1,120,8|0,0:0|0:0,0:0:0:0:
218,92,278144,6,0,P|215:27|183:-11,1,80,2|0,0:0|0:0,0:0:0:0:
308,177,278478,2,0,P|368:154|395:111,1,80,0|2,0:0|0:0,0:0:0:0:
278,299,278811,2,0,P|318:349|366:361,1,80,0|2,0:0|0:0,0:0:0:0:
422,264,279144,1,8,0:0:0:0:
218,233,279311,2,0,L|45:256,1,160,0|0,0:0|0:0,0:0:0:0:
0,124,279811,6,0,L|110:145,1,80,4|0,0:0|0:0,0:0:0:0:
198,63,280144,2,0,L|98:39,1,80,0|0,0:0|0:0,0:0:0:0:
290,79,280478,6,0,L|307:-23,1,80,8|0,0:0|0:0,0:0:0:0:
375,143,280811,2,0,L|398:44,1,80,0|2,0:0|0:0,0:0:0:0:
461,206,281144,2,0,P|473:266|447:310,1,80,0|2,0:0|0:0,0:0:0:0:
324,376,281478,2,0,P|312:316|338:272,1,80,0|2,0:0|0:0,0:0:0:0:
375,143,281811,5,8,0:0:0:0:
391,237,281978,1,0,0:0:0:0:
318,300,282144,1,0,0:0:0:0:
227,267,282311,1,0,0:0:0:0:
284,110,282477,5,0,0:0:0:0:
359,48,282644,1,0,0:0:0:0:
449,81,282810,1,0,0:0:0:0:
466,177,282977,1,0,0:0:0:0:
302,204,283144,5,12,0:0:0:0:
211,173,283311,1,0,0:0:0:0:
194,77,283477,1,0,0:0:0:0:
269,15,283644,5,0,0:0:0:0:
269,15,283728,1,0,0:0:0:0:
269,15,283811,2,0,L|272:110,1,80,2|0,0:0|0:0,0:0:0:0:
302,204,284144,2,0,L|302:305,1,80,0|0,0:0|0:0,0:0:0:0:
252,364,284478,5,2,0:0:0:0:
161,333,284645,1,0,0:0:0:0:
140,239,284811,1,0,0:0:0:0:
211,174,284978,1,0,0:0:0:0:
302,204,285144,1,0,0:0:0:0:
366,136,294978,5,0,0:0:0:0:
376,124,295061,1,0,0:0:0:0:
385,115,295144,2,0,L|385:200,1,64,0|0,0:0|0:0,0:0:0:0:
301,294,295478,2,0,P|311:240|280:187,1,96
237,40,295811,6,0,P|209:93|215:133,1,64,0|0,0:0|0:0,0:0:0:0:
298,198,296145,1,0,0:0:0:0:
132,71,296311,2,0,P|135:131|161:162,1,64,0|0,0:0|0:0,0:0:0:0:
267,178,296645,1,0,0:0:0:0:
56,152,296811,2,0,P|89:203|127:216,1,64,0|0,0:0|0:0,0:0:0:0:
226,178,297145,1,0,0:0:0:0:
33,258,297311,2,0,P|88:285|128:279,1,64,0|0,0:0|0:0,0:0:0:0:
193,195,297645,1,0,0:0:0:0:
301,294,297811,6,0,P|377:309|410:294,1,96,0|0,0:0|0:0,0:0:0:0:
392,304,298144,2,0,P|355:288|289:299,1,96,0|0,0:0|0:0,0:0:0:0:
474,328,298478,6,0,P|475:283|452:243,1,64,0|0,0:0|0:0,0:0:0:0:
371,161,298811,1,0,0:0:0:0:
366,360,298978,2,0,P|389:321|389:275,1,64,0|0,0:0|0:0,0:0:0:0:
412,179,299311,1,0,0:0:0:0:
246,343,299478,2,0,P|285:321|308:281,1,64,0|0,0:0|0:0,0:0:0:0:
396,228,299811,1,0,0:0:0:0:
167,264,299978,2,0,P|212:265|252:242,1,64,0|0,0:0|0:0,0:0:0:0:
351,207,300311,1,0,0:0:0:0:
142,139,300478,6,0,P|194:170|240:172,1,96,0|0,0:0|0:0,0:0:0:0:
228,173,300811,2,0,P|176:142|130:140,1,96,0|0,0:0|0:0,0:0:0:0:
10,281,301144,6,0,P|57:242|66:202,1,64,0|0,0:0|0:0,0:0:0:0:
15,109,301478,1,0,0:0:0:0:
118,291,301644,2,0,P|138:233|127:195,1,64,0|0,0:0|0:0,0:0:0:0:
37,141,301978,1,0,0:0:0:0:
219,247,302144,2,0,P|208:186|179:159,1,64,0|0,0:0|0:0,0:0:0:0:
74,157,302478,1,0,0:0:0:0:
284,158,302644,2,0,P|244:109|205:100,1,64,0|0,0:0|0:0,0:0:0:0:
112,153,302978,1,0,0:0:0:0:
306,55,303144,6,0,P|248:5|204:8,1,96,0|0,0:0|0:0,0:0:0:0:
231,5,303478,2,0,P|287:53|331:50,1,96,0|0,0:0|0:0,0:0:0:0:
392,148,303811,6,0,L|388:237,1,64,0|0,0:0|0:0,0:0:0:0:
292,237,304144,1,0,0:0:0:0:
262,200,304311,2,0,L|281:287,1,64,0|0,0:0|0:0,0:0:0:0:
176,342,304644,1,0,0:0:0:0:
145,303,304811,2,0,L|166:392,1,64,0|0,0:0|0:0,0:0:0:0:
58,309,305144,5,2,0:0:0:0:
91,172,305311,1,2,0:0:0:0:
145,303,305478,1,2,0:0:0:0:
25,224,305644,1,2,0:0:0:0:
171,203,305811,6,0,L|185:249,1,32,2|0,0:0|0:0,0:0:0:0:
193,151,305978,2,0,L|207:197,1,32,2|0,0:0|0:0,0:0:0:0:
215,102,306144,2,0,L|229:148,1,32,2|0,0:0|0:0,0:0:0:0:
244,55,306311,2,0,L|258:101,1,32,2|0,0:0|0:0,0:0:0:0:
