osu file format v14

[General]
AudioFilename: audio.mp3
AudioLeadIn: 0
PreviewTime: 56264
Countdown: 0
SampleSet: Soft
StackLeniency: 0.7
Mode: 2
LetterboxInBreaks: 0
WidescreenStoryboard: 1

[Editor]
Bookmarks: 103948
DistanceSpacing: 1.1
BeatDivisor: 6
GridSize: 4
TimelineZoom: 2.3

[Metadata]
Title:Koi, Hitokuchi.
TitleUnicode:恋、ひとくち。
Artist:Yuizuki Sora
ArtistUnicode:結月そら
Creator:amulet-pp
Version:Syamu's Overdose
Source:恋ニ、甘味ヲソエテ
Tags:japanese video game galgame vn 宮坂なこ 宮坂みゆ Naco Miyasaka Miyu Miyasaka Koi ni Kanmi o Soete Love's Sweet Garnish CANVAS GARDEN eroge visual novel Syamu
BeatmapID:2629996
BeatmapSetID:1264982

[Difficulty]
HPDrainRate:6
CircleSize:4.2
OverallDifficulty:9.3
ApproachRate:9.3
SliderMultiplier:1.9
SliderTickRate:1

[Events]
//Background and Video events
0,0,"BG3.jpg",0,0
//Break Periods
//Storyboard Layer 0 (Background)
//Storyboard Layer 1 (Fail)
//Storyboard Layer 2 (Pass)
//Storyboard Layer 3 (Foreground)
//Storyboard Layer 4 (Overlay)
//Storyboard Sound Samples

[TimingPoints]
370,315.789473684211,4,2,5,30,1,0
685,-100,4,2,5,50,0,0
1001,-100,4,2,5,60,0,0
1633,-100,4,2,5,70,0,0
10475,-100,4,2,5,50,0,0
11738,-100,4,2,6,55,0,0
30685,-100,4,2,5,55,0,0
31948,-100,4,2,5,60,0,0
52159,-100,4,2,5,65,0,0
55317,-66.6666666666667,4,2,5,65,0,0
55633,-100,4,2,5,65,0,0
57212,-100,4,2,5,70,0,1
95106,-66.6666666666667,4,2,5,60,0,0
95422,-100,4,2,5,60,0,0
97633,-100,4,2,5,70,0,0
98896,-47.6190476190476,4,2,5,70,0,0
99212,-100,4,2,5,70,0,0
99633,-100,4,2,5,40,0,0
100159,-100,4,2,5,33,0,0
101422,-100,4,2,5,20,0,0
102685,-100,4,2,5,9,0,0
103948,-100,4,2,5,5,0,0

[Colours]
Combo1 : 255,106,255
Combo2 : 64,255,255
Combo3 : 128,128,255
Combo4 : 255,255,85

[HitObjects]
288,256,370,6,0,L|448:256,1,126.666666666667,0|8,1:0|0:3,0:0:0:0:
344,192,685,1,8,0:3:0:0:
416,144,791,1,0,0:0:0:0:
344,104,896,1,8,0:3:0:0:
152,304,1001,2,0,L|236:304,2,63.3333333333333,0|0|0,1:0|0:0|0:0,0:0:0:0:
352,32,1317,2,0,L|280:32,2,63.3333333333333,8|0|0,0:0|0:0|0:0,0:0:0:0:
128,108,1633,6,0,B|64:108|64:108|168:108,1,126.666666666667,2|0,1:0|0:0,0:0:0:0:
336,340,1948,2,0,L|484:340,1,126.666666666667,8|0,2:0|0:0,0:0:0:0:
344,248,2264,2,0,L|316:108,1,126.666666666667,0|0,1:0|1:0,0:0:0:0:
200,72,2580,2,0,L|64:72,1,126.666666666667,8|0,2:0|0:0,0:0:0:0:
300,296,2896,6,0,L|456:296,1,126.666666666667,2|0,1:0|0:0,0:0:0:0:
216,168,3212,2,0,L|360:168,1,126.666666666667,8|0,2:0|0:0,0:0:0:0:
152,328,3527,2,0,L|116:188,1,126.666666666667,2|0,1:0|1:0,0:0:0:0:
344,52,3843,2,0,L|376:196,1,126.666666666667,10|0,2:0|0:0,0:0:0:0:
180,272,4159,6,0,L|52:272,1,126.666666666667,2|0,1:0|0:0,0:0:0:0:
172,224,4475,2,0,L|304:224,1,126.666666666667,8|0,2:0|0:0,0:0:0:0:
96,56,4791,2,0,P|69:116|131:156,1,126.666666666667,0|0,1:0|1:0,0:0:0:0:
224,176,5106,2,0,L|248:336,1,126.666666666667,8|0,2:0|0:0,0:0:0:0:
448,268,5422,6,0,P|480:200|428:184,1,126.666666666667,2|0,1:0|0:0,0:0:0:0:
240,72,5738,2,0,L|372:72,1,126.666666666667,10|0,2:0|0:0,0:0:0:0:
172,188,6054,2,0,L|0:188,1,126.666666666667,2|0,1:0|1:0,0:0:0:0:
272,344,6370,2,0,L|416:344,1,126.666666666667,10|0,2:0|0:0,0:0:0:0:
160,260,6685,6,0,P|208:212|300:204,1,126.666666666667,6|0,1:0|0:0,0:0:0:0:
380,140,7001,2,0,L|496:224,1,126.666666666667,8|0,2:0|0:0,0:0:0:0:
292,296,7317,2,0,L|160:296,1,126.666666666667,2|0,1:0|1:0,0:0:0:0:
296,240,7633,2,0,P|328:201|248:170,1,126.666666666667,8|0,2:0|0:0,0:0:0:0:
84,56,7948,6,0,B|20:56|20:56|112:56,1,126.666666666667,2|0,1:0|0:0,0:0:0:0:
200,120,8264,2,0,L|32:124,1,126.666666666667,8|0,2:0|0:0,0:0:0:0:
268,144,8580,2,0,L|424:144,1,126.666666666667,2|0,1:0|1:0,0:0:0:0:
200,312,8896,2,0,L|48:312,1,126.666666666667,10|0,2:0|0:0,0:0:0:0:
304,204,9212,6,0,B|368:204|368:204|284:204,1,126.666666666667,4|2,1:0|1:0,0:0:0:0:
208,204,9527,1,8,0:0:0:0:
368,72,9738,2,0,L|384:152,1,63.3333333333333,2|8,1:0|3:0,0:0:0:0:
200,288,10054,2,0,L|172:204,1,63.3333333333333,2|8,0:0|0:0,0:0:0:0:
352,256,10370,1,2,1:0:0:0:
72,328,10475,6,0,B|32:276|40:244|52:176|92:136|140:120|188:100|284:96,1,380,6|2,2:0|2:0,0:0:0:0:
432,332,11738,6,0,P|464:248|408:168,1,190,4|10,1:0|2:0,0:0:0:0:
128,232,12370,2,0,P|88:160|140:104,1,126.666666666667,0|0,0:0|0:0,0:0:0:0:
168,108,12685,1,8,2:0:0:0:
356,64,12896,1,2,0:0:0:0:
228,48,13001,5,0,1:0:0:0:
396,276,13317,2,0,P|456:228|416:168,1,126.666666666667,10|0,2:0|0:0,0:0:0:0:
380,176,13633,1,2,0:0:0:0:
60,144,13948,1,10,2:0:0:0:
438,296,14264,6,0,L|234:296,3,190,2|10|2|10,1:0|2:0|0:0|2:0,0:0:0:0:
138,296,15422,1,2,0:0:0:0:
268,248,15527,5,0,1:0:0:0:
484,176,15843,2,0,L|316:176,1,126.666666666667,8|0,2:0|0:0,0:0:0:0:
168,80,16159,2,0,L|4:80,1,126.666666666667,2|0,0:0|0:0,0:0:0:0:
236,276,16475,2,0,L|368:276,1,126.666666666667,10|0,2:0|0:0,0:0:0:0:
172,328,16791,6,0,P|96:292|72:184,1,190,2|8,1:0|2:0,0:0:0:0:
308,76,17422,2,0,L|172:76,1,126.666666666667,2|0,0:0|0:0,0:0:0:0:
64,124,17738,2,0,L|196:124,1,126.666666666667,8|0,2:0|0:0,0:0:0:0:
376,336,18054,6,0,B|440:336|440:336|356:336,1,126.666666666667,2|0,1:0|0:0,0:0:0:0:
280,336,18370,1,8,2:0:0:0:
408,228,18580,1,0,0:0:0:0:
280,156,18685,2,0,B|216:156|216:156|288:156,1,126.666666666667,2|0,0:0|0:0,0:0:0:0:
392,156,19001,1,8,2:0:0:0:
412,72,19212,1,0,0:0:0:0:
172,312,19317,6,0,P|112:276|200:212,1,190,6|10,1:0|2:0,0:0:0:0:
272,168,19843,1,0,0:0:0:0:
144,48,19948,2,0,L|8:44,1,126.666666666667,2|0,0:0|0:0,0:0:0:0:
132,288,20264,2,0,L|208:172,1,126.666666666667,8|0,2:0|0:0,0:0:0:0:
444,224,20580,6,0,L|236:224,1,190,6|8,1:0|2:0,0:0:0:0:
384,224,21106,1,0,0:0:0:0:
268,172,21212,1,2,0:0:0:0:
72,136,21527,2,0,P|88:80|144:40,1,126.666666666667,8|0,2:0|0:0,0:0:0:0:
352,352,21843,6,0,P|412:308|320:120,1,316.666666666667,2|0,1:0|0:0,0:0:0:0:
204,184,22475,2,0,B|104:184|104:184|224:184,1,190,0|10,0:0|2:0,0:0:0:0:
324,180,23001,1,2,0:0:0:0:
128,324,23106,6,0,B|84:272|78:247|80:204|56:172|72:144|232:110,1,316.666666666667,0|0,1:0|0:0,0:0:0:0:
352,88,23738,2,0,B|454:88|454:88|328:88,1,190,2|10,0:0|2:0,0:0:0:0:
208,248,24264,1,0,0:0:0:0:
464,128,24370,6,0,P|273:128|144:152,1,316.666666666667,2|0,1:0|0:0,0:0:0:0:
280,304,25001,1,2,0:0:0:0:
64,240,25317,2,0,P|44:190|113:162,1,126.666666666667,8|0,2:0|0:0,0:0:0:0:
352,112,25633,5,2,1:0:0:0:
164,36,25948,2,0,L|312:36,1,126.666666666667,8|0,2:0|0:0,0:0:0:0:
420,224,26264,2,0,L|224:224,1,190,0|10,0:0|2:0,0:0:0:0:
96,224,26791,1,0,0:0:0:0:
336,332,26896,6,0,P|276:288|368:92,1,316.666666666667,6|0,1:0|0:0,0:0:0:0:
472,44,27527,1,2,0:0:0:0:
216,40,27843,2,0,L|344:40,1,126.666666666667,8|0,2:0|0:0,0:0:0:0:
84,160,28159,6,0,L|280:160,3,190,2|10|2|10,1:0|2:0|0:0|2:0,0:0:0:0:
84,160,29317,1,0,0:0:0:0:
336,344,29422,6,0,P|368:304|288:192,1,190,6|10,1:0|2:0,0:0:0:0:
120,188,29948,1,2,0:0:0:0:
240,100,30054,2,0,B|324:96|324:96|204:116,1,190,0|8,0:0|2:0,0:0:0:0:
128,304,30580,1,0,0:0:0:0:
338,200,30685,5,10,2:0:0:0:
68,64,30896,2,0,L|272:64,1,190,4|0,0:0|0:0,0:0:0:0:
484,240,31317,1,2,0:0:0:0:
356,192,31527,1,0,0:0:0:0:
132,248,31633,2,0,P|96:192|144:148,1,126.666666666667,8|0,2:0|0:0,0:0:0:0:
320,88,31948,6,0,B|424:88|424:88|320:88,1,190,6|8,1:0|0:0,0:0:0:0:
64,288,32475,2,0,L|44:204,1,63.3333333333333,0|0,0:0|1:0,0:0:0:0:
220,176,32791,1,0,1:0:0:0:
28,92,32896,2,0,L|164:92,1,126.666666666667,10|2,0:0|0:0,0:0:0:0:
348,276,33212,5,0,1:0:0:0:
220,220,33422,1,0,0:0:0:0:
412,312,33527,2,0,P|448:264|392:144,1,190,8|2,0:0|1:0,0:0:0:0:
132,52,34054,2,0,L|108:120,1,63.3333333333333,0|10,1:0|0:0,0:0:0:0:
396,40,34475,6,0,L|184:40,2,190,2|8|2,1:0|0:0|1:0,0:0:0:0:
206,40,35317,1,0,1:0:0:0:
388,196,35422,2,0,B|464:196|464:196|464:120,1,126.666666666667,8|0,0:0|0:0,0:0:0:0:
208,236,35738,5,2,1:0:0:0:
380,112,35948,2,0,L|312:112,1,63.3333333333333,0|8,0:0|0:0,0:0:0:0:
48,52,36370,2,0,L|192:52,1,126.666666666667,0|0,1:0|1:0,0:0:0:0:
392,340,36685,2,0,B|456:340|456:340|368:340,1,126.666666666667,10|0,0:0|0:0,0:0:0:0:
140,248,37001,6,0,P|96:208|156:112,1,190,6|8,1:0|0:0,0:0:0:0:
324,76,37527,1,0,0:0:0:0:
132,320,37633,2,0,L|284:320,1,126.666666666667,2|0,1:0|1:0,0:0:0:0:
68,196,37948,2,0,L|32:60,1,126.666666666667,8|0,0:0|0:0,0:0:0:0:
292,48,38264,6,0,P|213:48|108:112,1,190,2|8,1:0|0:0,0:0:0:0:
232,288,38791,1,0,0:0:0:0:
424,216,38896,2,0,P|460:180|444:97,1,126.666666666667,2|0,1:0|1:0,0:0:0:0:
260,76,39212,2,0,L|116:76,1,126.666666666667,8|0,0:0|0:0,0:0:0:0:
376,352,39527,6,0,P|424:304|352:200,1,190,2|10,1:0|0:0,0:0:0:0:
100,160,40054,1,2,0:0:0:0:
292,76,40159,2,0,L|440:76,1,126.666666666667,0|0,1:0|1:0,0:0:0:0:
224,284,40475,2,0,P|272:252|364:248,1,126.666666666667,8|0,0:0|0:0,0:0:0:0:
144,256,40791,6,0,L|16:256,1,126.666666666667,0|0,1:0|0:0,0:0:0:0:
260,140,41106,1,8,0:0:0:0:
372,76,41317,1,0,0:0:0:0:
124,48,41422,1,0,1:0:0:0:
60,80,41527,1,0,0:0:0:0:
64,148,41633,1,0,1:0:0:0:
260,312,41738,1,10,0:0:0:0:
192,264,41843,1,0,0:0:0:0:
260,220,41948,1,8,0:3:0:0:
464,152,42054,6,0,P|430:239|336:260,1,190,6|8,1:0|0:0,0:0:0:0:
172,284,42580,1,0,0:0:0:0:
364,168,42685,2,0,L|224:164,1,126.666666666667,0|0,1:0|1:0,0:0:0:0:
432,48,43001,2,0,L|300:44,1,126.666666666667,10|0,0:0|0:0,0:0:0:0:
112,280,43317,6,0,B|68:232|68:232|132:208,1,126.666666666667,2|0,1:0|0:0,0:0:0:0:
336,128,43633,1,8,0:0:0:0:
224,96,43843,1,0,0:0:0:0:
444,312,43948,2,0,L|300:312,1,126.666666666667,2|0,1:0|1:0,0:0:0:0:
120,212,44264,2,0,P|24:216|20:200,1,126.666666666667,10|0,0:0|0:0,0:0:0:0:
248,204,44580,6,0,L|392:204,1,126.666666666667,2|0,1:0|0:0,0:0:0:0:
180,112,44896,2,0,P|144:168|172:232,1,126.666666666667,8|0,0:0|0:0,0:0:0:0:
360,56,45212,2,0,L|216:56,1,126.666666666667,2|0,1:0|1:0,0:0:0:0:
428,332,45527,2,0,P|464:292|416:248,1,126.666666666667,8|0,0:0|0:0,0:0:0:0:
176,140,45843,6,0,L|328:140,1,126.666666666667,2|0,1:0|0:0,0:0:0:0:
44,280,46159,2,0,L|176:280,1,126.666666666667,8|0,0:0|0:0,0:0:0:0:
364,208,46475,2,0,L|232:208,1,126.666666666667,2|0,1:0|1:0,0:0:0:0:
432,164,46791,2,0,P|452:112|392:72,1,126.666666666667,10|0,0:0|0:0,0:0:0:0:
148,80,47106,6,0,L|280:80,1,126.666666666667,6|0,1:0|0:0,0:0:0:0:
468,292,47422,2,0,L|312:292,1,126.666666666667,8|0,0:0|0:0,0:0:0:0:
452,264,47738,2,0,L|476:136,1,126.666666666667,0|0,1:0|1:0,0:0:0:0:
280,132,48054,2,0,P|244:184|272:264,1,126.666666666667,8|0,0:0|0:0,0:0:0:0:
28,300,48370,6,0,P|154:299|232:340,1,190,0|8,1:0|0:0,0:0:0:0:
44,252,49001,2,0,P|12:192|68:176,1,126.666666666667,2|0,1:0|1:0,0:0:0:0:
244,88,49317,2,0,L|268:228,1,126.666666666667,8|0,0:0|0:0,0:0:0:0:
488,316,49633,6,0,L|332:316,1,126.666666666667,6|0,1:0|0:0,0:0:0:0:
172,208,49948,2,0,L|40:208,1,126.666666666667,8|0,0:0|0:0,0:0:0:0:
240,320,50264,2,0,L|272:184,1,126.666666666667,2|0,1:0|1:0,0:0:0:0:
76,76,50580,2,0,L|32:204,1,126.666666666667,8|0,0:0|0:0,0:0:0:0:
260,120,50896,6,0,B|324:120|324:120|256:120,1,126.666666666667,2|0,1:0|0:0,0:0:0:0:
64,312,51212,1,8,0:0:0:0:
112,268,51317,1,0,0:0:0:0:
208,244,51422,1,0,0:0:0:0:
428,176,51527,2,0,L|288:176,1,126.666666666667,2|0,1:0|1:0,0:0:0:0:
108,104,51843,2,0,L|236:104,1,126.666666666667,8|0,0:0|0:0,0:0:0:0:
432,336,52159,6,0,P|476:320|428:288,1,126.666666666667,0|0,1:0|0:0,0:0:0:0:
176,228,52475,1,0,1:0:0:0:
448,124,52685,1,0,1:0:0:0:
192,96,53106,5,0,1:0:0:0:
464,52,53317,2,0,L|320:52,1,126.666666666667,0|0,1:0|0:0,0:0:0:0:
96,248,53633,1,0,1:0:0:0:
292,280,53738,2,0,L|420:280,1,126.666666666667,8|0,0:0|1:0,0:0:0:0:
219,161,54054,2,0,L|307:161,2,63.3333333333333,0|0|0,1:0|0:0|1:0,0:0:0:0:
91,84,54370,2,0,L|28:84,2,63.3333333333333,8|0|0,0:0|0:0|1:0,0:0:0:0:
284,264,54685,6,0,L|132:264,1,126.666666666667,4|0,1:0|1:0,0:0:0:0:
384,176,55001,1,0,1:0:0:0:
320,84,55212,1,0,1:0:0:0:
112,132,55317,2,0,L|404:132,1,285.000010871888,0|0,1:0|1:0,0:0:0:0:
80,320,55843,1,8,1:2:0:0:
368,328,56264,5,0,0:0:0:0:
420,304,56317,1,0,0:0:0:0:
448,248,56370,1,0,0:0:0:0:
448,248,56422,1,0,0:0:0:0:
420,304,56475,1,0,0:0:0:0:
368,328,56527,1,0,0:0:0:0:
240,240,56580,1,2,0:0:0:0:
192,200,56633,1,0,0:0:0:0:
216,152,56685,1,0,0:0:0:0:
260,136,56738,1,0,0:0:0:0:
236,80,56791,1,0,0:0:0:0:
192,64,56843,1,0,0:0:0:0:
32,300,56896,2,0,P|54:227|100:208,1,126.666666666667,10|0,0:3|0:0,0:0:0:0:
356,132,57212,6,0,L|204:132,1,126.666666666667,6|0,1:3|0:0,0:0:0:0:
420,348,57527,2,0,L|460:220,1,126.666666666667,8|0,0:0|0:0,0:0:0:0:
340,200,57843,2,0,L|192:200,1,126.666666666667,2|0,1:0|1:0,0:0:0:0:
20,104,58159,2,0,L|164:104,1,126.666666666667,10|2,0:0|0:0,0:0:0:0:
340,336,58475,6,0,P|368:284|312:228,1,126.666666666667,0|0,1:0|0:0,0:0:0:0:
136,236,58791,2,0,P|104:192|140:168,1,95,10|0,0:0|0:0,0:0:0:0:
164,152,59001,1,0,0:0:0:0:
204,144,59054,1,0,0:0:0:0:
360,108,59106,1,2,1:0:0:0:
472,192,59317,1,0,1:0:0:0:
232,76,59422,2,0,L|104:76,1,126.666666666667,10|0,0:0|0:0,0:0:0:0:
364,288,59738,6,0,P|328:232|248:220,1,126.666666666667,2|0,1:0|0:0,0:0:0:0:
76,224,60054,2,0,P|48:176|88:128,1,126.666666666667,10|0,0:0|0:0,0:0:0:0:
280,76,60370,2,0,P|298:176|284:204,1,126.666666666667,2|0,1:0|1:0,0:0:0:0:
480,344,60685,2,0,P|488:300|440:232,1,126.666666666667,10|2,0:0|0:0,0:0:0:0:
200,200,61001,5,0,1:0:0:0:
352,136,61212,1,0,0:0:0:0:
136,44,61317,2,0,P|215:48|256:104,1,126.666666666667,8|0,0:0|0:0,0:0:0:0:
20,280,61633,1,0,1:0:0:0:
428,164,61948,1,8,0:0:0:0:
36,324,62264,6,0,P|25:258|72:212,1,126.666666666667,6|0,1:0|0:0,0:0:0:0:
248,140,62580,2,0,L|392:140,1,126.666666666667,8|0,0:0|0:0,0:0:0:0:
264,288,62896,2,0,B|328:288|328:288|256:288,1,126.666666666667,2|0,1:0|1:0,0:0:0:0:
68,208,63212,2,0,P|44:172|96:120,1,126.666666666667,8|0,0:0|0:0,0:0:0:0:
348,56,63527,6,0,L|216:56,1,126.666666666667,6|0,1:0|0:0,0:0:0:0:
416,272,63843,2,0,P|396:220|316:204,1,126.666666666667,10|0,0:0|0:0,0:0:0:0:
292,200,64106,1,0,0:0:0:0:
140,108,64159,2,0,L|272:108,1,126.666666666667,2|0,1:0|1:0,0:0:0:0:
464,344,64475,2,0,B|528:344|528:344|444:344,1,126.666666666667,10|0,0:0|0:0,0:0:0:0:
272,176,64791,6,0,L|120:176,1,126.666666666667,6|0,1:0|0:0,0:0:0:0:
340,168,65106,2,0,P|360:240|332:292,1,126.666666666667,8|0,0:0|0:0,0:0:0:0:
128,336,65422,2,0,P|46:332|16:300,1,126.666666666667,6|0,1:0|1:0,0:0:0:0:
212,252,65738,2,0,L|220:124,1,126.666666666667,10|2,0:0|0:0,0:0:0:0:
28,64,66054,6,0,P|64:52|160:72,1,126.666666666667,4|0,1:0|1:0,0:0:0:0:
344,320,66370,2,0,L|496:316,1,126.666666666667,8|0,0:0|1:0,0:0:0:0:
216,172,66685,2,0,L|84:164,1,126.666666666667,0|0,1:0|1:0,0:0:0:0:
304,112,67001,2,0,L|448:96,1,126.666666666667,8|0,0:0|0:0,0:0:0:0:
144,304,67317,6,0,P|114:258|169:250,1,126.666666666667,6|0,1:3|0:0,0:0:0:0:
360,200,67633,2,0,L|496:196,1,126.666666666667,8|0,0:0|0:0,0:0:0:0:
392,288,67948,2,0,L|260:292,1,126.666666666667,2|0,1:0|1:0,0:0:0:0:
72,200,68264,2,0,L|200:196,1,126.666666666667,8|0,0:0|0:0,0:0:0:0:
392,348,68580,6,0,P|472:344|500:296,1,126.666666666667,2|0,1:0|0:0,0:0:0:0:
300,164,68896,2,0,B|236:164|236:164|292:164,1,95,8|0,0:0|0:0,0:0:0:0:
305,224,69106,1,0,0:0:0:0:
344,280,69159,1,0,0:0:0:0:
184,284,69212,2,0,L|48:288,1,126.666666666667,2|0,1:0|1:0,0:0:0:0:
252,144,69527,2,0,P|208:116|112:116,1,126.666666666667,10|0,0:0|0:0,0:0:0:0:
332,68,69843,6,0,B|392:68|392:68|312:68,1,126.666666666667,6|0,1:0|0:0,0:0:0:0:
128,232,70159,2,0,P|84:196|128:168,1,126.666666666667,8|0,0:0|0:0,0:0:0:0:
320,320,70475,2,0,L|460:316,1,126.666666666667,2|0,1:0|1:0,0:0:0:0:
252,228,70791,2,0,P|300:188|372:180,1,126.666666666667,8|0,0:0|0:0,0:0:0:0:
140,188,71106,6,0,P|100:140|152:108,1,126.666666666667,2|0,1:0|0:0,0:0:0:0:
388,64,71422,1,8,0:0:0:0:
232,328,71633,1,0,0:0:0:0:
424,216,71738,2,0,L|296:216,1,126.666666666667,2|0,1:0|1:0,0:0:0:0:
104,308,72054,2,0,L|244:308,1,126.666666666667,10|0,0:0|0:0,0:0:0:0:
40,252,72370,6,0,P|32:184|84:128,1,126.666666666667,6|0,1:0|0:0,0:0:0:0:
256,104,72685,2,0,L|400:100,1,126.666666666667,8|0,0:0|0:0,0:0:0:0:
188,248,73001,2,0,P|160:192|200:148,1,126.666666666667,2|0,1:0|1:0,0:0:0:0:
416,216,73317,2,0,B|476:216|476:216|400:216,1,126.666666666667,8|0,0:0|0:0,0:0:0:0:
216,328,73633,6,0,L|80:328,1,126.666666666667,6|0,1:0|0:0,0:0:0:0:
284,160,73948,2,0,P|220:120|144:120,1,126.666666666667,10|0,0:0|0:0,0:0:0:0:
212,100,74212,1,0,0:0:0:0:
320,88,74264,2,0,L|464:88,1,126.666666666667,6|0,1:0|1:0,0:0:0:0:
224,272,74580,2,0,P|192:240|200:148,1,126.666666666667,10|0,0:0|0:0,0:0:0:0:
448,156,74896,6,0,L|304:168,1,126.666666666667,2|0,1:0|1:0,0:0:0:0:
124,300,75212,1,8,0:0:0:0:
280,248,75422,2,0,P|324:204|252:124,1,190,0|0,1:0|1:0,0:0:0:0:
44,56,75843,2,0,L|196:56,1,126.666666666667,8|0,0:0|0:0,0:0:0:0:
384,320,76159,6,0,L|236:320,1,126.666666666667,4|0,1:0|1:0,0:0:0:0:
60,212,76475,2,0,L|208:208,1,126.666666666667,8|0,0:0|1:0,0:0:0:0:
384,188,76791,1,2,1:0:0:0:
304,160,76896,1,0,0:0:0:0:
224,144,77001,1,0,1:0:0:0:
440,308,77106,2,0,P|468:260|416:216,1,126.666666666667,10|0,0:0|0:0,0:0:0:0:
156,132,77422,6,0,L|308:132,1,126.666666666667,6|0,1:3|0:0,0:0:0:0:
92,348,77737,2,0,L|52:220,1,126.666666666667,8|0,0:0|0:0,0:0:0:0:
172,200,78053,2,0,L|320:200,1,126.666666666667,2|0,1:0|1:0,0:0:0:0:
492,104,78369,2,0,L|348:104,1,126.666666666667,10|2,0:0|0:0,0:0:0:0:
172,336,78685,6,0,P|144:284|200:228,1,126.666666666667,0|0,1:0|0:0,0:0:0:0:
376,236,79001,2,0,P|408:192|372:168,1,95,10|0,0:0|0:0,0:0:0:0:
348,152,79211,1,0,0:0:0:0:
308,144,79264,1,0,0:0:0:0:
152,108,79316,1,2,1:0:0:0:
304,216,79527,1,0,1:0:0:0:
112,196,79632,2,0,P|64:220|36:300,1,126.666666666667,10|0,0:0|0:0,0:0:0:0:
292,320,79948,6,0,P|256:264|176:252,1,126.666666666667,2|0,1:0|0:0,0:0:0:0:
456,224,80264,2,0,P|484:176|444:128,1,126.666666666667,10|0,0:0|0:0,0:0:0:0:
184,76,80580,2,0,L|320:76,1,126.666666666667,2|0,1:0|1:0,0:0:0:0:
52,344,80895,2,0,P|44:300|92:232,1,126.666666666667,10|2,0:0|0:0,0:0:0:0:
312,200,81211,5,0,1:0:0:0:
160,136,81422,1,0,0:0:0:0:
376,44,81527,2,0,P|297:48|256:104,1,126.666666666667,8|0,0:0|0:0,0:0:0:0:
460,280,81843,1,0,1:0:0:0:
52,164,82158,1,8,0:0:0:0:
436,348,82475,6,0,B|474:296|474:296|427:341,1,126.666666666667,6|0,1:0|0:0,0:0:0:0:
264,140,82790,2,0,L|120:140,1,126.666666666667,8|0,0:0|0:0,0:0:0:0:
248,288,83106,2,0,B|184:288|184:288|164:352,1,126.666666666667,2|0,1:0|1:0,0:0:0:0:
444,208,83422,2,0,P|468:172|416:120,1,126.666666666667,8|0,0:0|0:0,0:0:0:0:
164,56,83737,6,0,L|296:56,1,126.666666666667,6|0,1:0|0:0,0:0:0:0:
96,272,84053,2,0,P|116:220|196:204,1,126.666666666667,10|0,0:0|0:0,0:0:0:0:
224,200,84316,1,0,0:0:0:0:
372,108,84369,2,0,L|240:108,1,126.666666666667,2|0,1:0|1:0,0:0:0:0:
48,344,84685,2,0,B|-16:344|-16:344|68:344,1,126.666666666667,10|0,0:0|0:0,0:0:0:0:
260,176,85001,6,0,L|456:176,1,190,6|10,1:0|0:0,0:0:0:0:
144,280,85527,1,2,0:0:0:0:
336,336,85633,2,0,L|512:336,1,126.666666666667,0|0,1:0|1:0,0:0:0:0:
252,260,85948,2,0,P|216:207|267:190,1,126.666666666667,8|0,0:0|0:0,0:0:0:0:
484,64,86264,6,0,P|448:52|352:72,1,126.666666666667,4|0,1:0|1:0,0:0:0:0:
168,320,86580,2,0,L|16:316,1,126.666666666667,8|0,0:0|1:0,0:0:0:0:
296,172,86895,2,0,L|428:164,1,126.666666666667,0|0,1:0|1:0,0:0:0:0:
208,112,87211,2,0,L|64:96,1,126.666666666667,8|0,0:0|0:0,0:0:0:0:
368,304,87527,6,0,P|398:258|343:250,1,126.666666666667,6|0,1:3|0:0,0:0:0:0:
152,200,87843,2,0,L|16:196,1,126.666666666667,8|0,0:0|0:0,0:0:0:0:
124,284,88159,2,0,B|187:285|187:285|112:284,1,126.666666666667,2|0,1:0|1:0,0:0:0:0:
368,300,88475,2,0,P|373:222|326:188,1,126.666666666667,8|0,0:0|0:0,0:0:0:0:
120,348,88790,6,0,P|40:344|12:296,1,126.666666666667,2|0,1:0|0:0,0:0:0:0:
212,164,89106,2,0,B|276:164|276:164|220:164,1,95,8|0,0:0|0:0,0:0:0:0:
207,224,89316,1,0,0:0:0:0:
168,280,89369,1,0,0:0:0:0:
328,284,89422,2,0,L|464:288,1,126.666666666667,2|0,1:0|1:0,0:0:0:0:
260,144,89737,2,0,P|304:116|400:116,1,126.666666666667,10|0,0:0|0:0,0:0:0:0:
180,68,90053,6,0,B|120:68|120:68|200:68,1,126.666666666667,2|0,1:0|0:0,0:0:0:0:
384,232,90369,2,0,P|428:196|384:168,1,126.666666666667,8|0,0:0|0:0,0:0:0:0:
192,320,90685,2,0,L|52:316,1,126.666666666667,2|0,1:0|1:0,0:0:0:0:
260,228,91001,2,0,P|212:188|140:180,1,126.666666666667,8|0,0:0|0:0,0:0:0:0:
372,188,91316,6,0,P|412:140|360:108,1,126.666666666667,2|0,1:0|1:0,0:0:0:0:
124,64,91632,1,8,0:0:0:0:
280,328,91843,1,0,1:0:0:0:
88,216,91948,2,0,L|216:216,1,126.666666666667,0|0,1:0|1:0,0:0:0:0:
408,308,92264,2,0,L|268:308,1,126.666666666667,10|0,0:0|0:0,0:0:0:0:
472,252,92580,6,0,P|480:184|428:128,1,126.666666666667,6|0,1:0|0:0,0:0:0:0:
256,104,92895,2,0,L|112:100,1,126.666666666667,8|0,0:0|0:0,0:0:0:0:
324,248,93211,2,0,P|352:192|312:148,1,126.666666666667,2|0,1:0|1:0,0:0:0:0:
96,216,93527,2,0,B|36:216|36:216|112:216,1,126.666666666667,8|0,0:0|0:0,0:0:0:0:
300,304,93843,5,2,1:0:0:0:
228,264,93948,1,0,0:0:0:0:
300,224,94054,1,8,0:3:0:0:
108,112,94159,1,2,1:0:0:0:
180,64,94264,1,0,0:0:0:0:
108,28,94370,1,8,0:3:0:0:
328,140,94475,1,2,1:0:0:0:
296,92,94580,1,0,0:0:0:0:
232,80,94685,1,8,0:3:0:0:
460,324,94791,1,2,1:0:0:0:
428,272,94896,1,0,0:0:0:0:
364,256,95001,1,8,0:3:0:0:
108,172,95106,6,0,L|408:172,1,285.000010871888,2|8,1:0|0:0,0:0:0:0:
200,304,95633,2,0,L|160:248,1,63.3333333333333,0|0,0:0|0:0,0:0:0:0:
356,232,95948,2,0,L|384:168,1,63.3333333333333,0|8,0:0|0:0,0:0:0:0:
221,112,96264,1,0,0:0:0:0:
446,314,96370,5,2,1:0:0:0:
80,196,96580,2,0,L|152:196,1,63.3333333333333,0|8,1:0|0:0,0:0:0:0:
432,84,96896,2,0,L|364:84,1,63.3333333333333,0|0,1:0|1:0,0:0:0:0:
200,60,97212,1,0,1:0:0:0:
448,344,97317,2,0,P|476:284|428:244,1,126.666666666667,8|0,0:0|0:0,0:0:0:0:
156,228,97633,5,6,1:0:0:0:
432,100,97843,2,0,L|280:100,1,126.666666666667,0|0,1:0|0:0,0:0:0:0:
80,272,98159,1,0,0:0:0:0:
272,184,98264,2,0,L|132:184,1,126.666666666667,0|0,1:0|1:0,0:0:0:0:
388,76,98580,2,0,L|248:76,1,126.666666666667,8|0,0:0|0:0,0:0:0:0:
56,128,98896,1,0,1:0:0:0:
455,128,99211,1,8,0:0:0:0:
100,320,99422,5,4,1:0:0:0:
256,192,99527,12,2,103948,0:0:0:0:
