osu file format v14

[General]
AudioFilename: audio.mp3
AudioLeadIn: 0
PreviewTime: 162793
Countdown: 0
SampleSet: Soft
StackLeniency: 0.4
Mode: 0
LetterboxInBreaks: 0
WidescreenStoryboard: 0

[Editor]
Bookmarks: 311741,314004,316267
DistanceSpacing: 1
BeatDivisor: 3
GridSize: 32
TimelineZoom: 1.26

[Metadata]
Title:Koi, Hitokuchi.
TitleUnicode:恋、ひとくち。
Artist:Yuizuki Sora
ArtistUnicode:結月そら
Creator:Shizuku-
Version:Insane
Source:恋ニ、甘味ヲソエテ
Tags:galgame 宮坂なこ 宮坂みゆ Koi ni Kanmi o Soete Love's Sweet Garnish canvas+garden eroge japanese video game
BeatmapID:2260997
BeatmapSetID:1045588

[Difficulty]
HPDrainRate:6
CircleSize:3.8
OverallDifficulty:8
ApproachRate:8.7
SliderMultiplier:1.6
SliderTickRate:1

[Events]
//Background and Video events
0,0,"ve_rr03_h.jpg",0,0
//Break Periods
//Storyboard Layer 0 (Background)
//Storyboard Layer 1 (Fail)
//Storyboard Layer 2 (Pass)
//Storyboard Layer 3 (Foreground)
//Storyboard Layer 4 (Overlay)
//Storyboard Sound Samples

[TimingPoints]
478,315.789473684211,4,2,1,40,1,0
1741,-100,4,2,1,60,0,0
6793,-100,4,2,6,60,0,0
11109,-100,4,2,1,60,0,0
16898,-100,4,2,6,60,0,0
19951,-100,4,2,2,60,0,0
20056,-100,4,2,1,60,0,0
20688,-250,4,2,2,60,0,0
21951,-142.857142857143,4,2,3,50,0,0
31424,-100,4,2,4,50,0,0
31740,-142.857142857143,4,2,3,50,0,0
40898,-100,4,2,2,60,0,0
41109,-100,4,2,1,60,0,0
41530,-100,4,2,2,60,0,0
41741,-100,4,2,1,60,0,0
41846,-100,4,2,1,60,0,0
42162,-100,4,2,1,60,0,0
46898,-100,4,2,5,60,0,0
47108,-100,4,2,6,60,0,0
51004,-100,4,2,1,60,0,0
51319,-100,4,2,2,60,0,0
51529,-100,4,2,1,60,0,0
51951,-100,4,2,3,60,0,0
52056,-100,4,2,1,60,0,0
57319,-100,4,2,6,60,0,0
62898,-100,4,2,6,60,0,0
63635,-100,4,2,6,60,0,0
63846,-100,4,2,6,60,0,0
64267,-100,4,2,2,60,0,0
64372,-100,4,2,1,60,0,0
64583,-100,4,2,2,60,0,0
64688,-100,4,2,1,60,0,0
64898,-100,4,2,6,60,0,0
65214,-100,4,2,6,60,0,0
65530,-100,4,2,6,60,0,0
66477,-100,4,2,6,60,0,0
67425,-90.9090909090909,4,2,3,70,0,1
67635,-90.9090909090909,4,2,1,70,0,1
69004,-90.9090909090909,4,2,7,70,0,1
69214,-90.9090909090909,4,2,8,70,0,1
69635,-90.9090909090909,4,2,1,70,0,1
71530,-90.9090909090909,4,2,7,70,0,1
71741,-90.9090909090909,4,2,8,70,0,1
72162,-90.9090909090909,4,2,6,70,0,1
73109,-90.9090909090909,4,2,6,70,0,1
73741,-90.9090909090909,4,2,5,70,0,1
73951,-90.9090909090909,4,2,1,70,0,1
74056,-90.9090909090909,4,2,7,70,0,1
74266,-90.9090909090909,4,2,8,70,0,1
74372,-90.9090909090909,4,2,8,70,0,1
74688,-90.9090909090909,4,2,6,70,0,1
75004,-90.9090909090909,4,2,6,70,0,1
76267,-90.9090909090909,4,2,6,70,0,1
76583,-90.9090909090909,4,2,7,70,0,1
76793,-90.9090909090909,4,2,4,70,0,1
76898,-90.9090909090909,4,2,5,70,0,1
77108,-90.9090909090909,4,2,1,70,0,1
77214,-90.9090909090909,4,2,1,70,0,1
77530,-90.9090909090909,4,2,1,70,0,1
78162,-90.9090909090909,4,2,1,70,0,1
78793,-90.9090909090909,4,2,1,70,0,1
79108,-90.9090909090909,4,2,7,70,0,1
79319,-90.9090909090909,4,2,8,70,0,1
79425,-90.9090909090909,4,2,8,70,0,1
79741,-90.9090909090909,4,2,1,70,0,1
80056,-90.9090909090909,4,2,5,70,0,1
80266,-90.9090909090909,4,2,1,70,0,1
81634,-90.9090909090909,4,2,7,70,0,1
81846,-90.9090909090909,4,2,8,70,0,1
82267,-90.9090909090909,4,2,6,70,0,1
83846,-90.9090909090909,4,2,5,70,0,1
84056,-90.9090909090909,4,2,1,70,0,1
84162,-90.9090909090909,4,2,7,70,0,1
84372,-90.9090909090909,4,2,8,70,0,1
84477,-90.9090909090909,4,2,8,70,0,1
84793,-90.9090909090909,4,2,6,70,0,1
85109,-90.9090909090909,4,2,6,70,0,1
85636,-90.9090909090909,4,2,2,70,0,1
85741,-90.9090909090909,4,2,2,70,0,1
85951,-90.9090909090909,4,2,1,70,0,1
86372,-90.9090909090909,4,2,2,70,0,1
86688,-90.9090909090909,4,2,8,70,0,1
86898,-90.9090909090909,4,2,6,70,0,1
87004,-90.9090909090909,4,2,4,70,0,1
87319,-90.9090909090909,4,2,1,70,0,1
87635,-90.9090909090909,4,2,3,70,0,1
87845,-90.9090909090909,4,2,1,70,0,1
89214,-90.9090909090909,4,2,7,70,0,1
89424,-90.9090909090909,4,2,8,70,0,1
89846,-90.9090909090909,4,2,1,70,0,1
91741,-90.9090909090909,4,2,7,70,0,1
91951,-90.9090909090909,4,2,8,70,0,1
92372,-90.9090909090909,4,2,6,70,0,1
93319,-90.9090909090909,4,2,6,70,0,1
93951,-90.9090909090909,4,2,5,70,0,1
94161,-90.9090909090909,4,2,1,70,0,1
94267,-90.9090909090909,4,2,7,70,0,1
94477,-90.9090909090909,4,2,8,70,0,1
94583,-90.9090909090909,4,2,8,70,0,1
94898,-90.9090909090909,4,2,6,70,0,1
95214,-90.9090909090909,4,2,6,70,0,1
96477,-90.9090909090909,4,2,6,70,0,1
96793,-90.9090909090909,4,2,7,70,0,1
97003,-90.9090909090909,4,2,4,70,0,1
97109,-90.9090909090909,4,2,5,70,0,1
97319,-90.9090909090909,4,2,1,70,0,1
97425,-90.9090909090909,4,2,1,70,0,1
97741,-90.9090909090909,4,2,1,70,0,1
98371,-90.9090909090909,4,2,1,70,0,1
99319,-90.9090909090909,4,2,7,70,0,1
99530,-90.9090909090909,4,2,8,70,0,1
99951,-90.9090909090909,4,2,1,70,0,1
100267,-90.9090909090909,4,2,5,70,0,1
100793,-90.9090909090909,4,2,1,70,0,1
101845,-90.9090909090909,4,2,7,70,0,1
102056,-90.9090909090909,4,2,8,70,0,1
102477,-90.9090909090909,4,2,6,70,0,1
104372,-90.9090909090909,4,2,8,70,0,1
104688,-90.9090909090909,4,2,1,70,0,1
105320,-166.666666666667,4,2,2,60,0,0
106267,-166.666666666667,4,2,3,60,0,0
106583,-100,4,2,2,60,0,0
107108,-100,4,2,1,60,0,0
107846,-100,4,2,1,60,0,0
112898,-100,4,2,6,60,0,0
115951,-100,4,2,2,60,0,0
116056,-200,4,2,1,60,0,0
116688,-250,4,2,2,60,0,0
117951,-142.857142857143,4,2,3,50,0,0
127425,-100,4,2,9,50,0,0
127741,-100,4,2,3,50,0,0
128056,-142.857142857143,4,2,3,50,0,0
136898,-100,4,2,2,60,0,0
137109,-100,4,2,1,60,0,0
137530,-100,4,2,2,60,0,0
137741,-100,4,2,1,60,0,0
137846,-100,4,2,1,60,0,0
138162,-100,4,2,1,60,0,0
142898,-100,4,2,5,60,0,0
143108,-100,4,2,6,60,0,0
147004,-100,4,2,1,60,0,0
147319,-100,4,2,2,60,0,0
147529,-100,4,2,1,60,0,0
147951,-100,4,2,3,60,0,0
148056,-100,4,2,1,60,0,0
155846,-100,4,2,6,60,0,0
158898,-100,4,2,6,60,0,0
159635,-100,4,2,6,60,0,0
159846,-100,4,2,6,60,0,0
160267,-100,4,2,2,60,0,0
160372,-100,4,2,1,60,0,0
160583,-100,4,2,2,60,0,0
160688,-100,4,2,1,60,0,0
160898,-100,4,2,6,60,0,0
161214,-100,4,2,6,60,0,0
161530,-100,4,2,6,60,0,0
162477,-100,4,2,6,60,0,0
163425,-90.9090909090909,4,2,3,70,0,1
163635,-90.9090909090909,4,2,1,70,0,1
165004,-90.9090909090909,4,2,7,70,0,1
165214,-90.9090909090909,4,2,8,70,0,1
165635,-90.9090909090909,4,2,1,70,0,1
167530,-90.9090909090909,4,2,7,70,0,1
167741,-90.9090909090909,4,2,8,70,0,1
168162,-90.9090909090909,4,2,6,70,0,1
169109,-90.9090909090909,4,2,6,70,0,1
169741,-90.9090909090909,4,2,5,70,0,1
169951,-90.9090909090909,4,2,1,70,0,1
170056,-90.9090909090909,4,2,7,70,0,1
170266,-90.9090909090909,4,2,8,70,0,1
170372,-90.9090909090909,4,2,8,70,0,1
170688,-90.9090909090909,4,2,6,70,0,1
171004,-90.9090909090909,4,2,6,70,0,1
172267,-90.9090909090909,4,2,6,70,0,1
172583,-90.9090909090909,4,2,7,70,0,1
172793,-90.9090909090909,4,2,4,70,0,1
172898,-90.9090909090909,4,2,5,70,0,1
173108,-90.9090909090909,4,2,1,70,0,1
173214,-90.9090909090909,4,2,1,70,0,1
173530,-90.9090909090909,4,2,1,70,0,1
174162,-90.9090909090909,4,2,1,70,0,1
174793,-90.9090909090909,4,2,1,70,0,1
175108,-90.9090909090909,4,2,7,70,0,1
175319,-90.9090909090909,4,2,8,70,0,1
175425,-90.9090909090909,4,2,8,70,0,1
175741,-90.9090909090909,4,2,1,70,0,1
176056,-90.9090909090909,4,2,5,70,0,1
176266,-90.9090909090909,4,2,1,70,0,1
177634,-90.9090909090909,4,2,7,70,0,1
177846,-90.9090909090909,4,2,8,70,0,1
178267,-90.9090909090909,4,2,6,70,0,1
179846,-90.9090909090909,4,2,5,70,0,1
180056,-90.9090909090909,4,2,1,70,0,1
180162,-90.9090909090909,4,2,7,70,0,1
180372,-90.9090909090909,4,2,8,70,0,1
180477,-90.9090909090909,4,2,8,70,0,1
180793,-90.9090909090909,4,2,6,70,0,1
181109,-90.9090909090909,4,2,6,70,0,1
181636,-90.9090909090909,4,2,2,70,0,1
181741,-90.9090909090909,4,2,2,70,0,1
181951,-90.9090909090909,4,2,1,70,0,1
182372,-90.9090909090909,4,2,2,70,0,1
182688,-90.9090909090909,4,2,8,70,0,1
182898,-90.9090909090909,4,2,6,70,0,1
183004,-90.9090909090909,4,2,4,70,0,1
183319,-90.9090909090909,4,2,1,70,0,1
183635,-90.9090909090909,4,2,3,70,0,1
183845,-90.9090909090909,4,2,1,70,0,1
185214,-90.9090909090909,4,2,7,70,0,1
185424,-90.9090909090909,4,2,8,70,0,1
185846,-90.9090909090909,4,2,1,70,0,1
187741,-90.9090909090909,4,2,7,70,0,1
187951,-90.9090909090909,4,2,8,70,0,1
188372,-90.9090909090909,4,2,6,70,0,1
189319,-90.9090909090909,4,2,6,70,0,1
189951,-90.9090909090909,4,2,5,70,0,1
190161,-90.9090909090909,4,2,1,70,0,1
190267,-90.9090909090909,4,2,7,70,0,1
190477,-90.9090909090909,4,2,8,70,0,1
190583,-90.9090909090909,4,2,8,70,0,1
190898,-90.9090909090909,4,2,6,70,0,1
191214,-90.9090909090909,4,2,6,70,0,1
192477,-90.9090909090909,4,2,6,70,0,1
192793,-90.9090909090909,4,2,7,70,0,1
193003,-90.9090909090909,4,2,4,70,0,1
193109,-90.9090909090909,4,2,5,70,0,1
193319,-90.9090909090909,4,2,1,70,0,1
193425,-90.9090909090909,4,2,1,70,0,1
193741,-90.9090909090909,4,2,1,70,0,1
194372,-90.9090909090909,4,2,1,70,0,1
195319,-90.9090909090909,4,2,7,70,0,1
195530,-90.9090909090909,4,2,8,70,0,1
195951,-90.9090909090909,4,2,1,70,0,1
196267,-90.9090909090909,4,2,5,70,0,1
196793,-90.9090909090909,4,2,1,70,0,1
197845,-90.9090909090909,4,2,7,70,0,1
198056,-90.9090909090909,4,2,8,70,0,1
198477,-90.9090909090909,4,2,6,70,0,1
200372,-90.9090909090909,4,2,8,70,0,1
200688,-90.9090909090909,4,2,1,70,0,1
201320,-125,4,2,2,60,0,0
201635,-125,4,2,8,60,0,0
202583,-100,4,2,2,60,0,0
202793,-100,4,2,1,60,0,0
203846,-100,4,2,6,60,0,0
213214,-100,4,2,1,60,0,0
213635,-100,4,2,3,60,0,0
213845,-100,4,2,1,60,0,0
213951,-100,4,2,6,60,0,0
218688,-100,4,2,5,60,0,0
218899,-100,4,2,6,60,0,0
222792,-100,4,2,1,60,0,0
224056,-142.857142857143,4,2,3,50,0,0
233846,-111.111111111111,4,2,3,50,0,0
234162,-100,4,2,1,60,0,0
239214,-125,4,2,1,60,0,0
243635,-100,4,2,2,60,0,0
243740,-100,4,2,1,60,0,0
243951,-100,4,2,2,60,0,0
244056,-100,4,2,1,60,0,0
244267,-100,4,2,6,70,0,0
246162,-100,4,2,2,70,0,0
246267,-100,4,2,1,70,0,0
246477,-100,4,2,2,70,0,0
246582,-100,4,2,1,70,0,0
246793,-100,4,2,4,70,0,0
247741,-100,4,2,1,70,0,0
249319,-100,4,2,2,70,0,0
250583,-83.3333333333333,4,2,7,70,0,1
250793,-83.3333333333333,4,2,1,70,0,1
250898,-83.3333333333333,4,2,7,70,0,1
251109,-83.3333333333333,4,2,8,70,0,1
251530,-83.3333333333333,4,2,1,70,0,1
253425,-83.3333333333333,4,2,7,70,0,1
253635,-83.3333333333333,4,2,8,70,0,1
254056,-83.3333333333333,4,2,6,70,0,1
255004,-83.3333333333333,4,2,6,70,0,1
255635,-83.3333333333333,4,2,5,70,0,1
255845,-83.3333333333333,4,2,1,70,0,1
255951,-83.3333333333333,4,2,7,70,0,1
256161,-83.3333333333333,4,2,8,70,0,1
256267,-83.3333333333333,4,2,8,70,0,1
256583,-83.3333333333333,4,2,6,70,0,1
256898,-83.3333333333333,4,2,6,70,0,1
258162,-83.3333333333333,4,2,6,70,0,1
258477,-83.3333333333333,4,2,7,70,0,1
258687,-83.3333333333333,4,2,4,70,0,1
258793,-83.3333333333333,4,2,5,70,0,1
259003,-83.3333333333333,4,2,1,70,0,1
259109,-83.3333333333333,4,2,1,70,0,1
259425,-83.3333333333333,4,2,1,70,0,1
260056,-83.3333333333333,4,2,1,70,0,1
261003,-83.3333333333333,4,2,7,70,0,1
261214,-83.3333333333333,4,2,8,70,0,1
261635,-83.3333333333333,4,2,1,70,0,1
261951,-83.3333333333333,4,2,5,70,0,1
262161,-83.3333333333333,4,2,1,70,0,1
263529,-83.3333333333333,4,2,7,70,0,1
263741,-83.3333333333333,4,2,8,70,0,1
264162,-83.3333333333333,4,2,6,70,0,1
265741,-83.3333333333333,4,2,5,70,0,1
265951,-83.3333333333333,4,2,1,70,0,1
266056,-83.3333333333333,4,2,7,70,0,1
266266,-83.3333333333333,4,2,8,70,0,1
266372,-83.3333333333333,4,2,8,70,0,1
266688,-83.3333333333333,4,2,6,70,0,1
267004,-83.3333333333333,4,2,6,70,0,1
267530,-83.3333333333333,4,2,2,70,0,1
267635,-83.3333333333333,4,2,1,70,0,1
268267,-83.3333333333333,4,2,2,70,0,1
268583,-83.3333333333333,4,2,8,70,0,1
268793,-83.3333333333333,4,2,6,70,0,1
268898,-83.3333333333333,4,2,4,70,0,1
269215,-83.3333333333333,4,2,1,70,0,1
269530,-83.3333333333333,4,2,3,70,0,1
269740,-83.3333333333333,4,2,1,70,0,1
271109,-83.3333333333333,4,2,7,70,0,1
271319,-83.3333333333333,4,2,8,70,0,1
271741,-83.3333333333333,4,2,1,70,0,1
273635,-83.3333333333333,4,2,7,70,0,1
273846,-83.3333333333333,4,2,8,70,0,1
274267,-83.3333333333333,4,2,6,70,0,1
275846,-83.3333333333333,4,2,5,70,0,1
276056,-83.3333333333333,4,2,1,70,0,1
276162,-83.3333333333333,4,2,7,70,0,1
276372,-83.3333333333333,4,2,8,70,0,1
276477,-83.3333333333333,4,2,8,70,0,1
276793,-83.3333333333333,4,2,6,70,0,1
277109,-83.3333333333333,4,2,6,70,0,1
278372,-83.3333333333333,4,2,6,70,0,1
278688,-83.3333333333333,4,2,7,70,0,1
278898,-83.3333333333333,4,2,4,70,0,1
279004,-83.3333333333333,4,2,5,70,0,1
279214,-83.3333333333333,4,2,1,70,0,1
279319,-83.3333333333333,4,2,1,70,0,1
279635,-83.3333333333333,4,2,1,70,0,1
280267,-83.3333333333333,4,2,1,70,0,1
281213,-83.3333333333333,4,2,7,70,0,1
281425,-83.3333333333333,4,2,8,70,0,1
281846,-83.3333333333333,4,2,1,70,0,1
282162,-83.3333333333333,4,2,5,70,0,1
282688,-83.3333333333333,4,2,1,70,0,1
283740,-83.3333333333333,4,2,7,70,0,1
283951,-83.3333333333333,4,2,8,70,0,1
284372,-83.3333333333333,4,2,6,70,0,1
286267,-83.3333333333333,4,2,8,70,0,1
286583,-83.3333333333333,4,2,1,70,0,1
287214,-125,4,2,2,70,0,0
287529,-125,4,2,3,60,0,0
288477,-100,4,2,2,60,0,0
289003,-100,4,2,1,60,0,0
289741,-100,4,2,1,60,0,0
294793,-100,4,2,6,60,0,0
299109,-100,4,2,1,60,0,0
304898,-100,4,2,6,60,0,0
307951,-100,4,2,2,60,0,0
308056,-100,4,2,1,60,0,0
308688,-250,4,2,5,60,0,0
309951,-100,4,2,2,60,0,0
310162,-100,4,2,2,60,0,0
310583,-100,4,2,1,60,0,0
310899,-100,4,2,1,60,0,0
311109,-100,4,2,2,60,0,0
311214,-100,4,2,1,60,0,0
311530,-100,4,2,1,60,0,0
311741,-100,4,2,2,60,0,0
316267,-100,4,2,2,5,0,0

[Colours]
Combo1 : 204,187,222
Combo2 : 252,160,171
Combo3 : 255,211,180

[HitObjects]
370,371,478,6,0,P|391:323|377:272,1,106.666666666667,8|0,2:0|3:0,2:0:0:0:
438,223,793,1,8,2:0:0:0:
420,192,899,1,0,3:0:0:0:
417,157,1004,1,0,3:0:0:0:
430,124,1109,6,0,L|483:114,2,53.3333333333333,8|0|0,2:0|3:0|3:0,2:0:0:0:
378,60,1425,2,0,L|325:50,2,53.3333333333333,8|8|8,2:0|2:0|2:0,2:0:0:0:
197,101,1741,6,0,P|248:43|325:49,1,160,4|10,2:0|2:0,2:0:0:0:
239,175,2267,1,2,3:2:0:0:
239,175,2372,2,0,L|133:158,1,106.666666666667,2|0,2:0|3:0,0:0:0:0:
73,208,2688,1,10,2:0:0:0:
161,361,2899,1,2,3:2:0:0:
161,361,3004,6,0,B|169:323|169:323|157:288|157:288|163:257,1,106.666666666667,2|0,2:0|3:0,2:0:0:0:
239,175,3320,2,0,P|287:194|338:182,1,106.666666666667,10|2,2:0|3:2,2:0:0:0:
338,83,3635,2,0,P|355:132|337:181,1,106.666666666667,2|0,2:0|3:0,2:0:0:0:
376,257,3951,2,0,P|424:276|475:264,1,106.666666666667,10|2,2:0|3:2,2:0:0:0:
475,264,4267,6,0,P|403:294|382:369,1,160,2|10,2:0|2:0,2:0:0:0:
162,257,4793,1,2,3:2:0:0:
170,290,4899,1,2,2:0:0:0:
239,175,5109,1,0,3:0:0:0:
247,142,5214,1,10,2:0:0:0:
86,66,5425,1,2,3:2:0:0:
86,66,5530,6,0,P|122:102|172:92,1,106.666666666667,2|0,2:0|3:0,2:0:0:0:
245,54,5846,2,0,L|349:74,1,106.666666666667,10|2,2:0|3:2,2:0:0:0:
422,44,6162,1,2,2:0:0:0:
481,181,6372,1,0,3:0:0:0:
481,180,6478,2,0,P|509:135|502:83,1,106.666666666667,10|2,2:0|3:2,2:0:0:0:
502,215,6793,6,0,B|412:195|437:260|349:241,1,160,6|10,2:0|2:0,2:0:0:0:
261,290,7320,1,2,3:2:0:0:
261,289,7425,2,0,P|268:236|275:183,1,106.666666666667,2|0,2:0|3:0,2:0:0:0:
194,168,7741,2,0,P|186:220|179:273,1,106.666666666667,10|2,2:0|3:2,2:0:0:0:
207,350,8056,6,0,P|141:309|64:322,1,160,2|10,2:0|2:0,2:0:0:0:
46,190,8583,1,2,3:2:0:0:
35,221,8688,1,2,2:0:0:0:
194,168,8899,1,0,3:0:0:0:
183,136,9004,2,0,P|131:144|89:113,1,106.666666666667,10|2,2:0|3:2,2:0:0:0:
194,168,9320,6,0,L|222:10,1,160,2|10,2:0|2:0,2:0:0:0:
361,104,9846,1,2,3:2:0:0:
361,104,9951,2,0,L|467:89,1,106.666666666667,2|0,2:0|3:0,2:0:0:0:
492,97,10267,1,10,2:0:0:0:
318,10,10478,1,2,3:2:0:0:
314,33,10583,6,0,B|302:92|302:92|318:130|318:130|308:187,1,160,2|10,2:0|2:0,2:0:0:0:
352,285,11109,1,10,3:0:0:0:
340,262,11214,2,0,P|297:231|246:241,1,106.666666666667,6|0,2:3|3:0,2:0:0:0:
190,277,11530,2,0,L|241:262,1,53.3333333333333,10|0,2:0|2:0,0:0:0:0:
229,384,11741,1,2,3:2:0:0:
228,383,11846,6,0,P|174:327|98:341,1,160,6|10,3:2|2:0,2:0:0:0:
42,208,12372,1,2,3:2:0:0:
35,238,12478,1,2,2:0:0:0:
150,158,12688,1,0,3:0:0:0:
143,127,12793,2,0,P|90:132|45:105,1,106.666666666667,10|2,2:0|3:2,2:0:0:0:
150,158,13109,6,0,B|161:96|161:96|188:75|188:75|197:12,1,160,2|10,2:0|2:0,2:0:0:0:
329,171,13635,1,2,3:2:0:0:
329,171,13741,2,0,P|288:139|236:144,1,106.666666666667,2|0,2:0|3:0,2:0:0:0:
289,246,14056,2,0,L|392:220,1,106.666666666667,10|2,2:0|3:2,2:0:0:0:
483,256,14372,6,0,P|474:330|401:351,1,160,2|10,2:0|2:0,2:0:0:0:
289,246,14899,1,2,3:2:0:0:
324,261,15004,1,2,2:0:0:0:
213,358,15214,1,0,3:0:0:0:
177,372,15320,2,0,P|144:333|147:281,1,106.666666666667,10|2,2:0|3:2,2:0:0:0:
205,220,15635,6,0,P|131:237|76:183,1,160,2|10,2:0|2:0,2:0:0:0:
196,12,16162,1,2,3:2:0:0:
196,12,16267,2,0,L|298:42,1,106.666666666667,2|0,2:0|3:0,2:0:0:0:
342,116,16583,2,0,P|377:77|378:25,1,106.666666666667,10|2,2:0|3:2,2:0:0:0:
378,25,16899,6,0,P|394:103|412:181,1,160,6|10,3:2|2:0,2:0:0:0:
497,295,17425,1,2,3:2:0:0:
507,255,17530,2,0,B|466:223|417:245|417:245|399:275|364:278,1,160,2|10,2:0|2:0,2:0:0:0:
279,373,18056,1,2,3:2:0:0:
279,373,18162,6,0,B|311:335|311:335|291:226,1,160,2|10,2:0|2:0,2:0:0:0:
193,120,18688,1,2,3:2:0:0:
171,139,18793,2,0,P|118:145|73:118,1,106.666666666667,2|0,2:0|3:0,2:0:0:0:
95,15,19109,2,0,P|147:8|192:35,1,106.666666666667,10|2,2:0|3:2,2:0:0:0:
245,107,19425,6,0,B|309:96|309:96|349:112|349:112|399:101,1,160,2|10,2:0|2:0,2:0:0:0:
313,225,19951,1,10,3:0:0:0:
302,185,20056,1,10,2:3:0:0:
409,331,20267,1,0,3:0:0:0:
420,291,20372,1,10,2:0:0:0:
420,291,20688,6,0,L|294:315,1,128,6|0,3:2|2:0,2:0:0:0:
294,314,21951,5,0,3:0:0:0:
119,274,22267,2,0,B|220:260|181:335|293:313,1,186.666660970052,10|0,2:0|0:0,2:0:0:0:
324,291,22899,1,10,2:0:0:0:
296,160,23109,1,2,2:0:0:0:
296,160,23214,1,2,3:2:0:0:
352,39,23530,2,0,P|367:72|363:109,1,74.6666643880209,8|0,2:0|0:0,0:0:0:0:
296,160,23846,2,0,L|186:143,1,111.999996582031,2|10,2:0|2:0,2:0:0:0:
48,43,24372,1,2,2:0:0:0:
42,26,24478,6,0,P|90:49|103:102,2,111.999996582031,2|10|2,3:2|2:0|2:0,2:0:0:0:
185,142,25320,1,0,0:0:0:0:
185,142,25425,2,0,L|173:215,1,74.6666643880209,10|2,2:0|2:0,0:0:0:0:
227,277,25741,2,0,B|123:255|152:328|49:301,1,186.666660970052,2|0,3:2|0:0,2:0:0:0:
23,202,26372,2,0,P|55:245|48:300,1,111.999996582031,2|10,2:0|2:0,2:0:0:0:
198,360,26899,1,2,2:0:0:0:
198,360,27004,6,0,P|241:327|295:333,1,111.999996582031,2|10,3:2|2:0,2:0:0:0:
464,267,27530,1,0,0:0:0:0:
464,267,27635,2,0,P|409:272|366:239,1,111.999996582031,2|10,2:0|2:0,2:0:0:0:
438,55,28162,1,0,0:0:0:0:
449,70,28267,2,0,L|432:180,1,111.999996582031,2|10,3:2|2:0,2:0:0:0:
235,301,28899,2,0,L|218:190,1,111.999996582031,2|10,2:0|2:0,0:0:0:0:
241,97,29425,1,2,2:0:0:0:
241,97,29530,6,0,B|205:140|205:140|152:119,1,111.999996582031,2|10,3:2|2:0,2:0:0:0:
25,12,30056,1,2,2:0:0:0:
25,11,30162,2,0,P|76:23|81:75,1,111.999996582031,2|10,2:0|2:0,2:0:0:0:
49,208,30793,2,0,L|57:282,1,74.6666643880209,2|0,3:2|2:0,2:0:0:0:
107,324,31109,2,0,B|42:313|65:354|0:343,2,111.999996582031,10|2|10,2:0|2:0|2:0,2:0:0:0:
195,363,31951,1,0,0:0:0:0:
195,363,32056,6,0,L|209:251,1,111.999996582031,2|10,3:2|2:0,2:0:0:0:
162,106,32583,1,0,0:0:0:0:
162,106,32688,2,0,P|196:117|233:110,1,74.6666643880209,2|0,2:0|0:0,0:0:0:0:
314,133,33004,2,0,L|325:59,1,74.6666643880209,10|2,2:0|2:0,0:0:0:0:
413,8,33320,2,0,P|379:51|325:58,1,111.999996582031,2|10,3:2|2:0,2:0:0:0:
450,182,33846,1,0,0:0:0:0:
450,182,33951,2,0,L|463:108,1,74.6666643880209,2|0,2:0|0:0,2:0:0:0:
367,209,34267,2,0,L|380:282,1,74.6666643880209,10|2,2:0|2:0,0:0:0:0:
428,349,34583,6,0,B|392:325|392:325|325:340,1,111.999996582031,2|10,3:2|2:0,2:0:0:0:
164,345,35109,1,0,0:0:0:0:
185,371,35214,2,0,L|209:261,1,111.999996582031,2|10,2:0|2:0,2:0:0:0:
135,131,35741,1,0,0:0:0:0:
134,131,35846,2,0,P|80:137|34:108,2,111.999996582031,2|10|2,3:2|2:0|2:0,2:0:0:0:
234,30,36688,1,0,2:0:0:0:
234,30,36793,2,0,L|245:103,1,74.6666643880209,10|2,2:0|2:0,2:0:0:0:
235,133,37109,6,0,P|289:135|331:99,1,111.999996582031,2|10,3:2|2:0,2:0:0:0:
485,208,37741,2,0,P|430:205|388:241,1,111.999996582031,2|10,2:0|2:0,2:0:0:0:
459,365,38267,1,2,2:0:0:0:
467,358,38372,6,0,L|456:284,1,74.6666643880209,2|0,3:2|2:0,2:0:0:0:
388,241,38688,2,0,P|417:194|407:140,2,111.999996582031,10|2|10,2:0|2:0|2:0,2:0:0:0:
318,95,39530,1,2,2:0:0:0:
327,87,39635,6,0,P|276:66|226:86,1,111.999996582031,2|10,3:2|2:0,2:0:0:0:
263,181,40162,2,0,L|406:140,1,149.333328776042,2|10,2:0|2:0,2:0:0:0:
263,181,40899,5,8,2:3:0:0:
110,184,41109,2,0,B|168:172|168:172|207:192|207:192|261:180,1,160,8|0,2:3|2:0,2:0:0:0:
301,173,41530,1,8,2:3:0:0:
194,288,41741,1,8,2:3:0:0:
194,288,41846,2,0,B|297:261,1,106.666666666667,4|0,2:3|2:0,2:0:0:0:
226,363,42162,6,0,P|164:315|89:333,1,160,6|10,3:2|2:0,2:0:0:0:
120,158,42688,1,2,3:2:0:0:
110,184,42793,1,2,2:0:0:0:
310,76,43004,1,0,3:0:0:0:
319,103,43109,2,0,P|268:114|225:85,1,106.666666666667,10|2,2:0|3:2,0:0:0:0:
390,27,43425,6,0,L|363:184,1,160,2|10,2:0|2:0,2:0:0:0:
413,363,43951,1,2,3:2:0:0:
413,362,44056,2,0,P|421:311|390:271,1,106.666666666667,2|0,2:0|3:0,0:0:0:0:
297,260,44372,2,0,B|194:287,1,106.666666666667,10|2,2:0|3:2,2:0:0:0:
62,257,44688,6,0,B|109:229|109:229|88:332,1,160,2|10,2:0|2:0,2:0:0:0:
71,151,45214,1,2,3:2:0:0:
70,150,45320,2,0,P|114:178|166:171,1,106.666666666667,2|0,2:0|3:0,2:0:0:0:
246,185,45635,2,0,L|260:79,1,106.666666666667,10|2,2:0|3:2,0:0:0:0:
265,48,45951,5,2,2:0:0:0:
411,116,46162,1,0,3:0:0:0:
443,106,46267,1,10,2:0:0:0:
375,259,46478,1,2,3:2:0:0:
343,249,46583,2,0,P|388:218|439:227,1,106.666666666667,2|0,2:0|3:0,0:0:0:0:
457,315,46899,2,0,P|412:346|361:337,1,106.666666666667,14|2,2:0|3:2,2:0:0:0:
226,229,47214,6,0,B|320:212|272:281|374:258,1,160,6|10,2:0|2:0,2:0:0:0:
174,294,47741,1,2,3:2:0:0:
174,294,47846,2,0,L|156:188,1,106.666666666667,2|0,2:0|3:0,2:0:0:0:
148,160,48162,1,10,2:0:0:0:
187,12,48372,1,2,3:2:0:0:
186,12,48478,6,0,P|125:60|50:42,1,160,2|10,2:0|2:0,2:0:0:0:
241,158,49004,1,2,3:2:0:0:
247,128,49109,1,2,2:0:0:0:
375,46,49320,1,0,3:0:0:0:
381,76,49425,2,0,P|328:78|287:46,1,106.666666666667,10|2,2:0|3:2,2:0:0:0:
424,160,49741,6,0,L|443:1,1,160,2|10,2:0|2:0,2:0:0:0:
510,214,50267,1,2,3:2:0:0:
503,257,50372,1,2,2:0:0:0:
363,338,50583,1,0,0:0:0:0:
355,293,50688,2,0,P|304:287|260:316,1,106.666666666667,10|2,2:0|3:2,0:0:0:0:
247,355,51004,5,2,2:1:0:0:
108,294,51214,1,8,2:0:0:0:
80,303,51320,1,8,2:3:0:0:
164,168,51530,1,8,2:3:0:0:
191,177,51635,2,0,P|199:124|178:76,1,106.666666666667,4|0,2:3|3:0,0:0:0:0:
98,51,51951,2,0,L|45:61,2,53.3333333333333,8|8|4,2:3|2:3|2:3,0:0:0:0:
178,76,52267,6,0,B|234:62|234:62|275:82|275:82|330:68,1,160,6|10,3:2|2:0,2:0:0:0:
461,144,52793,1,0,0:0:0:0:
478,127,52899,2,0,P|499:78|486:28,1,106.666666666667,2|0,2:0|3:0,0:0:0:0:
404,93,53214,2,0,L|428:196,1,106.666666666667,10|2,2:0|3:2,2:0:0:0:
512,240,53530,6,0,B|420:224|455:289|362:273,1,160,2|10,2:0|2:0,2:0:0:0:
280,353,54056,1,2,3:2:0:0:
289,320,54162,2,0,L|184:343,1,106.666666666667,2|0,2:0|3:0,2:0:0:0:
138,268,54478,2,0,P|182:291|184:342,1,106.666666666667,10|2,2:0|3:2,2:0:0:0:
48,223,54793,6,0,P|125:221|173:161,1,160,2|10,2:0|2:0,2:0:0:0:
74,4,55320,1,2,3:2:0:0:
66,35,55425,2,0,L|86:139,1,106.666666666667,2|0,2:0|3:0,0:0:0:0:
86,139,55741,1,10,2:0:0:0:
184,41,55951,1,2,3:2:0:0:
184,41,56056,6,0,B|242:29|273:66|273:66|334:50,1,160,2|10,2:0|2:0,2:0:0:0:
457,140,56583,1,2,3:2:0:0:
488,131,56688,2,0,P|511:83|507:31,1,106.666666666667,10|0,2:0|3:0,2:0:0:0:
400,14,57004,2,0,P|376:61|380:113,1,106.666666666667,10|2,2:0|3:2,0:0:0:0:
457,140,57320,6,0,L|434:298,1,160,6|10,2:0|2:0,2:0:0:0:
354,366,57846,1,2,3:2:0:0:
347,335,57951,1,2,2:0:0:0:
203,226,58162,1,0,3:0:0:0:
195,256,58267,2,0,P|247:251|281:212,1,106.666666666667,10|2,2:0|3:2,2:0:0:0:
126,185,58583,6,0,L|149:343,1,160,2|10,2:0|2:0,2:0:0:0:
201,108,59109,1,2,3:2:0:0:
185,121,59214,2,0,P|132:127|88:99,1,106.666666666667,2|0,2:0|3:0,2:0:0:0:
106,6,59530,2,0,P|158:0|202:27,1,106.666666666667,10|2,2:0|3:2,0:0:0:0:
277,80,59846,6,0,L|432:42,1,160,6|10,3:2|2:0,2:0:0:0:
481,176,60372,1,2,3:2:0:0:
493,140,60478,1,2,2:0:0:0:
351,240,60688,1,0,3:0:0:0:
363,276,60793,2,0,B|402:266|402:266|433:283|433:283|463:276,1,106.666666666667,10|2,2:0|3:2,2:0:0:0:
393,365,61109,6,0,P|336:312|259:322,1,160,2|10,2:0|2:0,2:0:0:0:
94,254,61635,1,2,3:2:0:0:
90,288,61741,2,0,L|195:265,1,106.666666666667,2|0,2:0|3:0,2:0:0:0:
258,321,62056,1,10,0:0:0:0:
220,139,62267,1,2,3:0:0:0:
220,139,62372,6,0,P|280:187|354:167,1,160,6|10,3:2|2:0,0:0:0:0:
242,37,62899,1,2,3:2:0:0:
242,37,63004,2,0,L|137:60,1,106.666666666667,0|0,0:0|3:0,0:0:0:0:
295,104,63320,5,14,2:0:0:0:
365,14,63530,2,0,B|349:71|349:71|367:114|367:114|353:166,1,160,0|0,3:0|3:0,0:0:0:0:
442,203,63951,2,0,P|404:166|352:165,1,106.666666666667,0|8,0:0|2:0,0:0:0:0:
290,222,64267,5,8,2:3:0:0:
285,264,64372,1,8,2:3:0:0:
280,306,64478,1,4,2:3:0:0:
275,348,64583,2,0,P|301:346|325:334,1,53.3333333333333,8|8,2:3|2:3,2:0:0:0:
197,233,64793,5,4,2:3:0:0:
204,250,64899,2,0,L|194:302,1,53.3333333333333,12|0,2:0|2:0,2:0:0:0:
359,148,65109,5,2,3:2:0:0:
352,165,65214,2,0,L|361:217,1,53.3333333333333,8|0,2:0|2:0,2:0:0:0:
255,62,65425,1,2,3:2:0:0:
240,79,65530,2,0,P|191:95|144:73,1,106.666666666667,8|0,2:0|2:0,2:0:0:0:
132,53,65846,5,0,3:0:0:0:
358,147,66056,1,10,2:0:0:0:
358,147,66478,6,0,L|384:141,4,26.6666666666667,0|0|0|0|0,2:0|2:0|2:0|2:0|2:0,2:0:0:0:
456,53,66793,2,0,L|447:78,4,26.6666666666667,0|0|0|0|0,2:0|2:0|2:0|2:0|2:0,2:0:0:0:
488,184,67109,2,0,L|470:164,4,26.6666666666667,0|0|0|0|0,2:0|2:0|2:0|2:0|2:0,2:0:0:0:
488,184,67425,6,0,B|424:200|424:200|405:240|405:240|341:256,1,176.000005371094,4|10,2:0|2:0,2:0:0:0:
271,358,67951,1,2,3:2:0:0:
271,358,68056,2,0,P|234:314|177:309,1,117.333336914063,2|0,2:0|3:0,0:0:0:0:
106,350,68372,1,10,2:0:0:0:
259,222,68583,6,0,B|272:158|272:158|253:118|253:118|267:53,1,176.000005371094,2|0,3:2|3:0,0:0:0:0:
180,11,69004,2,0,P|134:46|76:44,1,117.333336914063,10|10,2:0|3:2,2:0:0:0:
49,24,69320,1,10,2:0:0:0:
151,168,69530,1,0,3:0:0:0:
158,135,69635,2,0,P|95:147|65:189,1,117.333336914063,10|2,2:0|3:2,2:0:0:0:
21,283,69951,6,0,L|136:260,1,117.333336914063,2|0,2:0|3:0,2:0:0:0:
245,296,70267,2,0,L|129:273,1,117.333336914063,10|2,2:0|3:2,2:0:0:0:
237,308,70583,2,0,L|353:286,1,117.333336914063,2|0,2:0|3:0,2:0:0:0:
432,321,70899,1,10,2:0:0:0:
425,200,71109,1,2,3:2:0:0:
418,229,71214,5,2,2:0:0:0:
504,111,71425,1,0,3:0:0:0:
497,82,71530,1,10,2:0:0:0:
359,21,71741,1,10,3:2:0:0:
371,38,71846,2,0,P|382:94|353:144,1,117.333336914063,10|0,2:0|3:0,2:0:0:0:
263,128,72162,2,0,P|251:71|280:21,1,117.333336914063,10|2,2:0|3:2,2:0:0:0:
262,127,72478,6,0,P|198:72|115:88,1,176.000005371094,6|10,2:0|2:0,2:0:0:0:
220,207,73004,1,2,3:2:0:0:
220,207,73109,2,0,L|333:177,1,117.333336914063,2|0,2:0|0:0,2:0:0:0:
357,168,73425,1,10,2:0:0:0:
397,335,73635,1,2,3:2:0:0:
397,335,73741,6,0,P|428:286|422:229,1,117.333336914063,6|0,2:0|3:0,2:0:0:0:
357,168,74056,2,0,L|374:52,1,117.333336914063,10|10,2:0|3:2,2:0:0:0:
450,18,74372,1,10,2:0:0:0:
357,168,74583,1,0,3:0:0:0:
357,167,74688,2,0,P|299:171|251:140,1,117.333336914063,10|2,2:0|3:2,2:0:0:0:
190,10,75004,6,0,P|259:56|250:139,1,176.000005371094,6|10,2:0|2:0,2:0:0:0:
14,33,75530,1,2,3:2:0:0:
21,60,75635,2,0,B|119:38|78:119|184:92,1,176.000005371094,2|10,2:0|2:0,2:0:0:0:
362,132,76162,1,2,3:2:0:0:
354,109,76267,6,0,P|296:107|249:140,1,117.333336914063,6|0,2:0|3:0,2:0:0:0:
232,179,76583,1,10,2:0:0:0:
414,234,76793,1,10,3:0:0:0:
422,191,76899,1,14,2:3:0:0:
323,295,77109,1,0,3:0:0:0:
316,260,77214,1,10,2:0:0:0:
385,382,77425,1,2,3:2:0:0:
385,382,77530,6,0,P|319:327|235:343,1,176.000005371094,6|10,3:2|2:0,2:0:0:0:
68,257,78056,1,2,3:2:0:0:
61,293,78162,1,2,2:0:0:0:
232,179,78372,1,0,3:0:0:0:
224,143,78478,2,0,P|167:148|117:119,1,117.333336914063,10|2,2:0|3:2,2:0:0:0:
274,44,78793,6,0,L|243:217,1,176.000005371094,2|10,2:0|2:0,2:0:0:0:
471,342,79320,1,10,3:2:0:0:
490,313,79425,2,0,P|444:277|388:286,1,117.333336914063,10|0,2:0|3:0,2:0:0:0:
313,379,79741,2,0,P|365:357|386:304,1,117.333336914063,10|2,2:0|3:2,2:0:0:0:
322,236,80056,6,0,L|352:62,1,176.000005371094,6|10,2:0|2:0,2:0:0:0:
445,146,80583,1,2,3:2:0:0:
437,178,80688,1,2,2:0:0:0:
251,100,80899,1,0,3:0:0:0:
251,99,81004,2,0,P|293:60|351:62,1,117.333336914063,10|2,2:0|3:2,2:0:0:0:
323,149,81320,6,0,B|257:131|257:131|218:156|218:156|158:142,1,176.000005371094,2|10,2:0|2:0,2:0:0:0:
75,237,81846,1,10,3:2:0:0:
65,188,81951,1,10,2:0:0:0:
233,50,82162,1,0,3:0:0:0:
223,99,82267,2,0,P|177:64|120:69,1,117.333336914063,10|2,2:0|3:2,2:0:0:0:
158,142,82583,6,0,L|329:101,1,176.000005371094,6|10,3:2|2:0,2:0:0:0:
467,152,83109,1,2,3:2:0:0:
481,108,83214,1,2,2:0:0:0:
360,236,83425,1,0,3:0:0:0:
373,280,83530,2,0,P|429:267|476:300,1,117.333336914063,10|2,2:0|3:2,2:0:0:0:
360,236,83846,6,0,B|255:226|299:292|195:279,1,176.000005371094,6|10,2:0|2:0,2:0:0:0:
44,184,84372,1,10,3:2:0:0:
66,203,84478,2,0,P|114:174|121:117,1,117.333336914063,10|0,2:0|3:0,2:0:0:0:
55,68,84793,2,0,L|170:46,1,117.333336914063,10|2,2:0|3:2,2:0:0:0:
336,44,85109,6,0,B|275:32|275:32|235:58|235:58|169:46,1,176.000005371094,6|10,2:0|2:0,2:0:0:0:
279,163,85635,1,10,3:0:0:0:
288,124,85741,1,0,0:0:0:0:
449,224,85951,1,0,3:0:0:0:
458,263,86056,2,0,P|400:272|358:234,1,117.333336914063,10|0,2:0|3:0,2:0:0:0:
279,163,86372,5,6,3:2:0:0:
220,360,86583,1,0,3:0:0:0:
229,365,86688,2,0,L|344:346,1,117.333336914063,10|10,2:0|3:0,2:0:0:0:
324,243,87004,5,10,2:3:0:0:
280,259,87109,1,0,2:0:0:0:
236,246,87214,1,0,3:0:0:0:
208,209,87320,1,2,2:0:0:0:
171,171,87425,1,0,2:0:0:0:
120,164,87530,1,0,3:0:0:0:
74,188,87635,6,0,P|16:128|38:46,1,176.000005371094,4|10,2:0|2:0,2:0:0:0:
138,259,88162,1,2,3:2:0:0:
138,259,88267,2,0,L|114:375,1,117.333336914063,2|0,2:0|3:0,0:0:0:0:
43,317,88583,1,10,2:0:0:0:
208,209,88793,6,0,B|274:222|274:222|294:266|294:266|353:278,1,176.000005371094,2|0,3:2|3:0,0:0:0:0:
397,285,89214,1,10,2:0:0:0:
374,44,89425,1,10,3:2:0:0:
341,53,89530,1,10,2:0:0:0:
468,208,89741,1,0,3:0:0:0:
476,174,89846,2,0,P|434:134|377:134,1,117.333336914063,10|2,2:0|3:2,2:0:0:0:
341,53,90162,6,0,B|235:34|285:104|178:90,2,176.000005371094,2|10|2,2:0|2:0|2:0,2:0:0:0:
96,132,91004,1,0,3:0:0:0:
87,90,91109,1,10,2:0:0:0:
194,237,91320,1,2,3:2:0:0:
185,279,91425,6,0,B|251:267|251:267|292:290|292:290|353:278,1,176.000005371094,2|10,2:0|2:0,2:0:0:0:
354,92,91951,1,10,3:2:0:0:
354,91,92056,2,0,P|322:139|329:196,1,117.333336914063,10|0,2:0|3:0,2:0:0:0:
416,219,92372,2,0,P|447:170|440:113,1,117.333336914063,10|2,2:0|3:2,2:0:0:0:
354,91,92688,6,0,P|269:99|210:38,1,176.000005371094,6|10,2:0|2:0,2:0:0:0:
45,186,93214,1,2,3:2:0:0:
63,210,93320,2,0,L|177:182,1,117.333336914063,2|0,2:0|3:0,2:0:0:0:
251,202,93635,1,10,2:0:0:0:
408,325,93846,1,2,3:2:0:0:
408,325,93951,6,0,P|439:276|433:219,1,117.333336914063,6|0,2:0|3:0,2:0:0:0:
364,172,94267,2,0,P|307:187|250:201,1,117.333336914063,10|10,2:0|3:2,2:0:0:0:
223,50,94583,2,0,B|269:85|269:85|249:201,1,176.000005371094,10|10,2:0|2:0,2:0:0:0:
205,364,95109,1,2,3:2:0:0:
205,364,95214,6,0,P|164:324|107:331,1,117.333336914063,6|0,2:0|0:0,2:0:0:0:
86,350,95530,1,10,2:0:0:0:
249,201,95741,1,2,3:2:0:0:
282,230,95846,2,0,P|366:221|409:148,1,176.000005371094,2|10,2:0|2:0,0:0:0:0:
240,53,96372,1,2,3:2:0:0:
263,84,96478,6,0,L|248:200,1,117.333336914063,6|0,2:0|3:0,2:0:0:0:
231,295,96793,1,10,2:0:0:0:
27,230,97004,1,10,3:0:0:0:
67,218,97109,2,0,P|100:264|96:322,1,117.333336914063,14|0,2:3|3:0,2:0:0:0:
182,367,97425,2,0,L|296:343,1,117.333336914063,10|2,2:0|3:2,2:0:0:0:
461,306,97741,6,0,B|359:289|400:361|296:342,1,176.000005371094,6|10,3:2|2:0,2:0:0:0:
179,150,98267,1,2,3:2:0:0:
173,186,98372,1,2,2:0:0:0:
348,147,98583,1,0,3:0:0:0:
342,111,98688,2,0,P|296:76|239:81,1,117.333336914063,10|2,2:0|3:2,2:0:0:0:
74,75,99004,6,0,B|137:64|137:64|178:93|178:93|238:81,1,176.000005371094,2|10,2:0|2:0,2:0:0:0:
348,146,99530,1,10,3:2:0:0:
363,100,99635,1,10,2:0:0:0:
258,236,99846,1,0,3:0:0:0:
272,281,99951,2,0,P|329:281|376:247,1,117.333336914063,10|2,2:0|3:2,2:0:0:0:
416,333,100267,6,0,P|356:272|271:280,1,176.000005371094,6|10,2:0|2:0,2:0:0:0:
180,365,100793,1,2,3:2:0:0:
169,329,100899,1,2,2:0:0:0:
15,177,101109,1,0,3:0:0:0:
4,213,101214,2,0,P|60:203|109:233,1,117.333336914063,10|2,2:0|3:2,0:0:0:0:
155,144,101530,6,0,B|89:160|89:160|72:192|72:192|3:212,1,176.000005371094,2|10,2:0|2:0,2:0:0:0:
225,247,102056,1,10,3:2:0:0:
232,213,102162,1,10,2:0:0:0:
335,77,102372,1,0,3:0:0:0:
342,111,102478,2,0,P|284:115|239:80,1,117.333336914063,10|2,2:0|3:2,2:0:0:0:
389,203,102793,6,0,L|410:28,1,176.000005371094,6|10,3:2|2:0,2:0:0:0:
490,249,103320,1,2,3:2:0:0:
490,249,103425,2,0,B|382:227|429:296|321:269,1,176.000005371094,2|10,2:0|2:0,0:0:0:0:
322,269,104056,5,8,2:0:0:0:
292,318,104162,1,8,2:0:0:0:
239,340,104267,1,8,2:0:0:0:
183,325,104372,1,8,2:0:0:0:
148,279,104478,1,8,2:0:0:0:
148,222,104583,1,8,2:0:0:0:
182,176,104688,1,8,2:3:0:0:
236,153,104793,1,8,2:3:0:0:
261,102,104899,1,8,2:3:0:0:
249,55,105004,1,4,2:3:0:0:
223,29,105109,1,4,2:3:0:0:
195,19,105214,1,4,2:3:0:0:
173,21,105320,6,0,B|349:-15|257:122|437:78,1,287.999991210938,4|2,2:0|2:0,2:0:0:0:
436,78,106583,5,8,2:3:0:0:
493,156,106793,2,0,P|467:228|392:242,2,160,8|8|8,2:3|2:3|2:3,2:0:0:0:
493,156,107530,1,4,2:3:0:0:
342,323,107846,6,0,L|320:164,1,160,4|10,2:0|2:0,2:0:0:0:
443,48,108372,1,2,3:2:0:0:
436,78,108478,1,2,2:0:0:0:
320,164,108688,1,0,3:0:0:0:
313,133,108793,2,0,P|260:138|215:111,1,106.666666666667,10|2,2:0|3:2,2:0:0:0:
85,164,109109,6,0,P|137:107|215:111,1,160,2|10,2:0|2:0,2:0:0:0:
118,235,109635,1,2,3:2:0:0:
118,235,109741,2,0,L|12:217,1,106.666666666667,2|0,2:0|3:0,2:0:0:0:
83,314,110056,2,0,L|186:288,1,106.666666666667,10|2,2:0|3:2,2:0:0:0:
289,246,110372,6,0,P|280:320|207:341,1,160,2|10,2:0|2:0,2:0:0:0:
215,111,110899,1,2,3:2:0:0:
250,126,111004,1,2,2:0:0:0:
436,78,111214,1,0,3:0:0:0:
400,92,111320,2,0,P|367:53|370:1,1,106.666666666667,10|2,2:0|3:2,2:0:0:0:
436,78,111635,6,0,L|409:235,1,160,2|10,2:0|2:0,2:0:0:0:
289,246,112162,1,2,3:2:0:0:
289,246,112267,2,0,P|236:243|191:270,1,106.666666666667,2|0,2:0|3:0,0:0:0:0:
269,350,112583,2,0,L|288:245,1,106.666666666667,10|2,2:0|3:2,2:0:0:0:
191,270,112899,6,0,P|113:274|62:216,1,160,6|10,3:2|2:0,2:0:0:0:
135,103,113425,1,2,3:2:0:0:
135,103,113530,2,0,B|176:82|176:82|147:192,1,160,2|10,2:0|2:0,2:0:0:0:
400,92,114162,6,0,P|326:113|268:62,1,160,2|10,2:0|2:0,2:0:0:0:
468,52,114688,1,2,3:2:0:0:
468,52,114793,2,0,L|453:158,1,106.666666666667,2|0,2:0|3:0,2:0:0:0:
506,211,115109,2,0,P|496:261|451:285,1,106.666666666667,10|2,2:0|3:2,2:0:0:0:
381,241,115425,6,0,B|317:230|317:230|277:246|277:246|227:235,1,160,2|10,2:0|2:0,2:0:0:0:
339,360,115951,1,10,3:0:0:0:
328,320,116056,1,10,2:3:0:0:
226,234,116267,1,0,3:0:0:0:
215,274,116372,1,10,2:0:0:0:
215,274,116688,6,0,L|89:298,1,128,6|0,3:2|2:0,2:0:0:0:
89,297,117951,5,0,3:0:0:0:
82,115,118267,2,0,P|119:155|123:209,1,111.999996582031,0|0,2:0|2:0,0:0:0:0:
215,274,118793,2,0,L|207:310,1,37.3333321940105,0|0,2:0|2:0,0:0:0:0:
387,241,119109,1,0,2:0:0:0:
387,241,119214,2,0,P|345:206|290:210,2,111.999996582031,0|2|0,2:0|2:0|2:0,2:0:0:0:
329,320,120056,2,0,L|321:284,1,37.3333321940105,0|0,2:0|2:0,0:0:0:0:
408,137,120372,1,0,2:0:0:0:
408,137,120478,6,0,P|412:191|386:240,2,111.999996582031,0|2|0,3:0|2:0|2:0,2:0:0:0:
293,12,121320,1,0,2:0:0:0:
293,12,121425,2,0,L|281:85,1,74.6666643880209,2|0,2:0|2:0,2:0:0:0:
277,128,121741,1,0,2:0:0:0:
98,121,121951,2,0,P|143:89|198:88,1,111.999996582031,0|0,2:0|2:0,2:0:0:0:
277,128,122372,2,0,L|387:112,1,111.999996582031,0|2,2:0|3:2,0:0:0:0:
445,245,122899,1,0,2:0:0:0:
445,245,123004,6,0,P|478:202|472:148,1,111.999996582031,0|2,3:0|2:0,2:0:0:0:
376,205,123530,1,0,0:0:0:0:
376,205,123635,2,0,L|399:314,1,111.999996582031,0|2,2:0|2:0,0:0:0:0:
304,343,124267,2,0,P|345:307|398:313,1,111.999996582031,0|2,2:0|2:0,2:0:0:0:
212,364,124793,1,0,0:0:0:0:
212,364,124899,2,0,L|139:354,1,74.6666643880209,0|0,2:0|2:0,0:0:0:0:
98,294,125214,2,0,P|125:318|137:353,1,74.6666643880209,2|0,2:0|2:0,2:0:0:0:
114,210,125530,6,0,P|77:249|22:251,1,111.999996582031,0|2,3:0|2:0,2:0:0:0:
79,103,126056,1,0,2:0:0:0:
79,103,126162,2,0,L|188:127,1,111.999996582031,0|2,2:0|2:0,2:0:0:0:
280,7,126793,6,0,P|300:37|300:74,1,74.6666643880209,0|0,2:0|2:0,2:0:0:0:
295,95,127109,2,0,L|187:127,2,111.999996582031,2|2|2,2:0|2:0|2:0,2:0:0:0:
430,159,127951,1,0,2:0:0:0:
430,159,128056,6,0,L|444:47,1,111.999996582031,0|0,3:0|2:0,2:0:0:0:
394,235,128583,1,0,2:0:0:0:
394,235,128688,2,0,P|428:246|465:239,1,74.6666643880209,0|8,3:0|2:0,2:0:0:0:
480,249,129004,1,0,3:0:0:0:
327,376,129214,1,0,2:0:0:0:
327,376,129320,2,0,L|308:265,1,111.999996582031,0|0,3:0|3:0,0:0:0:0:
223,203,129846,1,0,3:0:0:0:
223,203,129951,2,0,L|236:129,1,74.6666643880209,8|0,2:0|0:0,2:0:0:0:
212,55,130267,2,0,L|225:128,1,74.6666643880209,0|0,3:0|2:0,0:0:0:0:
315,63,130583,6,0,B|279:39|279:39|212:54,1,111.999996582031,0|0,3:0|2:0,2:0:0:0:
59,96,131109,1,0,2:0:0:0:
80,122,131214,2,0,L|104:12,1,111.999996582031,0|0,3:0|3:0,2:0:0:0:
116,204,131741,1,0,2:0:0:0:
116,204,131846,6,0,P|62:210|16:181,2,111.999996582031,0|0|0,3:0|2:0|3:0,2:0:0:0:
193,261,132688,1,0,2:0:0:0:
193,261,132793,2,0,L|204:334,1,74.6666643880209,8|0,2:0|2:0,0:0:0:0:
204,334,133109,6,0,P|258:330|295:290,1,111.999996582031,0|0,3:0|2:0,2:0:0:0:
241,160,133741,1,0,3:0:0:0:
295,290,133951,1,8,2:0:0:0:
295,290,134056,2,0,L|305:216,1,74.6666643880209,0|0,3:0|2:0,0:0:0:0:
241,160,134372,6,0,L|230:86,1,74.6666643880209,0|8,3:0|2:0,0:0:0:0:
212,69,134688,1,0,3:0:0:0:
375,17,134899,1,8,2:0:0:0:
375,17,135004,2,0,P|391:49|389:86,1,74.6666643880209,0|0,3:0|0:0,2:0:0:0:
375,102,135320,2,0,P|358:134|360:171,1,74.6666643880209,0|0,3:0|2:0,0:0:0:0:
357,203,135635,6,0,P|407:183|459:203,1,111.999996582031,0|0,3:0|2:0,2:0:0:0:
401,281,136162,2,0,L|291:258,1,111.999996582031,0|0,2:0|2:0,0:0:0:0:
291,258,136583,1,10,2:0:0:0:
172,354,136793,1,2,2:0:0:0:
163,318,136899,1,8,2:3:0:0:
10,322,137109,6,0,B|68:310|68:310|107:330|107:330|161:318,1,160,8|0,2:3|2:0,2:0:0:0:
163,74,137530,1,8,2:3:0:0:
120,236,137741,1,8,2:3:0:0:
120,236,137846,2,0,B|97:131,1,106.666666666667,4|0,2:3|2:0,2:0:0:0:
26,43,138162,6,0,P|88:91|163:73,1,160,6|10,3:2|2:0,2:0:0:0:
271,24,138688,1,0,0:0:0:0:
261,50,138793,1,2,2:0:0:0:
348,172,139004,1,0,3:0:0:0:
357,199,139109,2,0,P|306:210|263:181,1,106.666666666667,10|2,2:0|3:2,0:0:0:0:
428,123,139425,6,0,L|401:280,1,160,2|10,2:0|2:0,2:0:0:0:
425,373,139951,1,2,3:2:0:0:
425,372,140056,2,0,P|433:321|402:281,1,106.666666666667,2|0,2:0|3:0,0:0:0:0:
357,199,140372,2,0,B|254:226,1,106.666666666667,10|2,2:0|3:2,2:0:0:0:
100,278,140688,6,0,B|137:246|180:265|180:265|200:303|239:303,1,160,2|10,2:0|2:0,2:0:0:0:
42,342,141214,1,2,3:2:0:0:
43,343,141320,2,0,P|15:299|22:247,1,106.666666666667,2|0,2:0|3:0,2:0:0:0:
114,172,141635,2,0,L|100:278,1,106.666666666667,10|2,2:0|3:2,0:0:0:0:
100,157,141951,5,2,2:0:0:0:
253,226,142162,1,0,3:0:0:0:
285,216,142267,1,10,2:0:0:0:
210,46,142478,1,2,3:2:0:0:
178,36,142583,2,0,P|223:5|274:14,1,106.666666666667,2|0,2:0|3:0,0:0:0:0:
292,102,142899,2,0,P|247:133|196:124,1,106.666666666667,14|2,2:0|3:2,2:0:0:0:
292,102,143214,6,0,B|386:85|338:154|440:131,1,160,6|10,2:0|2:0,2:0:0:0:
330,289,143741,1,2,3:2:0:0:
330,289,143846,2,0,L|312:183,1,106.666666666667,2|0,2:0|3:0,2:0:0:0:
312,183,144162,1,10,2:0:0:0:
387,384,144372,1,2,3:2:0:0:
386,384,144478,6,0,P|325:336|250:354,1,160,2|10,2:0|2:0,2:0:0:0:
133,300,145004,1,2,3:2:0:0:
139,270,145109,1,2,2:0:0:0:
312,183,145320,1,0,3:0:0:0:
318,213,145425,2,0,P|265:215|224:183,1,106.666666666667,10|2,2:0|3:2,2:0:0:0:
120,111,145741,6,0,L|139:270,1,160,2|10,2:0|2:0,2:0:0:0:
231,140,146267,1,2,3:2:0:0:
224,183,146372,1,2,2:0:0:0:
120,111,146583,1,0,3:0:0:0:
112,66,146688,2,0,P|61:60|17:89,1,106.666666666667,10|2,2:0|3:2,2:0:0:0:
120,111,147004,5,2,2:1:0:0:
235,5,147214,1,8,2:0:0:0:
207,14,147320,1,8,2:3:0:0:
312,183,147530,1,8,2:3:0:0:
339,192,147635,2,0,P|347:139|326:91,1,106.666666666667,4|0,2:3|3:0,0:0:0:0:
406,52,147951,2,0,L|396:-1,2,53.3333333333333,8|8|4,2:3|2:3|2:3,0:0:0:0:
326,91,148267,6,0,B|382:77|382:77|423:97|423:97|478:83,1,160,6|10,3:2|2:0,2:0:0:0:
452,198,148793,1,0,0:0:0:0:
469,181,148899,2,0,P|490:132|477:82,1,106.666666666667,2|0,2:0|3:0,0:0:0:0:
395,147,149214,2,0,L|419:250,1,106.666666666667,10|2,2:0|3:2,2:0:0:0:
503,294,149530,6,0,B|411:278|446:343|353:327,1,160,2|10,2:0|2:0,2:0:0:0:
204,179,150056,1,2,3:2:0:0:
224,183,150162,2,0,P|252:227|249:279,1,106.666666666667,2|0,2:0|3:0,2:0:0:0:
159,313,150478,2,0,P|130:268|133:216,1,106.666666666667,10|2,2:0|3:2,2:0:0:0:
37,168,150793,6,0,P|114:166|162:106,1,160,2|10,2:0|2:0,2:0:0:0:
299,53,151320,1,2,3:2:0:0:
291,84,151425,2,0,L|311:188,1,106.666666666667,2|0,2:0|3:0,0:0:0:0:
311,188,151741,1,10,2:0:0:0:
503,294,151951,1,2,3:2:0:0:
503,294,152056,6,0,B|445:282|414:319|414:319|353:303,1,160,2|10,2:0|2:0,2:0:0:0:
311,188,152583,1,2,3:2:0:0:
343,180,152688,2,0,P|366:132|362:80,1,106.666666666667,10|0,2:0|3:0,2:0:0:0:
255,63,153004,2,0,P|231:110|235:162,1,106.666666666667,10|2,2:0|3:2,0:0:0:0:
166,226,153320,6,0,P|89:226|37:168,1,160,6|10,2:0|2:0,2:0:0:0:
146,320,153846,1,2,3:2:0:0:
139,351,153951,1,2,2:0:0:0:
235,162,154162,1,0,3:0:0:0:
242,192,154267,2,0,P|291:176|321:132,1,106.666666666667,10|2,2:0|3:2,2:0:0:0:
361,57,154583,6,0,B|346:30|311:32|311:32|320:131,1,160,2|10,2:0|2:0,2:0:0:0:
399,268,155109,1,2,3:2:0:0:
415,281,155214,2,0,P|468:287|512:259,1,106.666666666667,2|0,2:0|3:0,2:0:0:0:
494,166,155530,2,0,P|442:160|398:187,1,106.666666666667,10|2,2:0|3:2,2:0:0:0:
415,281,155846,6,0,B|320:264|352:333|264:309,1,160,6|10,3:2|2:0,2:0:0:0:
239,183,156372,1,2,3:2:0:0:
251,147,156478,1,2,2:0:0:0:
31,285,156688,1,0,3:0:0:0:
43,321,156793,2,0,B|79:311|103:329|103:329|145:319,1,106.666666666667,10|2,2:0|3:2,2:0:0:0:
194,384,157109,6,0,P|225:313|185:247,1,160,2|10,2:0|2:0,2:0:0:0:
16,61,157635,1,2,3:2:0:0:
12,95,157741,2,0,L|117:72,1,106.666666666667,2|0,2:0|3:0,2:0:0:0:
186,29,158056,1,10,0:0:0:0:
104,166,158267,1,2,3:0:0:0:
104,166,158372,6,0,P|167:209|238:182,1,160,6|10,3:2|2:0,0:0:0:0:
313,0,158899,1,2,3:2:0:0:
313,0,159004,2,0,L|208:23,1,106.666666666667,0|0,0:0|3:0,0:0:0:0:
186,29,159320,5,14,2:0:0:0:
325,278,159530,2,0,B|339:226|339:226|321:183|321:183|337:126,1,160,0|0,3:0|3:0,0:0:0:0:
500,215,159951,2,0,P|462:178|410:177,1,106.666666666667,0|8,0:0|2:0,0:0:0:0:
330,236,160267,5,8,2:3:0:0:
325,278,160372,1,8,2:3:0:0:
320,320,160478,1,4,2:3:0:0:
315,362,160583,2,0,P|341:360|365:348,2,53.3333333333333,8|8|4,2:3|2:3|2:3,2:0:0:0:
223,288,160899,5,12,2:0:0:0:
172,274,161004,1,0,2:0:0:0:
123,292,161109,1,2,3:2:0:0:
94,336,161214,2,0,L|42:328,1,53.3333333333333,8|0,2:0|2:0,2:0:0:0:
116,147,161425,5,2,3:2:0:0:
103,163,161530,2,0,P|74:119|76:66,1,106.666666666667,8|0,2:0|2:0,2:0:0:0:
93,34,161846,5,0,3:0:0:0:
172,274,162056,1,10,2:0:0:0:
172,274,162478,6,0,L|198:280,4,26.6666666666667,0|0|0|0|0,2:0|2:0|2:0|2:0|2:0,2:0:0:0:
270,368,162793,2,0,L|261:343,4,26.6666666666667,0|0|0|0|0,2:0|2:0|2:0|2:0|2:0,2:0:0:0:
302,237,163109,2,0,L|284:257,4,26.6666666666667,0|0|0|0|0,2:0|2:0|2:0|2:0|2:0,2:0:0:0:
284,256,163425,6,0,B|348:272|348:272|367:312|367:312|431:328,1,176.000005371094,4|10,2:0|2:0,2:0:0:0:
501,188,163951,1,2,3:2:0:0:
501,188,164056,2,0,P|464:144|407:139,1,117.333336914063,2|0,2:0|3:0,0:0:0:0:
369,170,164372,1,10,2:0:0:0:
260,342,164583,6,0,L|230:169,1,176.000005371094,2|0,3:2|3:0,0:0:0:0:
265,82,165004,2,0,P|219:116|161:115,1,117.333336914063,10|10,2:0|3:2,2:0:0:0:
113,83,165320,1,10,2:0:0:0:
11,197,165530,1,0,3:0:0:0:
50,178,165635,1,10,2:0:0:0:
146,345,165846,1,2,3:2:0:0:
146,344,165951,6,0,P|92:363|38:342,1,117.333336914063,2|0,2:0|3:0,2:0:0:0:
150,319,166267,2,0,P|203:298|257:317,1,117.333336914063,10|2,2:0|3:2,2:0:0:0:
367,343,166583,2,0,P|313:362|259:341,1,117.333336914063,2|0,2:0|3:0,2:0:0:0:
257,317,166899,1,10,2:0:0:0:
444,235,167109,1,2,3:2:0:0:
437,264,167214,5,2,2:0:0:0:
267,214,167425,1,0,3:0:0:0:
260,185,167530,1,10,2:0:0:0:
439,119,167741,1,10,3:2:0:0:
422,131,167846,2,0,P|366:142|316:113,1,117.333336914063,10|0,2:0|3:0,2:0:0:0:
332,23,168162,2,0,P|389:11|439:40,1,117.333336914063,10|2,2:0|3:2,2:0:0:0:
316,113,168478,6,0,P|247:62|163:78,1,176.000005371094,6|10,2:0|2:0,2:0:0:0:
11,197,169004,1,2,3:2:0:0:
11,197,169109,2,0,L|124:167,1,117.333336914063,2|0,2:0|0:0,2:0:0:0:
148,158,169425,1,10,2:0:0:0:
341,384,169635,1,2,3:2:0:0:
341,384,169741,6,0,P|372:335|366:278,1,117.333336914063,6|0,2:0|3:0,2:0:0:0:
298,229,170056,2,0,L|315:113,1,117.333336914063,10|10,2:0|3:2,2:0:0:0:
385,60,170372,1,10,2:0:0:0:
506,177,170583,1,0,3:0:0:0:
506,176,170688,2,0,P|448:180|400:149,1,117.333336914063,10|2,2:0|3:2,2:0:0:0:
315,112,171004,6,0,B|252:123|252:123|212:99|212:99|147:111,1,176.000005371094,6|10,2:0|2:0,2:0:0:0:
351,287,171530,1,2,3:2:0:0:
351,287,171635,2,0,P|414:231|399:148,1,176.000005371094,2|10,2:0|2:0,2:0:0:0:
156,306,172162,1,2,3:2:0:0:
156,306,172267,6,0,L|272:281,1,117.333336914063,6|0,2:0|3:0,2:0:0:0:
351,287,172583,1,10,2:0:0:0:
402,152,172793,1,10,3:0:0:0:
359,160,172899,1,14,2:3:0:0:
485,234,173109,1,0,3:0:0:0:
477,277,173214,1,10,2:0:0:0:
490,120,173425,1,2,3:2:0:0:
490,120,173530,6,0,P|427:62|344:77,1,176.000005371094,6|10,3:2|2:0,2:0:0:0:
358,251,174056,1,2,3:2:0:0:
351,287,174162,1,2,2:0:0:0:
256,147,174372,1,0,3:0:0:0:
247,110,174478,2,0,P|190:111|157:65,1,117.333336914063,10|2,2:0|3:2,2:0:0:0:
101,161,174793,6,0,P|162:101|247:110,1,176.000005371094,2|10,2:0|2:0,2:0:0:0:
321,191,175320,1,10,3:2:0:0:
321,191,175425,2,0,L|342:75,1,117.333336914063,10|0,2:0|3:0,2:0:0:0:
362,269,175741,2,0,P|312:240|257:255,1,117.333336914063,10|2,2:0|3:2,2:0:0:0:
287,353,176056,2,0,L|459:314,1,176.000005371094,6|10,2:0|2:0,2:0:0:0:
445,146,176583,1,2,3:2:0:0:
437,178,176688,1,2,2:0:0:0:
251,100,176899,1,0,3:0:0:0:
251,99,177004,2,0,P|293:60|351:62,1,117.333336914063,10|2,2:0|3:2,2:0:0:0:
323,149,177320,6,0,B|257:131|257:131|218:156|218:156|158:142,1,176.000005371094,2|10,2:0|2:0,2:0:0:0:
75,237,177846,1,10,3:2:0:0:
65,188,177951,1,10,2:0:0:0:
235,310,178162,1,0,3:0:0:0:
225,359,178267,2,0,P|179:324|122:329,1,117.333336914063,10|2,2:0|3:2,2:0:0:0:
225,359,178583,6,0,B|291:343|291:343|329:364|329:364|392:351,1,176.000005371094,6|10,3:2|2:0,2:0:0:0:
360,236,179109,1,2,3:0:0:0:
346,280,179214,1,2,0:2:0:0:
320,98,179425,1,2,3:0:0:0:
334,142,179530,2,0,P|390:129|437:162,1,117.333336914063,10|2,2:0|3:2,2:0:0:0:
469,67,179846,6,0,P|419:136|334:142,1,176.000005371094,6|10,2:0|2:0,2:0:0:0:
158,142,180372,1,10,3:2:0:0:
180,160,180478,2,0,P|217:117|214:59,1,117.333336914063,10|0,2:0|3:0,2:0:0:0:
158,142,180793,2,0,L|176:257,1,117.333336914063,10|2,2:0|3:2,2:0:0:0:
261,310,181109,6,0,B|200:298|200:298|160:324|160:324|94:312,1,176.000005371094,6|10,2:0|2:0,2:0:0:0:
324,180,181635,1,10,3:0:0:0:
333,141,181741,1,0,0:0:0:0:
450,224,181951,1,0,3:0:0:0:
459,263,182056,2,0,P|401:272|364:315,1,117.333336914063,10|0,2:0|3:0,2:0:0:0:
364,314,182372,5,6,3:2:0:0:
199,194,182583,1,0,3:0:0:0:
208,199,182688,2,0,L|323:180,1,117.333336914063,10|10,2:0|3:0,2:0:0:0:
368,125,183004,1,10,2:3:0:0:
333,141,183109,1,0,2:0:0:0:
294,138,183214,1,0,3:0:0:0:
262,116,183320,1,2,2:0:0:0:
222,75,183425,1,0,2:0:0:0:
165,65,183530,1,0,3:0:0:0:
114,90,183635,6,0,B|87:99|69:128|69:128|88:13,1,176.000005371094,4|10,2:0|2:0,2:0:0:0:
150,180,184162,1,2,3:2:0:0:
150,180,184267,2,0,L|126:296,1,117.333336914063,2|0,2:0|3:0,0:0:0:0:
119,325,184583,1,10,2:0:0:0:
259,253,184793,1,2,3:2:0:0:
259,253,184899,6,0,B|336:242|336:242|350:260|367:265,1,117.333336914063,2|0,2:0|3:0,2:0:0:0:
367,264,185214,1,10,2:0:0:0:
368,125,185425,1,10,3:2:0:0:
335,134,185530,1,10,2:0:0:0:
504,266,185741,1,0,3:0:0:0:
512,232,185846,2,0,P|470:192|413:192,1,117.333336914063,10|2,2:0|3:2,2:0:0:0:
368,125,186162,6,0,P|383:41|461:8,2,176.000005371094,2|10|2,2:0|2:0|2:0,2:0:0:0:
226,58,187004,1,0,3:0:0:0:
217,16,187109,1,10,2:0:0:0:
111,100,187320,1,2,3:2:0:0:
102,142,187425,6,0,B|168:130|168:130|209:153|209:153|270:141,1,176.000005371094,2|10,2:0|2:0,2:0:0:0:
232,341,187951,1,10,3:2:0:0:
232,342,188056,2,0,P|200:294|207:237,1,117.333336914063,10|0,2:0|3:0,2:0:0:0:
294,214,188372,2,0,P|325:263|318:320,1,117.333336914063,10|2,2:0|3:2,2:0:0:0:
437,266,188688,6,0,P|352:274|293:213,1,176.000005371094,6|10,2:0|2:0,2:0:0:0:
311,43,189214,1,2,3:2:0:0:
311,43,189320,2,0,P|346:88|339:145,1,117.333336914063,2|0,2:0|3:0,2:0:0:0:
293,213,189635,1,10,2:0:0:0:
153,141,189846,1,2,3:2:0:0:
153,141,189951,6,0,L|266:111,1,117.333336914063,6|0,2:0|3:0,2:0:0:0:
311,43,190267,2,0,P|346:88|338:144,1,117.333336914063,10|10,2:0|3:2,2:0:0:0:
437,266,190583,2,0,P|381:206|292:212,1,176.000005371094,10|10,2:0|2:0,2:0:0:0:
153,364,191109,1,2,3:2:0:0:
153,364,191214,6,0,L|267:338,1,117.333336914063,6|0,2:0|0:0,2:0:0:0:
301,350,191530,1,10,2:0:0:0:
206,237,191741,1,2,3:2:0:0:
173,259,191846,2,0,P|89:250|46:177,1,176.000005371094,2|10,2:0|2:0,0:0:0:0:
155,24,192372,1,2,3:2:0:0:
159,48,192478,6,0,B|198:39|198:39|228:50|228:50|272:40,1,117.333336914063,6|0,2:0|3:0,2:0:0:0:
299,37,192793,1,10,2:0:0:0:
463,125,193004,1,10,3:0:0:0:
473,85,193109,1,14,2:3:0:0:
334,139,193320,1,0,3:0:0:0:
343,178,193425,2,0,P|389:212|446:212,1,117.333336914063,10|2,2:0|3:2,2:0:0:0:
446,212,193741,6,0,B|344:195|385:267|281:248,1,176.000005371094,6|10,3:2|2:0,2:0:0:0:
201,332,194267,1,2,3:2:0:0:
195,368,194372,1,2,2:0:0:0:
22,261,194583,1,0,3:0:0:0:
28,225,194688,2,0,P|74:190|131:195,1,117.333336914063,10|2,2:0|3:2,2:0:0:0:
261,126,195004,6,0,P|214:197|130:194,1,176.000005371094,2|10,2:0|2:0,2:0:0:0:
270,42,195530,1,10,3:2:0:0:
312,58,195635,1,10,2:0:0:0:
446,212,195846,1,0,3:0:0:0:
401,198,195951,2,0,L|286:222,1,117.333336914063,10|2,2:0|3:2,2:0:0:0:
373,341,196267,6,0,P|427:277|400:197,1,176.000005371094,6|10,2:0|2:0,2:0:0:0:
275,185,196793,1,2,3:2:0:0:
286,221,196899,1,2,2:0:0:0:
100,311,197109,1,0,3:0:0:0:
89,347,197214,2,0,P|145:337|194:367,1,117.333336914063,10|2,2:0|3:2,0:0:0:0:
224,284,197530,6,0,P|173:351|88:346,1,176.000005371094,2|10,2:0|2:0,2:0:0:0:
41,228,198056,1,10,3:2:0:0:
48,194,198162,1,10,2:0:0:0:
165,66,198372,1,0,3:0:0:0:
172,100,198478,2,0,P|114:104|69:69,1,117.333336914063,10|2,2:0|3:2,2:0:0:0:
224,186,198793,6,0,L|245:11,1,176.000005371094,6|10,3:2|2:0,2:0:0:0:
139,248,199320,1,2,3:2:0:0:
139,248,199425,2,0,B|247:226|200:295|308:268,1,176.000005371094,2|10,2:0|2:0,0:0:0:0:
306,268,200056,5,8,2:0:0:0:
355,238,200162,1,8,2:0:0:0:
377,185,200267,1,8,2:0:0:0:
362,129,200372,1,8,2:0:0:0:
316,94,200478,1,8,2:0:0:0:
259,94,200583,1,8,2:0:0:0:
213,128,200688,1,8,2:3:0:0:
190,182,200793,1,8,2:3:0:0:
139,207,200899,1,8,2:3:0:0:
92,195,201004,1,4,2:3:0:0:
66,169,201109,1,4,2:3:0:0:
56,141,201214,1,4,2:3:0:0:
57,119,201320,5,6,2:0:0:0:
138,77,201635,1,8,2:0:0:0:
57,119,201951,1,8,2:0:0:0:
138,77,202267,1,8,2:0:0:0:
57,119,202583,5,8,2:3:0:0:
177,158,202793,2,0,P|223:95|204:20,2,160,8|8|8,2:3|2:3|2:3,2:0:0:0:
177,158,203530,1,4,2:3:0:0:
292,324,203846,6,0,P|371:324|442:360,1,160,6|10,3:2|2:0,2:0:0:0:
410,193,204372,1,2,3:2:0:0:
403,225,204478,1,2,2:0:0:0:
292,324,204688,1,0,0:0:0:0:
299,356,204793,2,0,P|316:306|303:255,1,106.666666666667,10|2,2:0|3:2,0:0:0:0:
152,267,205109,6,0,B|211:253|211:253|241:272|241:272|303:255,1,160,2|10,2:0|2:0,2:0:0:0:
299,72,205635,1,2,3:2:0:0:
298,72,205741,2,0,P|272:117|276:170,1,106.666666666667,2|0,2:0|3:0,0:0:0:0:
361,191,206056,2,0,P|386:145|382:92,1,106.666666666667,10|2,2:0|3:2,2:0:0:0:
298,72,206372,6,0,P|221:85|157:40,1,160,2|10,2:0|2:0,2:0:0:0:
152,267,206899,1,2,3:2:0:0:
160,231,207004,1,2,2:0:0:0:
21,111,207214,1,0,0:0:0:0:
29,147,207320,1,10,2:0:0:0:
66,337,207530,1,2,3:2:0:0:
66,336,207635,2,0,P|140:314|208:352,1,160,2|10,2:0|2:0,2:0:0:0:
264,211,208162,1,2,3:2:0:0:
264,211,208267,6,0,L|159:230,1,106.666666666667,2|0,2:0|0:0,2:0:0:0:
126,234,208583,1,10,2:0:0:0:
160,7,208793,1,2,3:2:0:0:
160,7,208899,6,0,B|218:20|218:20|239:57|239:57|295:71,1,160,6|10,2:0|2:0,2:0:0:0:
496,126,209425,1,2,3:2:0:0:
496,126,209530,2,0,B|438:139|438:139|417:176|417:176|360:190,1,160,2|10,2:0|2:0,2:0:0:0:
332,286,210056,1,2,3:2:0:0:
332,286,210162,6,0,P|360:241|359:189,1,106.666666666667,2|0,2:0|3:0,0:0:0:0:
271,162,210478,2,0,P|242:206|243:258,1,106.666666666667,10|2,2:0|3:2,0:0:0:0:
267,345,210793,2,0,P|209:293|132:305,1,160,2|10,2:0|2:0,0:0:0:0:
0,145,211320,1,2,3:2:0:0:
0,145,211425,6,0,B|29:179|29:179|141:152,1,160,2|10,2:0|2:0,2:0:0:0:
253,63,211951,1,2,3:2:0:0:
253,64,212056,2,0,P|278:109|270:161,1,106.666666666667,2|0,2:0|3:0,2:0:0:0:
159,30,212372,2,0,P|211:30|252:63,1,106.666666666667,10|2,2:0|3:2,2:0:0:0:
270,161,212688,6,0,L|424:121,1,160,2|10,2:0|2:0,2:0:0:0:
499,224,213214,1,8,2:3:0:0:
499,224,213320,2,0,B|444:240|444:240|405:205,1,106.666666666667,4|0,2:3|3:0,2:0:0:0:
424,121,213635,2,0,L|412:68,2,53.3333333333333,8|0|4,2:3|2:0|2:3,0:0:0:0:
499,224,213951,6,0,B|401:211|443:269|347:254,1,160,6|10,3:2|2:0,2:0:0:0:
271,362,214478,1,2,3:2:0:0:
279,334,214583,1,2,2:0:0:0:
138,216,214793,1,0,0:0:0:0:
146,244,214899,2,0,P|94:249|50:220,1,106.666666666667,10|2,2:0|3:2,0:0:0:0:
221,168,215214,6,0,L|191:325,1,160,2|10,2:0|2:0,2:0:0:0:
153,113,215741,1,2,3:2:0:0:
153,113,215846,2,0,P|205:112|249:83,1,106.666666666667,2|0,2:0|3:0,2:0:0:0:
300,18,216162,2,0,P|352:18|396:47,1,106.666666666667,10|2,2:0|3:2,2:0:0:0:
408,130,216478,6,0,P|472:89|471:12,1,160,2|10,2:0|2:0,2:0:0:0:
318,155,217004,1,2,3:2:0:0:
312,185,217109,1,2,2:0:0:0:
455,328,217320,1,0,0:0:0:0:
448,297,217425,2,0,P|406:267|354:270,1,106.666666666667,10|2,2:0|3:2,0:0:0:0:
274,322,217741,6,0,P|322:261|311:184,1,160,2|10,2:0|2:0,2:0:0:0:
239,97,218267,1,2,3:2:0:0:
232,131,218372,1,2,2:0:0:0:
134,266,218583,1,0,3:0:0:0:
127,231,218688,2,0,P|178:221|223:248,1,106.666666666667,14|2,2:0|3:2,2:0:0:0:
274,322,219004,6,0,B|336:307|336:307|375:326|375:326|425:312,1,160,6|10,2:0|2:0,2:0:0:0:
479,173,219530,1,2,3:2:0:0:
492,211,219635,1,2,2:0:0:0:
349,122,219846,1,0,3:0:0:0:
362,84,219951,2,0,P|315:59|263:68,1,106.666666666667,10|2,2:0|3:2,2:0:0:0:
171,165,220267,2,0,P|244:141|263:67,1,160,2|10,2:0|2:0,0:0:0:0:
99,125,220793,1,2,3:2:0:0:
99,125,220899,2,0,L|115:230,1,106.666666666667,2|0,2:0|3:0,0:0:0:0:
124,261,221214,1,10,2:0:0:0:
250,316,221425,1,2,3:2:0:0:
250,316,221530,6,0,B|155:296|193:363|98:343,1,160,2|10,2:0|2:0,2:0:0:0:
130,228,222056,1,2,3:2:0:0:
124,261,222162,1,2,2:0:0:0:
250,316,222372,1,0,3:0:0:0:
245,289,222478,1,10,2:0:0:0:
389,214,222688,1,2,3:2:0:0:
385,234,222793,5,2,2:1:0:0:
385,233,224056,6,0,P|410:185|404:130,1,111.999996582031,0|8,3:0|2:0,2:0:0:0:
314,114,224583,1,0,2:0:0:0:
314,114,224688,2,0,P|288:162|294:217,1,111.999996582031,0|8,3:0|2:0,2:0:0:0:
203,365,225214,1,0,0:0:0:0:
202,365,225320,2,0,P|146:369|98:342,1,111.999996582031,0|8,3:0|2:0,2:0:0:0:
64,249,225951,1,0,3:0:0:0:
164,284,226162,2,0,L|201:275,1,37.3333321940105,0|8,2:0|2:0,2:0:0:0:
314,114,226478,1,0,3:0:0:0:
314,114,226583,6,0,P|260:124|212:96,2,111.999996582031,0|8|0,3:0|2:0|3:0,2:0:0:0:
381,47,227530,1,8,2:0:0:0:
442,229,227846,1,0,3:0:0:0:
476,147,228056,1,0,2:0:0:0:
476,147,228162,2,0,P|439:139|404:149,1,74.6666643880209,8|0,2:0|2:0,0:0:0:0:
391,163,228478,1,0,3:0:0:0:
416,316,228688,1,0,3:0:0:0:
416,316,228793,2,0,P|382:298|362:268,1,74.6666643880209,8|0,2:0|2:0,2:0:0:0:
358,250,229109,6,0,B|316:261|316:261|301:281|301:281|259:294,1,111.999996582031,0|8,3:0|2:0,2:0:0:0:
143,366,229635,1,0,2:0:0:0:
143,366,229741,2,0,B|209:358|209:358|231:375|251:372,1,111.999996582031,0|8,3:0|2:0,2:0:0:0:
358,250,230267,1,0,0:0:0:0:
358,249,230372,2,0,P|361:194|330:148,1,111.999996582031,0|8,3:0|2:0,2:0:0:0:
221,173,230899,1,0,0:0:0:0:
221,173,231004,2,0,L|330:148,1,111.999996582031,0|8,3:0|2:0,2:0:0:0:
391,37,231530,1,0,3:0:0:0:
381,47,231635,6,0,P|327:52|294:10,1,111.999996582031,0|8,3:0|2:0,2:0:0:0:
221,173,232162,1,0,0:0:0:0:
221,173,232267,2,0,L|110:153,1,111.999996582031,0|8,3:0|2:0,2:0:0:0:
259,293,232899,2,0,B|399:255|331:355|470:312,1,223.999993164063,0|0,3:0|3:0,2:0:0:0:
440,139,233741,1,0,3:0:0:0:
440,139,233846,2,0,L|417:232,1,95.9999970703126,8|0,2:0|3:0,2:0:0:0:
355,83,234162,6,0,P|430:97|481:40,1,160,6|10,3:2|2:0,2:0:0:0:
286,1,234688,1,2,3:2:0:0:
278,31,234793,1,2,2:0:0:0:
117,133,235004,1,0,3:0:0:0:
109,103,235109,2,0,B|145:93|145:93|177:103|177:103|211:94,1,106.666666666667,10|2,2:0|3:2,2:0:0:0:
278,31,235425,5,2,2:0:0:0:
308,208,235635,1,0,3:0:0:0:
319,172,235741,2,0,P|266:170|219:195,1,106.666666666667,10|2,2:0|3:2,2:0:0:0:
172,265,236056,2,0,L|67:243,1,106.666666666667,2|0,2:0|3:0,2:0:0:0:
47,240,236372,1,10,2:0:0:0:
223,338,236583,1,2,3:2:0:0:
223,338,236688,6,0,B|315:313|278:382|375:356,1,160,2|10,2:0|2:0,2:0:0:0:
470,242,237214,1,2,3:2:0:0:
462,283,237320,1,2,2:0:0:0:
305,215,237530,1,0,3:0:0:0:
297,174,237635,2,0,P|349:178|393:150,1,106.666666666667,10|2,2:0|3:2,2:0:0:0:
248,88,237951,6,0,L|221:246,1,160,2|10,2:0|2:0,2:0:0:0:
142,324,238478,1,2,3:2:0:0:
142,324,238583,2,0,P|103:288|51:289,1,106.666666666667,10|0,2:0|3:0,2:0:0:0:
18,308,238899,1,10,2:0:0:0:
231,377,239109,1,2,3:2:0:0:
231,377,239214,6,0,L|357:357,1,128,6|0,3:2|0:0,2:0:0:0:
429,238,239741,1,0,3:0:0:0:
440,265,239846,1,8,2:0:0:0:
297,174,240056,1,0,0:0:0:0:
308,147,240162,6,0,B|429:171|375:82|508:106,1,213.333333333333,0|0,3:0|3:0,2:0:0:0:
507,105,240793,1,8,2:0:0:0:
333,288,241004,1,0,2:0:0:0:
332,287,241109,2,0,P|294:236|296:173,1,128,0|8,3:0|2:0,2:0:0:0:
244,40,241635,1,0,2:0:0:0:
244,40,241741,6,0,B|186:93|186:93|53:69,1,213.333333333333,0|0,3:0|3:0,2:0:0:0:
53,69,242372,1,8,2:0:0:0:
183,207,242583,1,0,0:0:0:0:
183,206,242688,2,0,P|234:169|296:173,1,128,0|0,3:0|0:0,2:0:0:0:
416,300,243214,1,0,3:0:0:0:
416,300,243320,2,0,L|332:287,1,85.3333333333333,8|0,2:0|2:0,0:0:0:0:
226,332,243635,5,8,2:3:0:0:
252,309,243741,1,8,2:3:0:0:
287,303,243846,1,4,2:3:0:0:
320,316,243951,1,8,2:3:0:0:
354,328,244056,1,8,2:3:0:0:
389,323,244162,1,4,2:3:0:0:
416,299,244267,6,0,P|437:225|400:156,1,160,12|10,2:0|2:0,2:0:0:0:
340,42,244793,2,0,L|391:27,1,53.3333333333333,2|2,3:2|2:0,0:0:0:0:
316,140,245109,1,0,3:0:0:0:
316,140,245214,1,14,2:0:0:0:
244,40,245425,6,0,B|189:29|189:29|148:50|148:50|91:37,1,160,0|0,3:0|3:0,2:0:0:0:
57,30,245846,1,8,2:0:0:0:
195,154,246056,1,8,2:0:0:0:
200,123,246162,1,8,2:3:0:0:
67,288,246372,1,4,2:3:0:0:
72,319,246478,1,8,2:3:0:0:
227,251,246688,1,4,2:3:0:0:
227,251,246793,6,0,B|165:259|183:222|125:229,1,106.666666666667,12|0,2:0|0:0,2:0:0:0:
67,288,247109,1,0,2:0:0:0:
200,348,247320,1,8,2:0:0:0:
200,348,247425,1,0,3:0:0:0:
321,147,247635,1,0,3:0:0:0:
321,147,247741,6,0,B|424:123|424:123|470:150,1,160,10|0,2:1|3:0,2:0:0:0:
436,313,248267,1,0,3:0:0:0:
435,312,248372,2,0,P|408:266|413:214,1,106.666666666667,8|0,2:0|3:0,2:0:0:0:
470,150,248688,1,8,2:0:0:0:
422,171,248793,1,0,2:0:0:0:
371,158,248899,1,0,3:0:0:0:
340,116,249004,1,8,2:0:0:0:
308,74,249109,1,8,2:0:0:0:
258,60,249214,1,8,2:0:0:0:
210,82,249320,5,4,2:0:0:0:
210,82,250478,1,2,3:2:0:0:
209,82,250583,6,0,P|150:152|59:142,1,191.999994140625,6|10,2:0|2:0,2:0:0:0:
130,345,251109,1,10,3:2:0:0:
141,307,251214,1,10,2:0:0:0:
287,212,251425,1,0,3:0:0:0:
276,174,251530,2,0,B|235:212|235:212|163:203,1,127.99999609375,10|2,2:0|3:2,2:0:0:0:
96,105,251846,6,0,P|155:87|210:117,1,127.99999609375,2|0,2:0|3:0,2:0:0:0:
276,174,252162,2,0,L|401:150,1,127.99999609375,10|2,2:0|3:2,2:0:0:0:
485,185,252478,1,2,2:0:0:0:
414,0,252688,1,0,3:0:0:0:
403,59,252793,1,10,2:0:0:0:
298,271,253004,1,2,3:2:0:0:
287,212,253109,5,2,2:0:0:0:
484,339,253320,1,0,3:0:0:0:
483,338,253425,2,0,P|432:301|370:311,1,127.99999609375,10|10,2:0|3:2,2:0:0:0:
337,351,253741,5,10,2:0:0:0:
265,143,253951,1,0,3:0:0:0:
265,143,254056,2,0,B|300:124|300:124|286:211,1,127.99999609375,10|2,2:0|3:2,2:0:0:0:
200,348,254372,6,0,B|92:368|127:286|21:307,1,191.999994140625,6|10,2:0|2:0,2:0:0:0:
162,200,254899,1,2,3:2:0:0:
171,257,255004,1,2,2:0:0:0:
63,133,255214,1,0,0:0:0:0:
72,76,255320,2,0,P|131:95|188:69,1,127.99999609375,10|2,2:0|3:2,0:0:0:0:
217,22,255635,5,6,2:0:0:0:
363,113,255846,1,0,3:0:0:0:
380,41,255951,1,10,2:0:0:0:
247,211,256162,1,10,3:2:0:0:
233,154,256267,1,10,2:0:0:0:
445,320,256478,1,0,3:0:0:0:
456,267,256583,6,0,P|394:264|346:304,1,127.99999609375,10|2,2:0|3:2,2:0:0:0:
169,301,256899,6,0,B|242:286|242:286|281:319|281:319|345:303,1,191.999994140625,6|10,2:0|2:0,2:0:0:0:
313,173,257425,1,2,3:2:0:0:
304,222,257530,1,2,2:0:0:0:
72,36,257741,1,0,3:0:0:0:
81,85,257846,1,10,2:0:0:0:
202,120,258056,1,2,3:2:0:0:
197,135,258162,6,0,B|122:131|147:173|77:168,1,127.99999609375,6|0,2:0|3:0,2:0:0:0:
77,168,258478,1,10,2:0:0:0:
285,69,258688,1,10,3:0:0:0:
275,18,258793,1,14,2:3:0:0:
355,252,259004,1,0,3:0:0:0:
345,303,259109,1,10,2:0:0:0:
484,127,259320,1,2,3:2:0:0:
484,127,259425,6,0,B|375:98|409:185|303:157,1,191.999994140625,6|10,3:2|2:0,2:0:0:0:
210,289,259951,1,2,3:2:0:0:
230,273,260056,2,0,P|292:266|344:302,1,127.99999609375,2|0,2:0|3:0,2:0:0:0:
272,356,260372,1,10,2:0:0:0:
145,152,260583,1,2,3:2:0:0:
171,189,260688,6,0,L|143:379,1,191.999994140625,2|10,2:0|2:0,2:0:0:0:
12,294,261214,1,10,3:2:0:0:
31,308,261320,2,0,P|69:258|65:195,1,127.99999609375,10|0,2:0|3:0,2:0:0:0:
19,125,261635,2,0,L|144:151,1,127.99999609375,10|2,2:0|3:2,2:0:0:0:
190,65,261951,6,0,B|120:76|120:76|90:115|90:115|18:124,1,191.999994140625,6|10,2:0|2:0,2:0:0:0:
230,273,262478,1,2,3:2:0:0:
240,228,262583,1,2,2:0:0:0:
238,4,262793,1,0,3:0:0:0:
238,3,262899,2,0,P|300:-5|351:30,1,127.99999609375,10|2,2:0|3:2,2:0:0:0:
360,105,263214,6,0,P|266:117|189:64,1,191.999994140625,2|10,2:0|2:0,2:0:0:0:
367,198,263741,1,10,3:2:0:0:
406,186,263846,1,10,2:0:0:0:
315,355,264056,1,0,3:0:0:0:
276,343,264162,2,0,B|286:298|286:298|270:264|270:264|279:220,1,127.99999609375,10|2,2:0|3:2,2:0:0:0:
216,131,264478,6,0,P|156:201|64:194,1,191.999994140625,6|10,3:2|2:0,2:0:0:0:
145,15,265004,1,2,3:2:0:0:
145,15,265109,2,0,L|330:67,1,191.999994140625,2|10,2:0|2:0,0:0:0:0:
420,217,265635,1,2,3:2:0:0:
420,217,265741,6,0,P|450:161|445:99,1,127.99999609375,6|0,2:0|3:0,2:0:0:0:
348,160,266056,2,0,L|375:285,1,127.99999609375,10|10,2:0|3:2,2:0:0:0:
391,364,266372,1,10,2:0:0:0:
220,358,266583,1,0,3:0:0:0:
220,358,266688,2,0,B|307:338|307:338|280:366,1,127.99999609375,10|2,2:0|3:2,2:0:0:0:
220,358,267004,6,0,B|192:257|272:277|246:175,1,191.999994140625,6|10,2:0|2:0,2:0:0:0:
175,57,267530,1,10,3:0:0:0:
184,23,267635,1,10,2:3:0:0:
47,131,267846,1,0,3:0:0:0:
56,165,267951,2,0,P|104:205|166:210,1,127.99999609375,10|0,2:0|3:0,2:0:0:0:
246,175,268267,5,6,3:2:0:0:
184,23,268478,1,0,3:0:0:0:
175,57,268583,1,10,2:0:0:0:
246,175,268793,1,10,3:0:0:0:
237,141,268899,5,10,2:3:0:0:
277,128,269004,1,0,2:0:0:0:
318,137,269109,1,0,3:0:0:0:
348,167,269214,1,2,2:0:0:0:
378,196,269320,1,0,2:0:0:0:
419,206,269425,1,0,3:0:0:0:
459,192,269530,6,0,P|497:110|438:41,1,191.999994140625,4|10,2:0|2:0,2:0:0:0:
378,196,270056,1,2,3:2:0:0:
378,196,270162,2,0,L|404:321,1,127.99999609375,2|0,2:0|3:0,0:0:0:0:
413,361,270478,1,10,2:0:0:0:
189,256,270688,6,0,B|296:234|258:315|370:281,1,191.999994140625,2|0,3:2|3:0,0:0:0:0:
370,281,271109,1,10,2:0:0:0:
234,375,271320,1,10,3:2:0:0:
223,338,271425,1,10,2:0:0:0:
112,214,271635,1,0,3:0:0:0:
101,251,271741,1,10,2:0:0:0:
182,146,271951,1,2,3:2:0:0:
181,146,272056,6,0,P|119:155|66:122,1,127.99999609375,2|0,2:0|3:0,2:0:0:0:
183,120,272372,2,0,P|235:86|297:96,1,127.99999609375,10|2,2:0|3:2,2:0:0:0:
413,145,272688,2,0,P|351:155|299:122,1,127.99999609375,2|0,2:0|3:0,2:0:0:0:
414,121,273004,1,10,2:0:0:0:
467,293,273214,6,0,B|356:316|391:233|287:253,1,191.999994140625,2|0,3:2|3:0,0:0:0:0:
282,282,273635,1,10,2:0:0:0:
127,372,273846,1,10,3:2:0:0:
100,366,273951,2,0,P|68:311|75:248,1,127.99999609375,10|0,2:0|3:0,2:0:0:0:
180,220,274267,2,0,P|211:274|204:337,1,127.99999609375,10|2,2:0|3:2,2:0:0:0:
263,102,274583,6,0,P|206:174|115:166,1,191.999994140625,6|10,2:0|2:0,2:0:0:0:
212,32,275109,1,2,3:2:0:0:
212,32,275214,2,0,L|337:55,1,127.99999609375,2|0,2:0|3:0,2:0:0:0:
374,64,275530,1,10,2:0:0:0:
474,221,275846,6,0,B|423:186|423:186|358:204,1,127.99999609375,6|0,2:0|3:0,2:0:0:0:
310,271,276162,2,0,L|184:291,1,127.99999609375,10|10,2:0|3:2,2:0:0:0:
39,257,276478,2,0,B|86:221|86:221|166:244|166:244|183:290,1,191.999994140625,10|10,2:0|2:0,2:0:0:0:
209,60,277004,1,2,3:2:0:0:
182,99,277109,6,0,P|122:118|66:92,1,127.99999609375,6|0,2:0|0:0,2:0:0:0:
47,18,277425,1,10,2:0:0:0:
271,127,277635,1,2,3:2:0:0:
309,113,277741,1,2,2:0:0:0:
455,279,277951,1,0,3:0:0:0:
417,265,278056,2,0,P|400:204|428:143,1,127.99999609375,10|2,2:0|3:2,2:0:0:0:
506,107,278372,5,6,2:0:0:0:
309,113,278583,1,0,3:0:0:0:
309,113,278688,2,0,L|182:99,1,127.99999609375,10|10,2:0|3:0,2:0:0:0:
116,54,279004,1,14,2:3:0:0:
150,214,279214,1,0,3:0:0:0:
149,214,279320,2,0,P|89:230|37:196,1,127.99999609375,10|2,2:0|3:2,2:0:0:0:
217,123,279635,6,0,B|201:194|201:194|224:245|224:245|210:306,1,191.999994140625,6|10,3:2|2:0,2:0:0:0:
294,182,280162,1,2,3:2:0:0:
324,170,280267,1,2,2:0:0:0:
486,227,280478,1,0,3:0:0:0:
480,262,280583,2,0,P|417:268|361:238,1,127.99999609375,10|2,2:0|3:2,2:0:0:0:
323,169,280899,6,0,P|351:80|435:36,1,191.999994140625,2|10,2:0|2:0,2:0:0:0:
487,229,281425,1,10,3:2:0:0:
480,262,281530,1,10,2:0:0:0:
311,308,281741,1,0,3:0:0:0:
317,340,281846,2,0,P|271:297|210:306,1,127.99999609375,10|2,2:0|3:2,2:0:0:0:
1,285,282162,6,0,P|93:287|148:213,1,191.999994140625,6|10,2:0|2:0,2:0:0:0:
95,30,282688,1,2,3:2:0:0:
82,76,282793,1,2,2:0:0:0:
161,167,283004,1,0,3:0:0:0:
148,212,283109,2,0,P|189:166|251:165,1,127.99999609375,10|2,2:0|3:2,0:0:0:0:
315,222,283425,6,0,P|407:222|462:148,1,191.999994140625,2|10,2:0|2:0,2:0:0:0:
383,18,283951,1,10,3:2:0:0:
399,81,284056,1,10,2:0:0:0:
251,165,284267,1,0,3:0:0:0:
267,102,284372,1,10,2:0:0:0:
173,41,284583,1,2,3:2:0:0:
173,41,284688,6,0,B|121:-7|52:25|52:25|54:60|81:75,1,191.999994140625,6|10,3:2|2:0,2:0:0:0:
66,216,285320,1,2,2:0:0:0:
144,136,285530,1,0,2:0:0:0:
144,136,285635,2,0,P|175:190|169:253,1,127.99999609375,10|2,2:0|3:2,2:0:0:0:
66,216,285951,5,8,2:0:0:0:
57,157,286057,1,8,2:0:0:0:
85,103,286162,1,8,2:0:0:0:
142,76,286267,1,8,2:0:0:0:
203,89,286373,1,8,2:0:0:0:
243,136,286478,1,8,2:0:0:0:
246,198,286583,1,8,2:3:0:0:
217,254,286688,1,8,2:3:0:0:
232,313,286794,1,8,2:3:0:0:
275,345,286899,1,4,2:3:0:0:
314,348,287004,1,4,2:3:0:0:
345,337,287109,1,4,2:3:0:0:
362,320,287214,5,4,2:0:0:0:
217,254,287530,1,2,2:0:0:0:
362,320,287846,1,2,2:0:0:0:
217,254,288162,1,2,2:0:0:0:
414,34,288478,5,8,2:3:0:0:
364,112,288688,2,0,P|440:124|497:72,2,160,8|8|8,2:3|2:3|2:3,2:0:0:0:
364,112,289425,1,4,2:3:0:0:
235,16,289741,6,0,B|175:30|175:30|157:65|157:65|100:81,1,160,4|10,2:0|2:0,2:0:0:0:
22,157,290267,1,2,3:2:0:0:
22,157,290372,1,2,2:0:0:0:
97,232,290583,1,0,3:0:0:0:
97,232,290688,2,0,P|113:282|105:334,1,106.666666666667,10|2,2:0|3:2,2:0:0:0:
177,370,291004,5,2,2:0:0:0:
303,260,291214,1,0,3:0:0:0:
303,259,291320,2,0,P|355:254|401:279,1,106.666666666667,10|2,2:0|3:2,2:0:0:0:
283,358,291635,2,0,P|277:305|302:259,1,106.666666666667,2|0,2:0|3:0,2:0:0:0:
401,279,291951,2,0,P|452:271|490:234,1,106.666666666667,10|2,2:0|3:2,2:0:0:0:
490,233,292267,6,0,L|462:77,1,160,2|10,2:0|2:0,2:0:0:0:
331,120,292793,1,2,3:2:0:0:
364,112,292899,1,2,2:0:0:0:
257,53,293109,1,0,3:0:0:0:
224,45,293214,1,10,2:0:0:0:
41,160,293425,1,2,3:2:0:0:
41,160,293530,6,0,P|77:196|127:186,1,106.666666666667,2|0,2:0|3:0,2:0:0:0:
178,121,293846,2,0,L|282:141,1,106.666666666667,10|2,2:0|3:2,2:0:0:0:
364,112,294162,1,2,2:0:0:0:
468,275,294372,1,0,3:0:0:0:
468,274,294478,2,0,P|496:229|489:177,1,106.666666666667,10|2,2:0|3:2,2:0:0:0:
489,309,294793,6,0,B|399:289|424:354|336:335,1,160,6|10,2:0|2:0,2:0:0:0:
236,178,295320,1,2,3:2:0:0:
236,179,295425,2,0,P|243:232|250:285,1,106.666666666667,2|0,2:0|3:0,2:0:0:0:
169,300,295741,2,0,P|161:248|154:195,1,106.666666666667,10|2,2:0|3:2,2:0:0:0:
218,382,296056,6,0,P|154:336|78:351,1,160,2|10,2:0|2:0,2:0:0:0:
26,225,296583,1,2,3:2:0:0:
20,257,296688,1,2,2:0:0:0:
173,116,296899,1,0,3:0:0:0:
166,84,297004,2,0,P|121:110|70:100,1,106.666666666667,10|2,2:0|3:2,2:0:0:0:
180,50,297320,6,0,B|277:32|235:93|332:71,1,160,2|10,2:0|2:0,2:0:0:0:
429,201,297846,1,2,3:2:0:0:
429,201,297951,2,0,L|444:95,1,106.666666666667,2|0,2:0|3:0,2:0:0:0:
449,65,298267,1,10,2:0:0:0:
251,211,298478,1,2,3:2:0:0:
274,207,298583,6,0,B|333:195|333:195|371:211|371:211|428:201,1,160,2|10,2:0|2:0,2:0:0:0:
397,384,299109,1,10,3:0:0:0:
385,361,299214,2,0,P|342:330|291:340,1,106.666666666667,6|0,2:3|3:0,2:0:0:0:
175,303,299530,2,0,L|226:288,1,53.3333333333333,10|0,2:0|2:0,0:0:0:0:
85,249,299741,1,2,3:2:0:0:
86,250,299846,6,0,P|142:304|128:380,1,160,6|10,3:2|2:0,2:0:0:0:
233,257,300372,1,2,3:2:0:0:
226,287,300478,1,2,2:0:0:0:
174,152,300688,1,0,3:0:0:0:
167,121,300793,2,0,P|114:126|69:99,1,106.666666666667,10|2,2:0|3:2,2:0:0:0:
174,152,301109,2,0,B|265:131|236:191|328:168,1,160,2|10,2:0|2:0,2:0:0:0:
468,127,301635,1,2,3:2:0:0:
468,127,301741,2,0,P|427:95|375:100,1,106.666666666667,2|0,2:0|3:0,2:0:0:0:
327,168,302056,2,0,L|353:271,1,106.666666666667,10|2,2:0|3:2,2:0:0:0:
426,373,302372,6,0,P|369:320|292:329,1,160,2|10,2:0|2:0,2:0:0:0:
198,242,302899,1,2,3:2:0:0:
233,257,303004,1,2,2:0:0:0:
191,368,303214,1,0,3:0:0:0:
155,382,303320,2,0,P|122:343|125:291,1,106.666666666667,10|2,2:0|3:2,2:0:0:0:
198,242,303635,6,0,P|124:259|69:205,1,160,2|10,2:0|2:0,2:0:0:0:
173,133,304162,1,2,3:2:0:0:
173,133,304267,2,0,L|275:163,1,106.666666666667,2|0,2:0|3:0,2:0:0:0:
285,65,304583,2,0,P|262:112|274:162,1,106.666666666667,10|2,2:0|3:2,2:0:0:0:
350,207,304899,6,0,P|418:171|430:94,1,160,6|10,3:2|2:0,2:0:0:0:
474,255,305425,1,2,3:2:0:0:
474,255,305530,2,0,P|425:196|349:206,1,160,2|10,2:0|2:0,2:0:0:0:
245,292,306056,1,2,3:2:0:0:
245,292,306162,6,0,B|302:275|302:275|343:289|343:289|396:270,1,160,2|10,2:0|2:0,2:0:0:0:
296,143,306688,1,2,3:2:0:0:
274,162,306793,2,0,P|221:168|176:141,1,106.666666666667,2|0,2:0|3:0,2:0:0:0:
198,38,307109,2,0,P|250:31|295:58,1,106.666666666667,10|2,2:0|3:2,2:0:0:0:
274,162,307425,6,0,B|210:151|210:151|170:167|170:167|120:156,1,160,2|10,2:0|2:0,2:0:0:0:
234,276,307951,1,10,3:0:0:0:
223,236,308056,1,10,2:3:0:0:
380,142,308267,1,0,3:0:0:0:
391,182,308372,1,10,2:0:0:0:
390,181,308688,6,0,P|335:149|273:161,1,128,4|0,2:0|2:0,2:0:0:0:
195,264,309846,1,0,2:0:0:0:
234,276,309951,1,0,3:0:0:0:
167,60,310162,6,0,P|125:93|73:97,1,106.666666666667,8|0,2:0|2:0,2:0:0:0:
83,182,310478,1,8,2:3:0:0:
100,205,310583,2,0,L|91:257,1,53.3333333333333,8|0,2:3|2:0,2:0:0:0:
226,351,310793,1,8,2:0:0:0:
243,328,310898,2,0,L|234:276,1,53.3333333333333,8|0,2:0|2:0,2:0:0:0:
309,142,311109,5,8,2:3:0:0:
309,142,311214,1,8,2:3:0:0:
167,60,311530,1,2,2:1:0:0:
233,275,311741,5,4,2:0:0:0:
256,192,311846,12,0,316267,2:0:0:0:
