osu file format v14

[General]
AudioFilename: audio.mp3
AudioLeadIn: 0
PreviewTime: 162793
Countdown: 0
SampleSet: Soft
StackLeniency: 0.7
Mode: 0
LetterboxInBreaks: 0
WidescreenStoryboard: 0

[Editor]
Bookmarks: 311741,314004,316267
DistanceSpacing: 1
BeatDivisor: 3
GridSize: 32
TimelineZoom: 1.26

[Metadata]
Title:Koi, Hitokuchi.
TitleUnicode:恋、ひとくち。
Artist:Yuizuki Sora
ArtistUnicode:結月そら
Creator:Shizuku-
Version:Hard
Source:恋ニ、甘味ヲソエテ
Tags:galgame 宮坂なこ 宮坂みゆ Koi ni Kanmi o Soete Love's Sweet Garnish canvas+garden eroge japanese video game
BeatmapID:2260961
BeatmapSetID:1045588

[Difficulty]
HPDrainRate:5
CircleSize:3.5
OverallDifficulty:6
ApproachRate:8
SliderMultiplier:1.44
SliderTickRate:1

[Events]
//Background and Video events
0,0,"ve_rr03_f.jpg",0,0
//Break Periods
2,224056,232149
//Storyboard Layer 0 (Background)
//Storyboard Layer 1 (Fail)
//Storyboard Layer 2 (Pass)
//Storyboard Layer 3 (Foreground)
//Storyboard Layer 4 (Overlay)
//Storyboard Sound Samples

[TimingPoints]
478,315.789473684211,4,2,1,40,1,0
1741,-100,4,2,1,60,0,0
6793,-100,4,2,6,60,0,0
11109,-100,4,2,1,60,0,0
16898,-100,4,2,6,60,0,0
19951,-100,4,2,2,60,0,0
20056,-100,4,2,1,60,0,0
20688,-125,4,2,2,60,0,0
21951,-111.111111111111,4,2,3,50,0,0
31424,-100,4,2,4,50,0,0
31740,-111.111111111111,4,2,3,50,0,0
40898,-100,4,2,2,60,0,0
41109,-100,4,2,1,60,0,0
41530,-100,4,2,2,60,0,0
41741,-100,4,2,1,60,0,0
41846,-100,4,2,1,60,0,0
42162,-100,4,2,1,60,0,0
46898,-100,4,2,5,60,0,0
47108,-100,4,2,6,60,0,0
51004,-100,4,2,1,60,0,0
51319,-100,4,2,2,60,0,0
51529,-100,4,2,1,60,0,0
51951,-100,4,2,3,60,0,0
52056,-100,4,2,1,60,0,0
57319,-100,4,2,6,60,0,0
62898,-100,4,2,6,60,0,0
63635,-100,4,2,6,60,0,0
63846,-100,4,2,6,60,0,0
64267,-100,4,2,2,60,0,0
64372,-100,4,2,1,60,0,0
64583,-100,4,2,2,60,0,0
64688,-100,4,2,1,60,0,0
64898,-100,4,2,6,60,0,0
65214,-100,4,2,6,60,0,0
65530,-100,4,2,6,60,0,0
66477,-100,4,2,6,60,0,0
67425,-100,4,2,3,70,0,1
67635,-100,4,2,1,70,0,1
69004,-100,4,2,7,70,0,1
69214,-100,4,2,8,70,0,1
69635,-100,4,2,1,70,0,1
71530,-100,4,2,7,70,0,1
71741,-100,4,2,8,70,0,1
72162,-100,4,2,6,70,0,1
73109,-100,4,2,6,70,0,1
73741,-100,4,2,5,70,0,1
73951,-100,4,2,1,70,0,1
74056,-100,4,2,7,70,0,1
74266,-100,4,2,8,70,0,1
74372,-100,4,2,8,70,0,1
74688,-100,4,2,6,70,0,1
75004,-100,4,2,6,70,0,1
76267,-100,4,2,6,70,0,1
76583,-100,4,2,7,70,0,1
76793,-100,4,2,4,70,0,1
76898,-100,4,2,5,70,0,1
77108,-100,4,2,1,70,0,1
77214,-100,4,2,1,70,0,1
77530,-100,4,2,1,70,0,1
78162,-100,4,2,1,70,0,1
78793,-100,4,2,1,70,0,1
79108,-100,4,2,7,70,0,1
79319,-100,4,2,8,70,0,1
79425,-100,4,2,8,70,0,1
79741,-100,4,2,1,70,0,1
80056,-100,4,2,5,70,0,1
80266,-100,4,2,1,70,0,1
81634,-100,4,2,7,70,0,1
81846,-100,4,2,8,70,0,1
82267,-100,4,2,6,70,0,1
83846,-100,4,2,5,70,0,1
84056,-100,4,2,1,70,0,1
84162,-100,4,2,7,70,0,1
84372,-100,4,2,8,70,0,1
84477,-100,4,2,8,70,0,1
84793,-100,4,2,6,70,0,1
85109,-100,4,2,6,70,0,1
85636,-100,4,2,2,70,0,1
85741,-100,4,2,2,70,0,1
85951,-100,4,2,1,70,0,1
86372,-100,4,2,2,70,0,1
86688,-100,4,2,8,70,0,1
86898,-100,4,2,6,70,0,1
87004,-100,4,2,4,70,0,1
87319,-100,4,2,1,70,0,1
87635,-100,4,2,3,70,0,1
87845,-100,4,2,1,70,0,1
89214,-100,4,2,7,70,0,1
89424,-100,4,2,8,70,0,1
89846,-100,4,2,1,70,0,1
91741,-100,4,2,7,70,0,1
91951,-100,4,2,8,70,0,1
92372,-100,4,2,6,70,0,1
93319,-100,4,2,6,70,0,1
93951,-100,4,2,5,70,0,1
94161,-100,4,2,1,70,0,1
94267,-100,4,2,7,70,0,1
94477,-100,4,2,8,70,0,1
94583,-100,4,2,8,70,0,1
94898,-100,4,2,6,70,0,1
95214,-100,4,2,6,70,0,1
96477,-100,4,2,6,70,0,1
96793,-100,4,2,7,70,0,1
97003,-100,4,2,4,70,0,1
97109,-100,4,2,5,70,0,1
97319,-100,4,2,1,70,0,1
97425,-100,4,2,1,70,0,1
97741,-100,4,2,1,70,0,1
98371,-100,4,2,1,70,0,1
99319,-100,4,2,7,70,0,1
99530,-100,4,2,8,70,0,1
99951,-100,4,2,1,70,0,1
100267,-100,4,2,5,70,0,1
100793,-100,4,2,1,70,0,1
101845,-100,4,2,7,70,0,1
102056,-100,4,2,8,70,0,1
102477,-100,4,2,6,70,0,1
104372,-100,4,2,8,70,0,1
104688,-100,4,2,1,70,0,1
105320,-125,4,2,2,60,0,0
106267,-125,4,2,3,60,0,0
106583,-100,4,2,2,60,0,0
107108,-100,4,2,1,60,0,0
107846,-100,4,2,1,60,0,0
112898,-100,4,2,6,60,0,0
115951,-100,4,2,2,60,0,0
116056,-100,4,2,1,60,0,0
116688,-125,4,2,2,60,0,0
117951,-111.111111111111,4,2,3,50,0,0
127425,-100,4,2,9,50,0,0
127741,-100,4,2,3,50,0,0
128056,-111.111111111111,4,2,3,50,0,0
136898,-100,4,2,2,60,0,0
137109,-100,4,2,1,60,0,0
137530,-100,4,2,2,60,0,0
137741,-100,4,2,1,60,0,0
137846,-100,4,2,1,60,0,0
138162,-100,4,2,1,60,0,0
142898,-100,4,2,5,60,0,0
143108,-100,4,2,6,60,0,0
147004,-100,4,2,1,60,0,0
147319,-100,4,2,2,60,0,0
147529,-100,4,2,1,60,0,0
147951,-100,4,2,3,60,0,0
148056,-100,4,2,1,60,0,0
155846,-100,4,2,6,60,0,0
158898,-100,4,2,6,60,0,0
159635,-100,4,2,6,60,0,0
159846,-100,4,2,6,60,0,0
160267,-100,4,2,2,60,0,0
160372,-100,4,2,1,60,0,0
160583,-100,4,2,2,60,0,0
160688,-100,4,2,1,60,0,0
160898,-100,4,2,6,60,0,0
161214,-100,4,2,6,60,0,0
161530,-100,4,2,6,60,0,0
162477,-100,4,2,6,60,0,0
163425,-100,4,2,3,70,0,1
163635,-100,4,2,1,70,0,1
165004,-100,4,2,7,70,0,1
165214,-100,4,2,8,70,0,1
165635,-100,4,2,1,70,0,1
167530,-100,4,2,7,70,0,1
167741,-100,4,2,8,70,0,1
168162,-100,4,2,6,70,0,1
169109,-100,4,2,6,70,0,1
169741,-100,4,2,5,70,0,1
169951,-100,4,2,1,70,0,1
170056,-100,4,2,7,70,0,1
170266,-100,4,2,8,70,0,1
170372,-100,4,2,8,70,0,1
170688,-100,4,2,6,70,0,1
171004,-100,4,2,6,70,0,1
172267,-100,4,2,6,70,0,1
172583,-100,4,2,7,70,0,1
172793,-100,4,2,4,70,0,1
172898,-100,4,2,5,70,0,1
173108,-100,4,2,1,70,0,1
173214,-100,4,2,1,70,0,1
173530,-100,4,2,1,70,0,1
174162,-100,4,2,1,70,0,1
174793,-100,4,2,1,70,0,1
175108,-100,4,2,7,70,0,1
175319,-100,4,2,8,70,0,1
175425,-100,4,2,8,70,0,1
175741,-100,4,2,1,70,0,1
176056,-100,4,2,5,70,0,1
176266,-100,4,2,1,70,0,1
177634,-100,4,2,7,70,0,1
177846,-100,4,2,8,70,0,1
178267,-100,4,2,6,70,0,1
179846,-100,4,2,5,70,0,1
180056,-100,4,2,1,70,0,1
180162,-100,4,2,7,70,0,1
180372,-100,4,2,8,70,0,1
180477,-100,4,2,8,70,0,1
180793,-100,4,2,6,70,0,1
181109,-100,4,2,6,70,0,1
181636,-100,4,2,2,70,0,1
181741,-100,4,2,2,70,0,1
181951,-100,4,2,1,70,0,1
182372,-100,4,2,2,70,0,1
182688,-100,4,2,8,70,0,1
182898,-100,4,2,6,70,0,1
183004,-100,4,2,4,70,0,1
183319,-100,4,2,1,70,0,1
183635,-100,4,2,3,70,0,1
183845,-100,4,2,1,70,0,1
185214,-100,4,2,7,70,0,1
185424,-100,4,2,8,70,0,1
185846,-100,4,2,1,70,0,1
187741,-100,4,2,7,70,0,1
187951,-100,4,2,8,70,0,1
188372,-100,4,2,6,70,0,1
189319,-100,4,2,6,70,0,1
189951,-100,4,2,5,70,0,1
190161,-100,4,2,1,70,0,1
190267,-100,4,2,7,70,0,1
190477,-100,4,2,8,70,0,1
190583,-100,4,2,8,70,0,1
190898,-100,4,2,6,70,0,1
191214,-100,4,2,6,70,0,1
192477,-100,4,2,6,70,0,1
192793,-100,4,2,7,70,0,1
193003,-100,4,2,4,70,0,1
193109,-100,4,2,5,70,0,1
193319,-100,4,2,1,70,0,1
193425,-100,4,2,1,70,0,1
193741,-100,4,2,1,70,0,1
194372,-100,4,2,1,70,0,1
195319,-100,4,2,7,70,0,1
195530,-100,4,2,8,70,0,1
195951,-100,4,2,1,70,0,1
196267,-100,4,2,5,70,0,1
196793,-100,4,2,1,70,0,1
197845,-100,4,2,7,70,0,1
198056,-100,4,2,8,70,0,1
198477,-100,4,2,6,70,0,1
200372,-100,4,2,8,70,0,1
200688,-100,4,2,1,70,0,1
201320,-125,4,2,2,60,0,0
201635,-125,4,2,8,60,0,0
202583,-100,4,2,2,60,0,0
202793,-100,4,2,1,60,0,0
203846,-100,4,2,6,60,0,0
213214,-100,4,2,1,60,0,0
213635,-100,4,2,3,60,0,0
213845,-100,4,2,1,60,0,0
213951,-100,4,2,6,60,0,0
218688,-100,4,2,5,60,0,0
218899,-100,4,2,6,60,0,0
222792,-100,4,2,1,60,0,0
224056,-142.857142857143,4,2,3,50,0,0
233846,-111.111111111111,4,2,3,50,0,0
234162,-100,4,2,1,60,0,0
239214,-125,4,2,1,60,0,0
243635,-100,4,2,2,60,0,0
243740,-100,4,2,1,60,0,0
243951,-100,4,2,2,60,0,0
244056,-100,4,2,1,60,0,0
244267,-100,4,2,6,70,0,0
246162,-100,4,2,2,70,0,0
246267,-100,4,2,1,70,0,0
246477,-100,4,2,2,70,0,0
246582,-100,4,2,1,70,0,0
246793,-100,4,2,4,70,0,0
247741,-100,4,2,1,70,0,0
249319,-100,4,2,2,70,0,0
250583,-90.9090909090909,4,2,7,70,0,1
250793,-90.9090909090909,4,2,1,70,0,1
250898,-90.9090909090909,4,2,7,70,0,1
251109,-90.9090909090909,4,2,8,70,0,1
251530,-90.9090909090909,4,2,1,70,0,1
253425,-90.9090909090909,4,2,7,70,0,1
253635,-90.9090909090909,4,2,8,70,0,1
254056,-90.9090909090909,4,2,6,70,0,1
255004,-90.9090909090909,4,2,6,70,0,1
255635,-90.9090909090909,4,2,5,70,0,1
255845,-90.9090909090909,4,2,1,70,0,1
255951,-90.9090909090909,4,2,7,70,0,1
256161,-90.9090909090909,4,2,8,70,0,1
256267,-90.9090909090909,4,2,8,70,0,1
256583,-90.9090909090909,4,2,6,70,0,1
256898,-90.9090909090909,4,2,6,70,0,1
258162,-90.9090909090909,4,2,6,70,0,1
258477,-90.9090909090909,4,2,7,70,0,1
258687,-90.9090909090909,4,2,4,70,0,1
258793,-90.9090909090909,4,2,5,70,0,1
259003,-90.9090909090909,4,2,1,70,0,1
259109,-90.9090909090909,4,2,1,70,0,1
259425,-90.9090909090909,4,2,1,70,0,1
260056,-90.9090909090909,4,2,1,70,0,1
261003,-90.9090909090909,4,2,7,70,0,1
261214,-90.9090909090909,4,2,8,70,0,1
261635,-90.9090909090909,4,2,1,70,0,1
261951,-90.9090909090909,4,2,5,70,0,1
262161,-90.9090909090909,4,2,1,70,0,1
263529,-90.9090909090909,4,2,7,70,0,1
263741,-90.9090909090909,4,2,8,70,0,1
264162,-90.9090909090909,4,2,6,70,0,1
265741,-90.9090909090909,4,2,5,70,0,1
265951,-90.9090909090909,4,2,1,70,0,1
266056,-90.9090909090909,4,2,7,70,0,1
266266,-90.9090909090909,4,2,8,70,0,1
266372,-90.9090909090909,4,2,8,70,0,1
266688,-90.9090909090909,4,2,6,70,0,1
267004,-90.9090909090909,4,2,6,70,0,1
267530,-90.9090909090909,4,2,2,70,0,1
267635,-90.9090909090909,4,2,1,70,0,1
268267,-90.9090909090909,4,2,2,70,0,1
268583,-90.9090909090909,4,2,8,70,0,1
268793,-90.9090909090909,4,2,6,70,0,1
268898,-90.9090909090909,4,2,4,70,0,1
269215,-90.9090909090909,4,2,1,70,0,1
269530,-90.9090909090909,4,2,3,70,0,1
269740,-90.9090909090909,4,2,1,70,0,1
271109,-90.9090909090909,4,2,7,70,0,1
271319,-90.9090909090909,4,2,8,70,0,1
271741,-90.9090909090909,4,2,1,70,0,1
273635,-90.9090909090909,4,2,7,70,0,1
273846,-90.9090909090909,4,2,8,70,0,1
274267,-90.9090909090909,4,2,6,70,0,1
275846,-90.9090909090909,4,2,5,70,0,1
276056,-90.9090909090909,4,2,1,70,0,1
276162,-90.9090909090909,4,2,7,70,0,1
276372,-90.9090909090909,4,2,8,70,0,1
276477,-90.9090909090909,4,2,8,70,0,1
276793,-90.9090909090909,4,2,6,70,0,1
277109,-90.9090909090909,4,2,6,70,0,1
278372,-90.9090909090909,4,2,6,70,0,1
278688,-90.9090909090909,4,2,7,70,0,1
278898,-90.9090909090909,4,2,4,70,0,1
279004,-90.9090909090909,4,2,5,70,0,1
279214,-90.9090909090909,4,2,1,70,0,1
279319,-90.9090909090909,4,2,1,70,0,1
279635,-90.9090909090909,4,2,1,70,0,1
280267,-90.9090909090909,4,2,1,70,0,1
281213,-90.9090909090909,4,2,7,70,0,1
281425,-90.9090909090909,4,2,8,70,0,1
281846,-90.9090909090909,4,2,1,70,0,1
282162,-90.9090909090909,4,2,5,70,0,1
282688,-90.9090909090909,4,2,1,70,0,1
283740,-90.9090909090909,4,2,7,70,0,1
283951,-90.9090909090909,4,2,8,70,0,1
284372,-90.9090909090909,4,2,6,70,0,1
286267,-90.9090909090909,4,2,8,70,0,1
286583,-90.9090909090909,4,2,1,70,0,1
287214,-125,4,2,2,70,0,0
287529,-100,4,2,3,60,0,0
288477,-100,4,2,2,60,0,0
289003,-100,4,2,1,60,0,0
289741,-100,4,2,1,60,0,0
294793,-100,4,2,6,60,0,0
299109,-100,4,2,1,60,0,0
304898,-100,4,2,6,60,0,0
307951,-100,4,2,2,60,0,0
308056,-100,4,2,1,60,0,0
308688,-125,4,2,5,60,0,0
309951,-100,4,2,2,60,0,0
310162,-100,4,2,2,60,0,0
310583,-100,4,2,1,60,0,0
310899,-100,4,2,1,60,0,0
311109,-100,4,2,2,60,0,0
311214,-100,4,2,1,60,0,0
311530,-100,4,2,1,60,0,0
311741,-100,4,2,2,60,0,0
316267,-100,4,2,2,5,0,0

[Colours]
Combo1 : 204,187,222
Combo2 : 252,160,171
Combo3 : 255,211,180

[HitObjects]
69,308,478,6,0,P|125:266|195:274,1,144,8|8,2:0|2:0,2:0:0:0:
203,290,899,1,0,3:0:0:0:
212,306,1004,1,0,3:0:0:0:
221,322,1109,6,0,L|269:330,2,48,8|0|0,2:0|3:0|3:0,2:0:0:0:
306,360,1425,2,0,L|354:352,2,48,8|8|8,2:0|2:0|2:0,2:0:0:0:
401,358,1741,6,0,B|412:307|412:307|397:268|397:268|405:218,1,144,4|10,2:0|2:0,2:0:0:0:
369,129,2267,1,2,3:2:0:0:
369,129,2372,2,0,B|280:115|318:168|232:154,1,144,2|10,2:0|2:0,0:0:0:0:
113,73,3004,5,2,2:0:0:0:
152,160,3214,1,0,3:0:0:0:
152,159,3320,2,0,P|144:207|137:254,1,96,10|2,2:0|3:2,2:0:0:0:
150,300,3635,2,0,P|82:314|32:266,1,144,2|10,2:0|2:0,2:0:0:0:
237,351,4162,1,2,3:2:0:0:
237,351,4267,6,0,B|286:342|286:342|316:357|316:357|375:346,1,144,2|10,2:0|2:0,2:0:0:0:
336,258,4793,1,2,3:2:0:0:
336,258,4899,2,0,P|342:210|348:162,1,96,2|0,2:0|3:0,2:0:0:0:
327,119,5214,1,10,2:0:0:0:
344,24,5425,1,2,3:2:0:0:
344,24,5530,6,0,P|386:44|434:42,1,96,2|0,2:0|3:0,2:0:0:0:
481,51,5846,2,0,P|471:98|461:145,1,96,10|2,2:0|3:2,2:0:0:0:
489,184,6162,2,0,P|482:252|419:278,1,144,2|10,2:0|2:0,2:0:0:0:
336,258,6688,1,2,3:2:0:0:
336,258,6793,6,0,B|272:272|272:272|265:283|265:283|201:298,1,144,6|10,2:0|2:0,2:0:0:0:
211,202,7320,1,2,3:2:0:0:
211,202,7425,2,0,P|244:140|229:71,1,144,2|10,2:0|2:0,2:0:0:0:
80,48,7951,1,2,3:2:0:0:
80,48,8056,6,0,P|46:110|61:179,1,144,2|10,2:0|2:0,2:0:0:0:
229,70,8688,2,0,L|323:51,1,96,2|0,2:0|3:0,2:0:0:0:
371,48,9004,2,0,P|388:91|376:137,1,96,10|2,2:0|3:2,2:0:0:0:
345,172,9320,6,0,P|414:162|471:203,1,144,2|10,2:0|2:0,2:0:0:0:
449,297,9846,1,2,3:2:0:0:
449,297,9951,2,0,P|379:307|322:266,1,144,2|10,2:0|2:0,2:0:0:0:
212,360,10583,6,0,L|195:216,1,144,2|10,2:0|2:0,2:0:0:0:
248,136,11109,1,10,3:0:0:0:
248,136,11214,2,0,P|201:147|156:133,1,96,6|0,2:3|3:0,2:0:0:0:
125,95,11530,1,10,2:0:0:0:
35,129,11741,1,2,3:2:0:0:
35,129,11846,6,0,B|69:173|69:173|54:260,1,144,6|10,3:2|2:0,2:0:0:0:
84,351,12372,1,2,3:2:0:0:
84,351,12478,2,0,P|136:304|206:310,1,144,2|10,2:0|2:0,0:0:0:0:
289,358,13004,1,2,3:2:0:0:
289,358,13109,6,0,P|297:310|305:263,1,96,2|0,2:0|3:0,2:0:0:0:
313,215,13425,1,10,2:0:0:0:
233,161,13635,1,2,3:2:0:0:
232,160,13741,2,0,P|224:114|239:69,1,96,2|0,2:0|3:0,2:0:0:0:
275,37,14056,1,10,2:0:0:0:
358,84,14267,1,2,3:2:0:0:
358,84,14372,6,0,B|438:70|438:70|462:90|495:91,1,144,2|10,2:0|2:0,2:0:0:0:
427,159,14899,1,2,3:2:0:0:
427,159,15004,2,0,P|435:230|445:301,1,144,2|10,2:0|2:0,2:0:0:0:
364,354,15530,1,2,3:2:0:0:
363,353,15635,6,0,P|329:321|282:315,1,96,2|0,2:0|3:0,2:0:0:0:
236,330,15951,1,10,2:0:0:0:
254,235,16162,1,2,3:2:0:0:
254,235,16267,2,0,L|271:140,1,96,2|0,2:0|3:0,2:0:0:0:
280,93,16583,1,10,2:0:0:0:
211,26,16793,1,2,3:2:0:0:
210,26,16899,6,0,P|153:67|83:62,1,144,6|10,3:2|2:0,2:0:0:0:
102,157,17425,1,2,3:2:0:0:
102,157,17530,2,0,L|87:251,1,96,2|0,2:0|3:0,2:0:0:0:
79,299,17846,1,10,2:0:0:0:
173,283,18056,1,2,3:2:0:0:
173,283,18162,6,0,B|224:272|224:272|258:291|258:291|309:280,1,144,2|10,2:0|2:0,2:0:0:0:
275,190,18688,1,2,3:2:0:0:
275,190,18793,2,0,P|282:142|293:95,1,96,2|0,2:0|3:0,2:0:0:0:
294,47,19109,2,0,P|337:66|384:62,1,96,10|2,2:0|3:2,2:0:0:0:
431,48,19425,6,0,B|448:136|448:136|421:150|413:176,1,144,2|10,2:0|2:0,2:0:0:0:
437,268,19951,1,10,3:0:0:0:
437,268,20056,1,10,2:3:0:0:
342,248,20267,1,0,3:0:0:0:
342,248,20372,2,0,L|248:271,1,96,10|0,2:0|3:0,0:0:0:0:
208,297,20688,6,0,B|183:240|110:221|59:265|59:265|77:289|106:286,1,230.4,6|0,3:2|2:0,2:0:0:0:
116,24,21951,5,0,3:0:0:0:
60,140,22267,2,0,B|148:123|148:123|222:168|222:168|303:150,1,259.199992089844,10|10,2:0|2:0,2:0:0:0:
365,91,23109,1,2,2:0:0:0:
365,91,23214,1,2,3:2:0:0:
438,198,23530,2,0,P|437:240|415:276,1,86.3999973632813,8|0,2:0|0:0,0:0:0:0:
386,309,23846,2,0,P|335:270|272:273,1,129.599996044922,2|10,2:0|2:0,2:0:0:0:
205,330,24373,1,2,2:0:0:0:
205,330,24478,6,0,L|77:311,2,129.599996044922,2|10|2,3:2|2:0|2:0,2:0:0:0:
223,201,25425,1,10,2:0:0:0:
202,117,25635,1,2,2:0:0:0:
201,117,25741,2,0,P|224:80|262:60,1,86.3999973632813,2|0,3:2|0:0,2:0:0:0:
305,57,26056,1,10,2:0:0:0:
381,98,26267,1,0,0:0:0:0:
381,98,26372,2,0,B|430:90|430:90|454:66|454:66|499:58,1,129.599996044922,2|10,2:0|2:0,2:0:0:0:
494,145,26899,1,2,2:0:0:0:
494,145,27004,6,0,P|467:201|406:213,1,129.599996044922,2|10,3:2|2:0,2:0:0:0:
288,158,27635,2,0,P|275:221|263:285,1,129.599996044922,2|10,2:0|2:0,2:0:0:0:
192,336,28162,1,0,0:0:0:0:
191,335,28267,2,0,P|139:300|76:306,1,129.599996044922,2|10,3:2|2:0,2:0:0:0:
72,176,28899,2,0,P|135:160|197:144,1,129.599996044922,2|10,2:0|2:0,0:0:0:0:
381,98,29425,1,2,2:0:0:0:
380,97,29530,6,0,P|331:54|268:56,1,129.599996044922,2|10,3:2|2:0,2:0:0:0:
197,143,30056,1,2,2:0:0:0:
197,142,30162,2,0,P|212:206|227:269,1,129.599996044922,2|10,2:0|2:0,2:0:0:0:
351,361,30688,1,0,0:0:0:0:
350,361,30793,2,0,P|373:324|373:282,1,86.3999973632813,2|0,3:2|2:0,2:0:0:0:
352,243,31109,1,10,2:0:0:0:
235,225,31425,2,0,B|152:217|192:269|102:262,1,144,2|10,2:0|2:0,0:0:0:0:
46,195,31951,1,0,0:0:0:0:
46,195,32056,6,0,P|110:92|226:126,1,259.199992089844,2|2,3:2|2:0,2:0:0:0:
329,207,33004,1,10,2:0:0:0:
414,198,33214,1,2,2:0:0:0:
414,198,33320,2,0,P|449:145|441:82,1,129.599996044922,2|10,3:2|2:0,2:0:0:0:
365,40,33846,1,0,0:0:0:0:
365,40,33951,2,0,L|238:69,1,129.599996044922,2|10,2:0|2:0,2:0:0:0:
161,29,34478,1,2,2:0:0:0:
161,29,34583,6,0,B|198:75|198:75|181:143,1,129.599996044922,2|10,3:2|2:0,2:0:0:0:
85,231,35214,2,0,B|68:299|68:299|105:345,1,129.599996044922,2|10,2:0|2:0,2:0:0:0:
179,299,35741,1,0,0:0:0:0:
179,299,35846,2,0,P|249:299|297:331,1,129.599996044922,2|10,3:2|2:0,2:0:0:0:
350,263,36372,1,0,0:0:0:0:
350,263,36478,2,0,L|329:135,1,129.599996044922,2|10,2:0|2:0,2:0:0:0:
232,48,37109,6,0,B|388:16|316:133|473:88,1,259.199992089844,2|2,3:2|2:0,2:0:0:0:
504,214,38056,1,10,2:0:0:0:
424,247,38267,1,2,2:0:0:0:
424,247,38372,2,0,L|401:374,1,129.599996044922,2|10,3:2|2:0,2:0:0:0:
322,337,38899,1,0,0:0:0:0:
322,337,39004,2,0,P|263:315|200:326,1,129.599996044922,2|10,2:0|2:0,0:0:0:0:
175,242,39530,1,2,2:0:0:0:
175,242,39635,6,0,L|190:113,1,129.599996044922,2|10,3:2|2:0,2:0:0:0:
104,99,40162,2,0,L|88:227,1,129.599996044922,2|0,2:0|2:0,2:0:0:0:
83,270,40583,1,10,2:0:0:0:
124,345,40793,1,0,0:0:0:0:
124,345,40899,1,8,2:3:0:0:
216,320,41109,6,0,P|291:320|343:362,1,144,8|0,2:3|2:0,2:0:0:0:
386,341,41530,1,8,2:3:0:0:
348,252,41741,1,8,2:3:0:0:
348,252,41846,2,0,L|362:155,1,96,4|0,2:3|2:0,2:0:0:0:
336,115,42162,5,6,3:2:0:0:
206,178,42478,1,10,2:0:0:0:
152,98,42688,1,2,3:2:0:0:
152,98,42793,2,0,L|57:113,1,96,2|0,2:0|3:0,2:0:0:0:
24,148,43109,1,10,2:0:0:0:
73,230,43320,1,2,3:2:0:0:
73,230,43425,6,0,B|127:237|127:237|155:269|155:269|201:276,1,144,2|10,2:0|2:0,2:0:0:0:
284,228,43951,1,2,3:2:0:0:
284,227,44056,2,0,P|287:180|293:132,1,96,2|0,2:0|3:0,0:0:0:0:
277,86,44372,2,0,P|322:101|369:100,1,96,10|2,2:0|3:2,2:0:0:0:
409,73,44688,6,0,P|474:80|477:146,1,144,2|10,2:0|2:0,2:0:0:0:
400,204,45214,1,2,3:2:0:0:
400,204,45320,2,0,L|413:298,1,96,2|0,2:0|3:0,2:0:0:0:
422,346,45635,1,10,2:0:0:0:
327,365,45846,1,2,3:2:0:0:
327,365,45951,6,0,P|294:304|225:300,1,144,2|10,2:0|2:0,0:0:0:0:
212,204,46478,1,2,3:2:0:0:
212,204,46583,2,0,L|232:61,1,144,2|14,2:0|2:0,0:0:0:0:
136,45,47109,1,2,3:2:0:0:
136,45,47214,6,0,L|116:188,1,144,6|10,2:0|2:0,2:0:0:0:
67,271,47741,1,2,3:2:0:0:
67,271,47846,2,0,B|153:254|118:315|202:297,1,144,2|10,2:0|2:0,2:0:0:0:
269,230,48372,1,2,3:2:0:0:
269,230,48478,2,0,L|289:87,1,144,2|10,2:0|2:0,2:0:0:0:
372,39,49004,1,2,3:2:0:0:
372,38,49109,2,0,P|418:31|461:51,1,96,2|0,2:0|3:0,2:0:0:0:
484,93,49425,2,0,L|470:187,1,96,10|2,2:0|3:2,2:0:0:0:
485,232,49741,6,0,P|415:229|362:274,1,144,2|10,2:0|2:0,2:0:0:0:
287,335,50267,1,2,3:2:0:0:
287,335,50372,2,0,L|263:194,1,144,2|10,2:0|2:0,2:0:0:0:
237,50,51004,5,2,2:1:0:0:
157,102,51214,1,8,2:0:0:0:
156,102,51320,2,0,P|110:113|65:99,1,96,8|8,2:3|2:3,2:0:0:0:
33,64,51635,1,4,2:3:0:0:
68,203,51951,1,8,2:3:0:0:
65,222,52056,1,8,2:3:0:0:
62,241,52161,1,4,2:3:0:0:
58,260,52267,6,0,P|72:326|138:337,1,144,6|10,3:2|2:0,2:0:0:0:
209,272,52793,1,0,0:0:0:0:
209,272,52899,2,0,L|221:177,1,96,2|0,2:0|3:0,0:0:0:0:
199,134,53214,1,10,2:0:0:0:
248,51,53425,1,2,3:2:0:0:
248,51,53530,6,0,P|315:68|370:26,1,144,2|10,2:0|2:0,2:0:0:0:
445,86,54056,1,2,3:2:0:0:
445,86,54162,2,0,L|430:180,1,96,2|0,2:0|3:0,2:0:0:0:
384,196,54478,2,0,L|399:290,1,96,10|2,2:0|3:2,2:0:0:0:
368,327,54793,6,0,B|287:317|316:375|234:364,1,144,2|10,2:0|2:0,2:0:0:0:
163,299,55320,1,2,3:2:0:0:
162,298,55425,2,0,P|151:253|169:209,1,96,2|0,2:0|3:0,0:0:0:0:
161,161,55741,2,0,L|255:175,1,96,10|2,2:0|3:2,2:0:0:0:
298,196,56056,6,0,P|340:140|325:71,1,144,2|10,2:0|2:0,2:0:0:0:
193,12,56688,2,0,L|145:20,2,48,10|0|0,2:0|2:0|3:0,2:0:0:0:
104,46,57004,2,0,L|56:37,2,48,10|0|2,2:0|2:0|3:2,0:0:0:0:
24,73,57320,6,0,P|4:140|35:204,1,144,6|10,2:0|2:0,2:0:0:0:
82,288,57846,1,2,3:2:0:0:
82,288,57951,2,0,L|178:272,1,96,2|0,2:0|3:0,0:0:0:0:
176,272,58267,1,10,2:0:0:0:
259,321,58478,1,2,3:2:0:0:
259,320,58583,6,0,P|297:261|290:191,1,144,2|10,2:0|2:0,2:0:0:0:
227,118,59109,1,2,3:2:0:0:
227,117,59214,2,0,L|320:98,1,96,2|0,2:0|3:0,2:0:0:0:
361,72,59530,2,0,P|399:99|418:142,1,96,10|2,2:0|3:2,0:0:0:0:
454,175,59846,6,0,P|406:227|402:297,1,144,6|10,3:2|2:0,2:0:0:0:
328,359,60372,1,2,3:2:0:0:
328,359,60478,2,0,L|232:348,1,96,2|0,2:0|3:0,0:0:0:0:
232,348,60793,1,10,2:0:0:0:
140,375,61004,1,2,3:2:0:0:
140,375,61109,6,0,P|145:304|197:256,1,144,2|10,2:0|2:0,2:0:0:0:
271,195,61635,1,2,3:2:0:0:
271,195,61741,2,0,L|256:100,1,96,2|0,2:0|3:0,2:0:0:0:
248,52,62056,1,10,2:0:0:0:
157,83,62267,1,2,3:2:0:0:
157,83,62372,6,0,P|86:82|34:34,1,144,6|10,3:2|2:0,0:0:0:0:
5,126,62899,1,2,3:2:0:0:
122,208,63214,1,0,3:0:0:0:
122,208,63320,1,14,2:0:0:0:
210,170,63530,6,0,L|351:196,1,144,0|0,3:0|3:0,0:0:0:0:
397,182,63951,2,0,P|417:224|415:272,1,96,0|8,0:0|2:0,0:0:0:0:
390,314,64267,2,0,L|400:361,2,48,8|8|4,2:3|2:3|2:3,2:0:0:0:
344,297,64583,1,8,2:3:0:0:
325,294,64688,1,8,2:3:0:0:
306,291,64793,1,4,2:3:0:0:
287,287,64899,5,12,2:0:0:0:
203,334,65109,1,2,3:2:0:0:
203,334,65214,2,0,P|187:289|198:242,1,96,8|2,2:0|3:2,2:0:0:0:
226,204,65530,2,0,P|157:202|112:148,1,144,8|0,2:0|3:0,2:0:0:0:
106,52,66056,1,10,2:0:0:0:
106,52,66793,6,0,B|155:40|155:40|192:65|192:65|239:53,1,144,0|0,2:0|2:0,2:0:0:0:
365,127,67425,6,0,P|412:75|407:5,1,144,4|10,2:0|2:0,2:0:0:0:
283,161,68056,2,0,P|292:207|303:254,1,96,2|0,2:0|3:0,0:0:0:0:
317,295,68372,1,10,2:0:0:0:
250,364,68583,1,2,3:2:0:0:
250,364,68688,6,0,P|198:319|128:328,1,144,2|10,2:0|2:0,2:0:0:0:
63,256,69214,1,10,3:2:0:0:
63,256,69320,2,0,P|64:208|82:164,1,96,10|0,2:0|3:0,0:0:0:0:
114,128,69635,2,0,P|155:150|203:153,1,96,10|2,2:0|3:2,2:0:0:0:
247,131,69951,6,0,P|287:73|283:3,1,144,2|10,2:0|2:0,2:0:0:0:
374,33,70478,1,2,3:2:0:0:
374,33,70583,2,0,B|419:6|485:16|485:16|468:40,1,144,2|10,2:0|2:0,2:0:0:0:
416,121,71109,6,0,B|390:171|416:213|416:213|444:263|420:303,1,192,2|10,3:2|2:0,0:0:0:0:
337,352,71741,1,10,3:2:0:0:
337,352,71846,1,10,2:0:0:0:
253,305,72056,1,0,3:0:0:0:
253,305,72162,2,0,L|239:209,1,96,10|2,2:0|3:2,2:0:0:0:
267,170,72478,6,0,P|270:99|222:48,1,144,6|10,2:0|2:0,2:0:0:0:
187,138,73004,1,2,3:2:0:0:
187,138,73109,2,0,P|117:150|53:119,1,144,2|10,2:0|2:0,2:0:0:0:
50,263,73741,6,0,L|144:246,1,96,6|0,2:0|3:0,2:0:0:0:
175,283,74056,2,0,L|269:266,1,96,10|10,2:0|3:2,2:0:0:0:
310,293,74372,2,0,P|361:245|362:175,1,144,10|10,2:0|2:0,2:0:0:0:
433,110,74899,1,2,3:2:0:0:
433,110,75004,6,0,P|460:175|462:247,1,144,6|10,2:0|2:0,2:0:0:0:
439,341,75530,1,2,3:2:0:0:
439,341,75635,2,0,L|296:317,1,144,2|10,2:0|2:0,2:0:0:0:
207,354,76162,1,2,3:2:0:0:
207,354,76267,6,0,P|199:306|214:261,1,96,6|0,2:0|3:0,2:0:0:0:
250,229,76583,2,0,P|257:181|242:136,1,96,10|10,2:0|3:0,2:0:0:0:
256,90,76899,2,0,P|191:115|125:88,1,144,14|10,2:3|2:0,2:0:0:0:
38,130,77425,1,2,3:2:0:0:
38,130,77530,6,0,B|18:186|18:186|36:268,1,144,6|10,3:2|2:0,2:0:0:0:
126,235,78056,1,2,3:2:0:0:
126,235,78162,2,0,L|266:265,1,144,2|10,2:0|2:0,2:0:0:0:
331,193,78688,1,2,3:2:0:0:
331,193,78793,6,0,P|364:130|354:60,1,144,2|10,2:0|2:0,2:0:0:0:
259,42,79320,1,10,3:2:0:0:
259,42,79425,2,0,P|225:104|235:174,1,144,10|10,2:0|2:0,2:0:0:0:
266,265,79951,1,2,3:2:0:0:
266,265,80056,6,0,B|367:244|367:244|405:261,1,144,6|10,2:0|2:0,2:0:0:0:
489,214,80583,1,2,3:2:0:0:
489,213,80688,2,0,P|502:168|495:121,1,96,2|0,2:0|3:0,2:0:0:0:
461,87,81004,2,0,L|367:106,1,96,10|2,2:0|3:2,2:0:0:0:
320,85,81320,6,0,B|271:68|271:68|184:99,1,144,2|10,2:0|2:0,2:0:0:0:
116,169,81846,1,10,3:2:0:0:
116,169,81951,2,0,P|157:191|205:192,1,96,10|0,2:0|3:0,2:0:0:0:
249,173,82267,2,0,L|260:268,1,96,10|2,2:0|3:2,2:0:0:0:
264,316,82583,6,0,P|331:330|385:282,1,144,6|10,3:2|2:0,2:0:0:0:
355,192,83109,1,2,3:2:0:0:
355,192,83214,2,0,L|373:50,1,144,2|10,2:0|2:0,0:0:0:0:
463,82,83741,1,2,3:2:0:0:
463,82,83846,6,0,L|451:176,1,96,6|0,2:0|3:0,2:0:0:0:
479,216,84162,2,0,L|467:310,1,96,10|10,2:0|3:2,2:0:0:0:
492,352,84478,2,0,P|420:360|368:313,1,144,10|10,2:0|2:0,2:0:0:0:
325,230,85004,1,2,3:2:0:0:
325,230,85109,6,0,B|271:243|271:243|245:274|245:274|198:285,1,144,6|10,2:0|2:0,2:0:0:0:
109,248,85635,1,10,3:0:0:0:
109,248,85741,1,0,0:0:0:0:
22,289,85951,1,0,3:0:0:0:
22,289,86056,2,0,P|11:242|26:197,1,96,10|0,2:0|3:0,2:0:0:0:
14,150,86372,6,0,P|82:163|137:119,1,144,6|10,3:2|2:0,2:0:0:0:
218,66,86899,1,10,3:0:0:0:
218,65,87004,2,0,P|218:41|211:18,2,48,10|0|0,2:3|2:0|3:0,0:0:0:0:
243,108,87320,1,2,0:0:0:0:
266,108,87425,1,0,0:0:0:0:
290,100,87530,1,0,3:0:0:0:
306,82,87635,6,0,B|348:46|404:57|404:57|386:68|378:86,1,144,4|10,2:0|2:0,2:0:0:0:
455,138,88162,1,2,3:2:0:0:
455,138,88267,2,0,P|431:204|447:274,1,144,2|10,2:0|2:0,0:0:0:0:
397,356,88793,1,2,3:2:0:0:
397,356,88899,6,0,B|348:344|348:344|329:310|329:310|276:296,1,144,2|10,2:0|2:0,2:0:0:0:
187,332,89425,1,10,3:2:0:0:
187,332,89530,2,0,P|182:284|197:239,1,96,10|0,2:0|3:0,0:0:0:0:
237,212,89846,1,10,2:0:0:0:
221,117,90056,1,2,3:2:0:0:
189,84,90162,6,0,P|131:124|61:119,2,144,2|10|2,2:0|2:0|2:0,2:0:0:0:
260,18,91004,1,0,3:0:0:0:
260,18,91109,1,10,2:0:0:0:
306,102,91320,6,0,B|415:126|375:47|486:69,1,192,2|10,3:2|2:0,0:0:0:0:
453,159,91952,1,10,3:2:0:0:
453,159,92057,1,10,2:0:0:0:
473,252,92267,1,0,3:0:0:0:
473,252,92373,2,0,L|377:238,1,96,10|2,2:0|3:2,2:0:0:0:
335,260,92689,6,0,P|288:208|219:218,1,144,6|10,2:0|2:0,2:0:0:0:
161,294,93215,1,2,3:2:0:0:
161,294,93320,2,0,P|91:306|27:275,1,144,2|10,2:0|2:0,2:0:0:0:
63,135,93952,6,0,L|46:41,1,96,6|0,2:0|3:0,2:0:0:0:
87,16,94267,2,0,P|134:18|178:0,1,96,10|10,2:0|3:2,2:0:0:0:
223,18,94583,2,0,B|215:69|215:69|234:105|234:105|227:156,1,144,10|10,2:0|2:0,2:0:0:0:
198,248,95110,1,2,3:2:0:0:
198,248,95215,6,0,P|267:247|312:193,1,144,6|10,2:0|2:0,2:0:0:0:
361,111,95741,1,2,3:2:0:0:
361,111,95846,2,0,L|385:254,1,144,2|10,2:0|2:0,0:0:0:0:
432,337,96373,1,2,3:2:0:0:
432,337,96478,6,0,P|384:345|339:330,1,96,6|0,2:0|3:0,2:0:0:0:
302,299,96794,2,0,P|254:292|209:307,1,96,10|10,2:0|3:0,2:0:0:0:
177,341,97109,2,0,P|142:280|156:211,1,144,14|10,2:3|2:0,2:0:0:0:
103,130,97636,1,2,3:2:0:0:
103,130,97741,6,0,B|159:150|159:150|241:132,1,144,6|10,3:2|2:0,2:0:0:0:
304,58,98267,1,2,3:2:0:0:
304,58,98373,2,0,L|444:88,1,144,2|10,2:0|2:0,2:0:0:0:
502,165,98899,1,2,3:2:0:0:
502,165,99004,6,0,P|511:235|478:297,1,144,2|10,2:0|2:0,2:0:0:0:
421,375,99531,1,10,3:2:0:0:
421,375,99636,2,0,P|359:341|289:351,1,144,10|10,2:0|2:0,2:0:0:0:
224,279,100162,1,2,3:2:0:0:
224,279,100267,6,0,B|203:178|203:178|220:140,1,144,6|10,2:0|2:0,2:0:0:0:
298,196,100794,1,2,3:2:0:0:
299,196,100899,2,0,P|344:209|391:202,1,96,2|0,2:0|3:0,2:0:0:0:
425,168,101214,2,0,P|438:123|431:76,1,96,10|2,2:0|3:2,0:0:0:0:
398,38,101530,6,0,B|310:22|345:79|261:60,1,144,2|10,2:0|2:0,2:0:0:0:
172,24,102057,1,10,3:2:0:0:
172,24,102162,2,0,P|150:65|149:113,1,96,10|0,2:0|3:0,2:0:0:0:
180,150,102478,2,0,L|191:245,1,96,10|2,2:0|3:2,2:0:0:0:
170,288,102794,6,0,P|100:285|48:332,1,144,6|10,3:2|2:0,2:0:0:0:
223,371,103320,1,2,3:2:0:0:
223,371,103425,2,0,L|365:353,1,144,2|10,2:0|2:0,0:0:0:0:
444,232,104056,5,8,2:0:0:0:
425,234,104161,1,8,2:0:0:0:
405,233,104266,1,8,2:0:0:0:
387,228,104372,2,0,L|376:181,2,48,8|8|8,2:0|2:0|2:0,0:0:0:0:
333,157,104688,5,8,2:3:0:0:
314,154,104793,1,8,2:3:0:0:
294,155,104898,1,8,2:3:0:0:
276,160,105004,2,0,L|264:206,2,48,4|4|4,2:3|2:3|2:3,0:0:0:0:
224,235,105320,6,0,P|71:221|96:69,1,345.6,4|2,2:0|2:0,2:0:0:0:
240,84,106583,1,8,2:3:0:0:
322,35,106793,2,0,B|405:17|370:79|457:56,2,144,8|8|8,2:3|2:3|2:3,2:0:0:0:
322,35,107530,1,4,2:3:0:0:
457,56,107846,6,0,L|435:198,1,144,4|10,2:0|2:0,2:0:0:0:
463,290,108372,1,2,3:2:0:0:
463,290,108478,2,0,P|411:243|341:249,1,144,2|10,2:0|2:0,0:0:0:0:
269,312,109004,1,2,3:2:0:0:
269,312,109109,6,0,P|261:264|253:217,1,96,2|0,2:0|3:0,2:0:0:0:
245,169,109425,1,10,2:0:0:0:
266,75,109635,1,2,3:2:0:0:
265,75,109741,2,0,P|218:70|181:41,1,96,2|0,2:0|3:0,2:0:0:0:
137,22,110056,2,0,P|89:26|52:55,1,96,10|2,2:0|3:2,2:0:0:0:
72,100,110372,6,0,B|86:180|86:180|66:204|65:237,1,144,2|10,2:0|2:0,2:0:0:0:
119,317,110899,1,2,3:2:0:0:
119,316,111004,2,0,P|181:283|251:293,1,144,2|10,2:0|2:0,2:0:0:0:
305,373,111530,1,2,3:2:0:0:
306,372,111635,6,0,P|338:338|344:291,1,96,2|0,2:0|3:0,2:0:0:0:
327,245,111951,1,10,2:0:0:0:
389,171,112162,1,2,3:2:0:0:
389,171,112267,2,0,L|372:76,1,96,2|0,2:0|3:0,0:0:0:0:
362,29,112583,1,10,2:0:0:0:
268,10,112793,1,2,3:2:0:0:
267,10,112899,6,0,P|210:51|140:46,1,144,6|10,3:2|2:0,2:0:0:0:
59,99,113425,1,2,3:2:0:0:
59,99,113530,2,0,L|44:193,1,96,2|0,2:0|3:0,2:0:0:0:
36,241,113846,1,10,2:0:0:0:
94,316,114056,1,2,3:2:0:0:
94,316,114162,6,0,B|134:286|175:289|175:289|198:311|225:312,1,144,2|10,2:0|2:0,2:0:0:0:
304,258,114688,1,2,3:2:0:0:
304,258,114793,2,0,P|311:305|321:352,1,96,2|0,2:0|3:0,2:0:0:0:
366,371,115109,2,0,P|413:375|456:356,1,96,10|2,2:0|3:2,2:0:0:0:
489,320,115425,6,0,P|505:250|484:182,1,144,2|10,2:0|2:0,2:0:0:0:
400,135,115951,1,10,3:0:0:0:
400,135,116056,1,10,2:3:0:0:
305,153,116267,1,0,3:0:0:0:
305,153,116372,2,0,L|211:176,1,96,10|0,2:0|3:0,0:0:0:0:
169,199,116688,6,0,B|106:169|96:107|132:57|132:57|161:73|158:106,1,230.4,6|0,3:2|2:0,2:0:0:0:
58,325,117951,5,0,3:0:0:0:
183,291,118267,2,0,B|264:280|229:321|308:307,1,129.599996044922,0|0,2:0|2:0,0:0:0:0:
383,349,118793,1,0,2:0:0:0:
383,349,118899,2,0,L|393:263,1,86.3999973632813,0|0,2:0|2:0,0:0:0:0:
396,220,119214,2,0,P|457:206|493:154,2,129.599996044922,0|2|0,2:0|2:0|2:0,2:0:0:0:
337,156,120057,1,0,2:0:0:0:
337,156,120162,2,0,L|252:143,1,86.3999973632813,0|0,2:0|2:0,2:0:0:0:
208,146,120478,6,0,P|205:82|164:33,2,129.599996044922,0|2|0,3:0|2:0|2:0,2:0:0:0:
156,215,121320,2,0,L|159:258,1,43.1999986816407,0|2,2:0|2:0,0:0:0:0:
178,342,121635,1,0,2:0:0:0:
178,342,121741,1,0,2:0:0:0:
240,282,121951,2,0,P|302:274|348:317,1,129.599996044922,0|0,2:0|2:0,2:0:0:0:
348,317,122372,2,0,B|356:268|356:268|380:244|380:244|388:199,1,129.599996044922,0|2,2:0|3:2,0:0:0:0:
389,111,122899,1,0,2:0:0:0:
389,111,123004,6,0,P|362:167|301:179,1,129.599996044922,0|2,3:0|2:0,2:0:0:0:
178,135,123635,2,0,P|165:72|153:8,1,129.599996044922,0|2,2:0|2:0,0:0:0:0:
61,163,124162,1,0,2:0:0:0:
61,163,124267,2,0,P|113:128|176:134,1,129.599996044922,0|2,2:0|2:0,2:0:0:0:
245,244,124899,2,0,P|308:231|372:219,1,129.599996044922,0|2,2:0|2:0,0:0:0:0:
453,249,125425,1,0,2:0:0:0:
453,248,125530,6,0,P|486:193|474:131,1,129.599996044922,0|2,3:0|2:0,2:0:0:0:
342,93,126056,1,0,2:0:0:0:
342,92,126162,2,0,P|357:156|372:219,1,129.599996044922,0|2,2:0|2:0,2:0:0:0:
392,302,126688,1,0,0:0:0:0:
392,303,126793,6,0,P|349:303|313:280,1,86.3999973632813,0|0,2:0|2:0,2:0:0:0:
277,255,127109,2,0,L|193:274,1,86.3999973632813,2|0,2:0|2:0,2:0:0:0:
154,304,127425,2,0,B|141:251|141:251|152:217|152:217|139:166,1,144,2|2,2:0|2:0,0:0:0:0:
113,73,127951,1,0,2:0:0:0:
113,73,128056,6,0,P|215:122|244:12,1,259.199992089844,0|0,3:0|3:0,2:0:0:0:
345,105,128899,1,8,2:0:0:0:
345,105,129004,2,0,L|430:91,1,86.3999973632813,0|0,3:0|2:0,0:0:0:0:
469,110,129320,2,0,P|476:172|441:225,1,129.599996044922,0|0,3:0|3:0,0:0:0:0:
361,195,129846,1,0,3:0:0:0:
361,195,129951,2,0,L|232:214,1,129.599996044922,8|0,2:0|3:0,2:0:0:0:
182,285,130478,1,0,2:0:0:0:
182,285,130583,6,0,B|145:239|145:239|162:171,1,129.599996044922,0|0,3:0|2:0,2:0:0:0:
98,23,131214,2,0,B|115:91|115:91|88:107|78:137,1,129.599996044922,0|0,3:0|3:0,2:0:0:0:
162,170,131741,1,0,2:0:0:0:
162,170,131846,2,0,P|232:170|280:202,1,129.599996044922,0|0,3:0|2:0,2:0:0:0:
327,274,132372,1,8,2:0:0:0:
327,274,132478,2,0,L|455:253,1,129.599996044922,0|8,3:0|2:0,2:0:0:0:
496,130,133109,6,0,B|419:105|419:105|332:151|332:151|257:126,1,259.199992089844,0|0,3:0|3:0,2:0:0:0:
184,76,133951,1,8,2:0:0:0:
184,76,134056,2,0,P|169:116|175:158,1,86.3999973632813,0|0,3:0|2:0,0:0:0:0:
162,200,134372,6,0,P|213:237|276:231,1,129.599996044922,0|0,3:0|3:0,0:0:0:0:
343,176,134899,1,8,2:0:0:0:
343,176,135004,2,0,P|321:235|332:298,1,129.599996044922,0|0,3:0|3:0,2:0:0:0:
417,313,135530,1,0,2:0:0:0:
417,313,135635,6,0,P|439:254|428:191,1,129.599996044922,0|0,3:0|2:0,2:0:0:0:
391,110,136162,2,0,P|310:131|247:77,1,172.799994726563,0|10,2:0|2:0,0:0:0:0:
169,43,136793,1,2,2:0:0:0:
169,43,136899,1,8,2:3:0:0:
96,106,137109,6,0,P|70:171|86:240,1,144,8|0,2:3|2:0,2:0:0:0:
124,270,137530,1,8,2:3:0:0:
214,235,137741,1,8,2:3:0:0:
214,235,137846,2,0,L|311:249,1,96,4|0,2:3|2:0,2:0:0:0:
357,254,138162,5,6,3:2:0:0:
410,120,138478,1,10,2:0:0:0:
373,31,138688,1,0,0:0:0:0:
373,31,138794,2,0,P|329:14|282:16,1,96,2|0,2:0|3:0,0:0:0:0:
242,44,139109,1,10,2:0:0:0:
116,90,139320,1,2,3:2:0:0:
116,90,139425,6,0,B|170:97|170:97|198:129|198:129|244:136,1,144,2|10,2:0|2:0,2:0:0:0:
312,203,139951,1,2,3:2:0:0:
312,204,140057,2,0,L|300:299,1,96,2|0,2:0|3:0,0:0:0:0:
290,346,140373,2,0,P|245:361|198:360,1,96,10|2,2:0|3:2,2:0:0:0:
170,318,140688,6,0,P|101:328|59:384,1,144,2|10,2:0|2:0,2:0:0:0:
94,232,141215,1,2,3:2:0:0:
94,232,141320,2,0,L|107:138,1,96,2|0,2:0|3:0,2:0:0:0:
116,90,141636,1,10,2:0:0:0:
185,19,141846,1,2,3:2:0:0:
185,19,141951,6,0,P|218:80|287:84,1,144,2|10,2:0|2:0,0:0:0:0:
345,7,142478,1,2,3:2:0:0:
345,7,142583,2,0,L|365:150,1,144,2|14,2:0|2:0,0:0:0:0:
459,134,143109,1,2,3:2:0:0:
459,134,143215,6,0,B|455:95|476:66|476:66|467:25|439:5,1,144,6|10,2:0|2:0,2:0:0:0:
345,7,143741,1,2,3:2:0:0:
345,7,143846,2,0,B|259:-10|294:51|210:33,1,144,2|10,2:0|2:0,2:0:0:0:
119,0,144373,1,2,3:2:0:0:
119,0,144478,6,0,P|150:63|142:134,1,144,2|10,2:0|2:0,2:0:0:0:
194,215,145004,1,2,3:2:0:0:
194,214,145109,2,0,P|240:207|283:227,1,96,2|0,2:0|3:0,2:0:0:0:
330,215,145425,2,0,L|316:309,1,96,10|2,2:0|3:2,2:0:0:0:
342,350,145741,6,0,P|412:353|465:308,1,144,2|10,2:0|2:0,2:0:0:0:
420,222,146267,1,2,3:2:0:0:
420,222,146373,2,0,L|396:81,1,144,2|10,2:0|2:0,0:0:0:0:
265,18,147004,5,2,2:1:0:0:
194,83,147215,1,8,2:0:0:0:
194,84,147320,2,0,P|183:130|197:175,1,96,8|8,2:3|2:3,2:0:0:0:
232,208,147636,1,4,2:3:0:0:
274,345,147951,1,8,2:3:0:0:
255,348,148057,1,8,2:3:0:0:
236,351,148162,1,4,2:3:0:0:
217,355,148267,6,0,B|140:371|168:317|79:332,1,144,6|10,3:2|2:0,2:0:0:0:
24,253,148794,1,0,0:0:0:0:
24,253,148899,2,0,L|36:158,1,96,2|0,2:0|3:0,0:0:0:0:
47,110,149215,1,10,2:0:0:0:
125,164,149425,1,2,3:2:0:0:
125,164,149530,6,0,P|192:181|247:139,1,144,2|10,2:0|2:0,2:0:0:0:
295,54,150057,1,2,3:2:0:0:
295,54,150162,2,0,L|389:69,1,96,2|0,2:0|3:0,2:0:0:0:
435,53,150478,2,0,L|450:147,1,96,10|2,2:0|3:2,2:0:0:0:
481,183,150793,6,0,P|473:251|410:278,1,144,2|10,2:0|2:0,2:0:0:0:
340,345,151320,1,2,3:2:0:0:
339,344,151425,2,0,P|313:305|315:257,1,96,2|0,2:0|3:0,0:0:0:0:
286,218,151741,2,0,L|192:232,1,96,10|2,2:0|3:2,2:0:0:0:
143,240,152057,6,0,P|101:184|115:115,1,144,2|10,2:0|2:0,2:0:0:0:
286,218,152688,2,0,L|334:210,2,48,10|0|0,2:0|2:0|3:0,2:0:0:0:
375,184,153004,2,0,L|423:193,2,48,10|0|2,2:0|2:0|3:2,0:0:0:0:
455,157,153320,6,0,P|475:90|444:26,1,144,6|10,2:0|2:0,2:0:0:0:
358,70,153846,1,2,3:2:0:0:
358,70,153951,2,0,L|262:54,1,96,2|0,2:0|3:0,0:0:0:0:
264,54,154267,1,10,2:0:0:0:
168,41,154478,1,2,3:2:0:0:
168,42,154583,6,0,P|130:101|137:171,1,144,2|10,2:0|2:0,2:0:0:0:
218,223,155109,1,2,3:2:0:0:
218,222,155215,2,0,L|311:203,1,96,2|0,2:0|3:0,2:0:0:0:
358,190,155530,2,0,P|377:232|372:279,1,96,10|2,2:0|3:2,2:0:0:0:
397,321,155846,6,0,B|343:313|343:313|308:339|308:339|262:330,1,144,6|10,3:2|2:0,2:0:0:0:
175,288,156373,1,2,3:2:0:0:
175,288,156478,2,0,L|164:384,1,96,2|0,2:0|3:0,0:0:0:0:
164,384,156794,1,10,2:0:0:0:
71,359,157004,1,2,3:2:0:0:
71,359,157109,6,0,P|57:290|101:236,1,144,2|10,2:0|2:0,2:0:0:0:
190,197,157636,1,2,3:2:0:0:
190,197,157741,2,0,L|175:102,1,96,2|0,2:0|3:0,2:0:0:0:
163,55,158057,1,10,2:0:0:0:
256,76,158267,1,2,3:2:0:0:
256,76,158373,6,0,P|327:75|379:27,1,144,6|10,3:2|2:0,0:0:0:0:
472,49,158899,1,2,3:2:0:0:
443,190,159215,1,0,3:0:0:0:
443,190,159320,1,14,2:0:0:0:
348,173,159530,6,0,L|207:199,1,144,0|0,3:0|3:0,0:0:0:0:
159,189,159951,2,0,P|139:231|141:279,1,96,0|8,0:0|2:0,0:0:0:0:
173,315,160267,2,0,L|163:362,2,48,8|8|4,2:3|2:3|2:3,2:0:0:0:
219,298,160583,1,8,2:3:0:0:
238,295,160688,1,8,2:3:0:0:
257,292,160794,1,4,2:3:0:0:
275,288,160899,5,12,2:0:0:0:
353,342,161109,1,2,3:2:0:0:
353,342,161215,2,0,P|369:297|358:250,1,96,8|2,2:0|3:2,2:0:0:0:
330,212,161530,2,0,P|399:210|444:156,1,144,8|0,2:0|3:0,2:0:0:0:
450,60,162057,1,10,2:0:0:0:
114,51,162793,6,0,L|256:29,1,144,0|0,2:0|2:0,2:0:0:0:
367,120,163425,6,0,P|414:68|409:-2,1,144,4|10,2:0|2:0,2:0:0:0:
283,161,164057,2,0,P|292:207|303:254,1,96,2|0,2:0|3:0,0:0:0:0:
317,295,164373,1,10,2:0:0:0:
439,330,164583,1,2,3:2:0:0:
439,330,164688,6,0,P|387:285|317:294,1,144,2|10,2:0|2:0,2:0:0:0:
251,365,165215,1,10,3:2:0:0:
250,365,165320,2,0,P|203:364|164:337,1,96,10|0,2:0|3:0,0:0:0:0:
141,295,165635,1,8,0:0:0:0:
8,344,165846,1,2,3:0:0:0:
8,344,165951,6,0,P|-9:275|27:216,1,144,2|10,2:0|2:0,2:0:0:0:
15,120,166478,1,2,3:2:0:0:
15,120,166583,2,0,B|60:147|126:137|126:137|109:113,1,144,2|10,2:0|2:0,2:0:0:0:
147,24,167109,2,0,B|206:98|206:98|292:51,1,192,2|10,3:2|2:0,0:0:0:0:
374,101,167741,1,10,3:2:0:0:
374,101,167846,1,10,2:0:0:0:
297,159,168057,1,0,3:0:0:0:
297,159,168162,2,0,L|311:255,1,96,10|2,2:0|3:2,2:0:0:0:
321,301,168478,6,0,P|391:304|442:256,1,144,6|10,2:0|2:0,2:0:0:0:
507,119,169004,1,2,3:2:0:0:
507,119,169109,2,0,P|437:131|373:100,1,144,2|10,2:0|2:0,2:0:0:0:
255,16,169741,6,0,L|161:-1,1,96,6|0,2:0|3:0,2:0:0:0:
118,22,170057,2,0,P|142:62|141:109,1,96,10|10,2:0|3:2,2:0:0:0:
125,155,170373,2,0,P|77:206|7:207,1,144,10|10,2:0|2:0,2:0:0:0:
64,337,170899,1,2,3:2:0:0:
64,337,171004,6,0,B|118:330|118:330|152:350|152:350|201:343,1,144,6|10,2:0|2:0,2:0:0:0:
291,377,171530,1,2,3:2:0:0:
291,377,171636,2,0,B|306:329|306:329|295:236,1,144,2|10,2:0|2:0,2:0:0:0:
256,148,172162,1,2,3:2:0:0:
256,148,172267,6,0,P|304:140|349:155,1,96,6|0,2:0|3:0,2:0:0:0:
383,187,172583,2,0,P|431:194|476:179,1,96,10|10,2:0|3:0,2:0:0:0:
507,143,172899,2,0,P|508:73|460:20,1,144,14|10,2:3|2:0,2:0:0:0:
364,30,173425,1,2,3:2:0:0:
364,30,173530,6,0,B|308:50|308:50|226:32,1,144,6|10,3:2|2:0,2:0:0:0:
133,48,174057,1,2,3:2:0:0:
133,48,174162,2,0,L|163:188,1,144,2|10,2:0|2:0,2:0:0:0:
223,263,174688,1,2,3:2:0:0:
223,263,174794,6,0,P|160:230|90:240,1,144,2|10,2:0|2:0,2:0:0:0:
69,333,175320,1,10,3:2:0:0:
69,333,175425,2,0,P|131:367|201:357,1,144,10|10,2:0|2:0,2:0:0:0:
223,263,175951,1,2,3:2:0:0:
223,263,176057,6,0,B|312:254|312:254|357:284,1,144,6|10,2:0|2:0,2:0:0:0:
449,341,176583,1,2,3:2:0:0:
449,340,176688,2,0,P|462:295|455:248,1,96,2|0,2:0|3:0,2:0:0:0:
421,211,177004,1,8,0:0:0:0:
427,70,177214,1,0,3:0:0:0:
427,70,177320,6,0,B|342:58|377:114|292:101,1,144,2|10,2:0|2:0,2:0:0:0:
222,35,177846,1,10,3:2:0:0:
222,35,177951,2,0,P|200:76|199:124,1,96,10|0,2:0|3:0,2:0:0:0:
226,164,178267,2,0,L|215:259,1,96,10|2,2:0|3:2,2:0:0:0:
207,307,178583,6,0,P|140:321|86:273,1,144,6|10,3:2|2:0,2:0:0:0:
83,145,179109,1,2,3:2:0:0:
83,145,179215,2,0,L|225:163,1,144,2|10,2:0|2:0,0:0:0:0:
313,124,179741,1,2,3:2:0:0:
313,124,179846,6,0,P|360:117|397:88,1,96,6|0,2:0|3:0,2:0:0:0:
435,57,180162,2,0,L|449:151,1,96,10|10,2:0|3:2,2:0:0:0:
484,185,180478,2,0,B|477:235|477:235|447:256|447:256|439:312,1,144,10|10,2:0|2:0,2:0:0:0:
361,369,181004,1,2,3:2:0:0:
361,369,181109,6,0,P|291:369|244:318,1,144,6|10,2:0|2:0,2:0:0:0:
266,224,181636,1,10,3:0:0:0:
266,224,181741,1,0,0:0:0:0:
345,171,181951,1,0,3:0:0:0:
345,171,182057,2,0,P|356:124|341:79,1,96,10|0,2:0|3:0,2:0:0:0:
306,46,182373,6,0,P|238:33|183:77,1,144,6|10,3:2|2:0,2:0:0:0:
90,103,182899,1,10,3:0:0:0:
90,103,183004,2,0,L|83:56,2,48,10|0|0,2:3|2:0|3:0,0:0:0:0:
119,140,183320,1,2,2:0:0:0:
116,159,183425,1,0,2:0:0:0:
113,178,183530,1,0,3:0:0:0:
111,196,183635,6,0,B|195:175|161:240|247:215,1,144,4|10,2:0|2:0,2:0:0:0:
326,159,184162,1,2,3:2:0:0:
326,159,184267,2,0,P|286:102|294:32,1,144,2|10,2:0|2:0,0:0:0:0:
387,10,184793,1,2,3:2:0:0:
387,10,184898,6,0,P|427:67|419:137,1,144,2|10,2:0|2:0,2:0:0:0:
484,208,185425,1,10,3:2:0:0:
484,208,185530,2,0,P|469:253|474:300,1,96,10|0,2:0|3:0,0:0:0:0:
495,343,185846,1,10,2:0:0:0:
401,366,186057,1,2,3:2:0:0:
364,334,186162,6,0,P|293:328|235:368,1,144,2|10,2:0|2:0,2:0:0:0:
162,306,186688,1,2,3:2:0:0:
162,306,186793,2,0,L|175:210,1,96,2|0,2:0|3:0,2:0:0:0:
183,163,187109,1,10,2:0:0:0:
191,65,187320,6,0,B|128:45|128:45|85:34|40:63|45:112,1,192,2|10,3:2|2:0,0:0:0:0:
78,202,187951,1,10,3:2:0:0:
78,202,188057,1,10,2:0:0:0:
38,289,188267,1,0,3:0:0:0:
38,289,188373,2,0,P|84:297|128:279,1,96,10|2,2:0|3:2,2:0:0:0:
164,311,188688,6,0,B|213:298|213:298|248:310|248:310|303:298,1,144,6|10,2:0|2:0,2:0:0:0:
398,281,189215,1,2,3:2:0:0:
398,281,189320,2,0,P|410:211|379:147,1,144,2|10,2:0|2:0,2:0:0:0:
235,157,189951,6,0,L|218:63,1,96,6|0,2:0|3:0,2:0:0:0:
241,20,190267,2,0,P|288:14|332:31,1,96,10|10,2:0|3:2,2:0:0:0:
375,9,190583,2,0,B|367:60|367:60|386:96|386:96|379:147,1,144,10|10,2:0|2:0,2:0:0:0:
455,205,191109,1,2,3:2:0:0:
455,205,191215,6,0,P|386:206|341:260,1,144,6|10,2:0|2:0,2:0:0:0:
302,348,191741,2,0,P|233:347|188:293,1,144,2|0,3:2|3:0,0:0:0:0:
187,292,192162,1,10,2:0:0:0:
222,202,192373,1,2,3:2:0:0:
222,202,192478,6,0,P|230:154|215:109,1,96,6|0,2:0|3:0,2:0:0:0:
180,76,192794,2,0,P|133:68|88:85,1,96,10|10,2:0|3:0,2:0:0:0:
58,122,193109,2,0,P|56:192|100:247,1,144,14|10,2:3|2:0,2:0:0:0:
187,292,193636,1,2,3:2:0:0:
187,292,193741,6,0,B|239:284|239:284|268:302|268:302|325:294,1,144,6|10,3:2|2:0,2:0:0:0:
405,346,194267,1,2,3:2:0:0:
405,346,194373,2,0,P|442:286|429:217,1,144,2|10,2:0|2:0,2:0:0:0:
502,154,194899,1,2,3:2:0:0:
502,154,195004,6,0,P|432:163|370:130,1,144,2|10,2:0|2:0,2:0:0:0:
315,49,195530,1,10,3:2:0:0:
315,49,195635,2,0,L|219:38,1,96,10|0,2:0|3:0,2:0:0:0:
177,62,195951,1,10,2:0:0:0:
219,140,196162,1,2,3:2:0:0:
220,140,196267,6,0,B|245:180|245:180|224:274,1,144,6|10,2:0|2:0,2:0:0:0:
177,358,196793,1,2,3:2:0:0:
177,358,196899,2,0,P|132:371|85:364,1,96,2|0,2:0|3:0,2:0:0:0:
45,335,197215,2,0,P|32:290|39:243,1,96,10|2,2:0|3:2,0:0:0:0:
63,200,197530,6,0,B|148:181|114:239|200:217,1,144,2|10,2:0|2:0,2:0:0:0:
269,284,198057,1,10,3:2:0:0:
269,283,198162,2,0,P|291:241|291:194,1,96,10|0,2:0|3:0,2:0:0:0:
265,152,198478,2,0,P|243:111|248:64,1,96,10|2,2:0|3:2,2:0:0:0:
278,25,198794,6,0,P|347:15|403:57,1,144,6|10,3:2|2:0,2:0:0:0:
488,102,199320,1,2,3:2:0:0:
488,102,199425,2,0,L|470:244,1,144,2|10,2:0|2:0,0:0:0:0:
375,354,200057,5,8,2:0:0:0:
356,356,200162,1,8,2:0:0:0:
336,355,200267,1,8,2:0:0:0:
318,350,200373,2,0,L|307:303,2,48,8|8|8,2:0|2:0|2:0,0:0:0:0:
267,275,200688,2,0,L|278:228,2,48,8|8|8,2:3|2:3|2:3,0:0:0:0:
308,190,201004,2,0,L|297:143,2,48,4|4|4,2:3|2:3|2:3,0:0:0:0:
256,114,201320,6,0,P|200:119|154:87,2,115.2,6|8|8,2:0|2:0|2:0,0:0:0:0:
348,44,202267,1,8,2:0:0:0:
481,98,202583,5,8,2:3:0:0:
507,190,202793,2,0,P|491:257|428:287,2,144,8|8|8,2:3|2:3|2:3,2:0:0:0:
507,190,203530,1,4,2:3:0:0:
406,86,203846,6,0,B|349:80|349:80|318:97|318:97|266:91,1,144,6|10,3:2|2:0,2:0:0:0:
148,6,204478,2,0,P|87:38|79:107,1,144,2|10,2:0|2:0,2:0:0:0:
125,192,205004,1,2,3:2:0:0:
125,192,205109,6,0,L|105:334,1,144,2|10,2:0|2:0,2:0:0:0:
196,366,205635,1,2,3:2:0:0:
195,366,205741,2,0,P|233:337|280:325,1,96,2|0,2:0|3:0,0:0:0:0:
325,341,206056,2,0,L|336:245,1,96,10|2,2:0|3:2,2:0:0:0:
349,199,206372,6,0,P|280:210|219:175,1,144,2|10,2:0|2:0,2:0:0:0:
237,80,206899,1,2,3:2:0:0:
237,80,207004,2,0,P|306:68|367:103,1,144,2|10,2:0|2:0,2:0:0:0:
449,53,207530,1,2,3:2:0:0:
449,53,207635,6,0,L|466:195,1,144,2|10,2:0|2:0,2:0:0:0:
503,285,208162,1,2,3:2:0:0:
503,285,208267,2,0,P|475:348|407:356,1,144,2|10,2:0|2:0,2:0:0:0:
324,307,208793,1,2,3:2:0:0:
324,307,208899,6,0,L|306:164,2,144,6|10|2,2:0|2:0|2:0,2:0:0:0:
239,352,209741,1,0,3:0:0:0:
238,352,209846,2,0,P|193:364|148:349,1,96,10|2,2:0|3:2,2:0:0:0:
124,307,210162,6,0,B|74:318|74:318|52:351|52:351|1:363,2,144,2|10|2,2:0|2:0|2:0,0:0:0:0:
206,258,211004,1,0,3:0:0:0:
206,258,211109,2,0,L|221:163,1,96,10|2,2:0|3:2,0:0:0:0:
226,115,211425,6,0,P|287:149|356:134,1,144,2|10,2:0|2:0,2:0:0:0:
370,39,211951,1,2,3:2:0:0:
370,39,212056,2,0,P|308:4|239:19,1,144,2|10,2:0|2:0,2:0:0:0:
148,53,212583,1,2,3:2:0:0:
148,53,212688,6,0,B|99:80|99:80|11:69,1,144,2|10,2:0|2:0,2:0:0:0:
38,161,213214,1,8,2:3:0:0:
38,161,213320,2,0,P|58:203|55:251,1,96,4|0,2:3|3:0,2:0:0:0:
37,295,213635,1,8,2:3:0:0:
98,369,213846,1,4,2:3:0:0:
98,368,213951,6,0,P|154:325|224:323,1,144,6|10,3:2|2:0,2:0:0:0:
205,229,214477,1,2,3:2:0:0:
205,229,214583,2,0,L|227:86,1,144,2|10,2:0|2:0,2:0:0:0:
349,9,215214,6,0,P|405:52|475:54,1,144,2|10,2:0|2:0,2:0:0:0:
448,146,215741,1,2,3:2:0:0:
448,146,215846,2,0,L|467:240,1,96,2|0,2:0|3:0,2:0:0:0:
497,277,216162,2,0,P|498:323|463:354,1,96,10|2,2:0|3:2,2:0:0:0:
416,342,216478,6,0,B|364:353|364:353|330:330|330:330|281:341,1,144,2|10,2:0|2:0,2:0:0:0:
188,366,217004,1,2,3:2:0:0:
188,366,217109,2,0,P|170:321|176:274,1,96,2|0,2:0|0:0,2:0:0:0:
210,240,217425,1,10,2:0:0:0:
303,220,217635,1,2,3:2:0:0:
303,220,217741,6,0,P|339:160|323:91,1,144,2|10,2:0|2:0,2:0:0:0:
241,42,218267,1,2,3:2:0:0:
240,42,218372,2,0,P|199:65|152:63,1,96,2|0,2:0|3:0,2:0:0:0:
107,45,218688,2,0,P|59:43|18:66,1,96,14|2,2:0|3:2,2:0:0:0:
1,111,219004,6,0,P|7:180|64:220,1,144,6|10,2:0|2:0,2:0:0:0:
152,181,219530,1,2,3:2:0:0:
152,181,219635,2,0,B|200:191|200:191|224:224|224:224|278:233,1,144,2|10,2:0|2:0,2:0:0:0:
364,192,220162,1,2,3:2:0:0:
364,192,220267,6,0,P|356:140|374:101,1,96,2|0,2:0|3:0,0:0:0:0:
412,73,220583,1,10,2:0:0:0:
498,115,220793,1,2,3:2:0:0:
498,115,220899,2,0,L|485:210,1,96,2|0,2:0|3:0,0:0:0:0:
503,254,221214,2,0,P|491:299|453:326,1,96,10|2,2:0|3:2,0:0:0:0:
417,358,221530,6,0,P|367:310|296:312,1,144,2|10,2:0|2:0,2:0:0:0:
222,372,222056,2,0,P|173:321|175:250,1,144,2|0,3:2|3:0,0:0:0:0:
207,214,222478,1,10,2:0:0:0:
181,121,222688,1,2,3:2:0:0:
181,121,222793,5,2,2:1:0:0:
217,328,232899,6,0,B|277:362|277:362|406:334,1,201.599993847656,0|0,3:0|3:0,2:0:0:0:
484,313,233741,1,0,3:0:0:0:
484,313,233846,2,0,P|497:272|484:231,1,86.3999973632813,8|0,2:0|3:0,2:0:0:0:
499,186,234162,6,0,P|430:195|374:153,1,144,6|10,3:2|2:0,2:0:0:0:
340,63,234688,1,2,3:2:0:0:
340,63,234793,2,0,L|244:76,1,96,2|0,2:0|3:0,2:0:0:0:
201,55,235109,2,0,P|177:96|180:143,1,96,10|2,2:0|3:2,2:0:0:0:
150,181,235425,6,0,B|63:164|99:222|13:204,2,144,2|10|2,2:0|2:0|2:0,0:0:0:0:
235,225,236267,1,0,3:0:0:0:
235,225,236372,2,0,L|251:319,1,96,10|2,2:0|3:2,2:0:0:0:
297,336,236688,6,0,B|379:313|350:377|433:353,1,144,2|10,2:0|2:0,2:0:0:0:
510,296,237214,1,2,3:2:0:0:
510,296,237320,2,0,P|517:249|500:204,1,96,2|0,2:0|3:0,0:0:0:0:
459,180,237635,2,0,L|366:200,1,96,10|2,2:0|3:2,2:0:0:0:
324,226,237951,6,0,P|255:215|227:151,1,144,2|10,2:0|2:0,2:0:0:0:
235,55,238478,1,2,3:2:0:0:
235,55,238583,2,0,B|188:31|188:31|98:49,1,144,10|10,2:0|2:0,2:0:0:0:
23,171,239214,6,0,P|111:167|134:253,1,192,6|0,3:2|3:0,2:0:0:0:
109,282,239846,1,8,2:0:0:0:
217,321,240162,2,0,B|246:282|240:228|240:228|279:258|328:245,1,192,0|0,3:0|3:0,2:0:0:0:
328,245,240793,1,8,2:0:0:0:
298,164,241004,1,0,2:0:0:0:
298,164,241109,2,0,P|292:107|323:60,1,115.2,0|8,3:0|2:0,2:0:0:0:
447,38,241741,6,0,B|435:100|423:167|423:167|409:138|379:126,1,192,0|0,3:0|3:0,2:0:0:0:
379,126,242372,1,8,2:0:0:0:
331,251,242688,2,0,B|465:223|465:223|429:265,1,192,0|0,3:0|3:0,2:0:0:0:
429,265,243320,1,8,2:0:0:0:
286,331,243635,5,8,2:3:0:0:
270,319,243740,1,8,2:3:0:0:
258,305,243845,1,4,2:3:0:0:
246,287,243951,2,0,P|241:264|242:240,2,48,8|8|4,2:3|2:3|2:3,2:0:0:0:
254,194,244267,6,0,P|186:209|126:172,1,144,12|10,2:0|2:0,2:0:0:0:
107,78,244793,1,2,3:2:0:0:
240,23,245109,1,0,3:0:0:0:
240,23,245214,2,0,P|283:41|330:35,1,96,14|0,2:0|3:0,2:0:0:0:
372,12,245530,1,0,0:0:0:0:
448,70,245741,6,0,B|440:118|440:118|468:158|454:209,1,144,0|8,3:0|2:0,0:0:0:0:
429,250,246162,1,8,2:3:0:0:
348,179,246372,1,4,2:3:0:0:
348,179,246478,2,0,L|254:193,1,96,8|4,2:3|2:3,0:0:0:0:
215,222,246793,6,0,B|178:194|178:194|187:98,1,144,12|0,2:0|2:0,2:0:0:0:
195,1,247320,1,8,2:0:0:0:
195,1,247425,1,0,3:0:0:0:
64,62,247741,6,0,B|101:90|101:90|92:186,1,144,10|0,2:1|3:0,2:0:0:0:
46,271,248267,1,0,3:0:0:0:
45,271,248372,2,0,P|58:316|97:342,1,96,8|0,2:0|3:0,2:0:0:0:
142,324,248688,2,0,L|188:339,2,48,8|0|0,2:0|2:0|3:0,0:0:0:0:
218,376,249004,2,0,L|264:361,2,48,8|8|8,2:0|2:0|2:0,0:0:0:0:
295,324,249320,5,4,2:0:0:0:
295,324,250478,5,2,3:2:0:0:
295,324,250583,2,0,B|310:276|310:276|297:228|297:228|312:172,1,158.400004833985,6|10,2:0|2:0,2:0:0:0:
260,79,251109,1,10,3:2:0:0:
260,78,251214,2,0,P|300:46|352:43,1,105.600003222656,10|0,2:0|3:0,2:0:0:0:
396,73,251530,1,10,2:0:0:0:
498,47,251741,1,2,3:2:0:0:
498,47,251846,6,0,L|472:203,1,158.400004833985,2|10,2:0|2:0,2:0:0:0:
501,304,252372,1,2,3:2:0:0:
500,304,252478,2,0,P|460:336|408:336,1,105.600003222656,2|0,2:0|3:0,2:0:0:0:
361,312,252793,1,10,2:0:0:0:
315,216,253004,6,0,L|287:59,1,158.400004833985,2|0,3:2|3:0,0:0:0:0:
276,8,253425,1,10,2:0:0:0:
188,67,253635,1,10,3:2:0:0:
188,67,253741,1,10,2:0:0:0:
86,40,253951,1,0,3:0:0:0:
85,40,254056,2,0,P|59:84|62:136,1,105.600003222656,10|2,2:0|3:2,2:0:0:0:
98,175,254372,6,0,P|26:203|0:275,1,158.400004833985,6|10,2:0|2:0,2:0:0:0:
73,351,254899,1,2,3:2:0:0:
73,351,255004,2,0,P|144:322|171:250,1,158.400004833985,2|10,2:0|2:0,2:0:0:0:
194,146,255530,1,2,3:2:0:0:
194,146,255635,6,0,L|298:130,1,105.600003222656,6|0,2:0|3:0,2:0:0:0:
333,90,255951,1,10,2:0:0:0:
421,148,256162,1,10,3:2:0:0:
421,148,256267,2,0,P|469:88|452:13,1,158.400004833985,10|10,2:0|2:0,2:0:0:0:
354,203,256793,1,2,3:2:0:0:
354,203,256898,6,0,P|364:281|376:359,1,158.400004833985,6|10,2:0|2:0,2:0:0:0:
275,324,257425,1,2,3:2:0:0:
275,324,257530,1,2,2:0:0:0:
173,355,257741,1,0,3:0:0:0:
172,355,257846,2,0,P|121:348|86:310,1,105.600003222656,10|2,2:0|3:2,0:0:0:0:
75,258,258162,5,6,2:0:0:0:
163,200,258372,1,0,3:0:0:0:
163,200,258478,2,0,L|266:224,1,105.600003222656,10|10,2:0|3:0,2:0:0:0:
317,235,258793,2,0,P|355:168|325:98,1,158.400004833985,14|10,2:3|2:0,2:0:0:0:
270,7,259320,1,2,3:2:0:0:
270,7,259425,6,0,P|334:49|412:42,1,158.400004833985,6|10,3:2|2:0,2:0:0:0:
493,110,259951,1,2,3:2:0:0:
493,110,260056,2,0,L|478:215,1,105.600003222656,2|0,2:0|3:0,2:0:0:0:
501,262,260372,1,10,2:0:0:0:
461,360,260583,1,2,3:2:0:0:
461,360,260688,6,0,B|404:346|404:346|382:306|382:306|329:292,1,158.400004833985,2|10,2:0|2:0,2:0:0:0:
237,345,261214,1,10,3:2:0:0:
237,345,261320,2,0,P|220:295|234:245,1,105.600003222656,10|0,2:0|3:0,2:0:0:0:
276,213,261635,2,0,P|292:163|278:113,1,105.600003222656,10|2,2:0|3:2,2:0:0:0:
241,74,261951,6,0,P|167:51|99:88,1,158.400004833985,6|10,2:0|2:0,2:0:0:0:
55,185,262478,1,2,3:2:0:0:
55,185,262583,1,2,2:0:0:0:
126,262,262793,1,0,3:0:0:0:
126,262,262899,2,0,L|149:366,1,105.600003222656,10|2,2:0|3:2,2:0:0:0:
194,339,263214,6,0,B|291:319|248:377|346:357,1,158.400004833985,2|10,2:0|2:0,2:0:0:0:
430,294,263741,1,10,3:2:0:0:
430,294,263846,2,0,P|438:242|420:193,1,105.600003222656,10|0,2:0|3:0,2:0:0:0:
372,215,264162,2,0,P|321:229|271:214,1,105.600003222656,10|2,2:0|3:2,2:0:0:0:
233,178,264478,6,0,P|214:103|255:37,1,158.400004833985,6|10,3:2|2:0,2:0:0:0:
352,77,265004,1,2,3:2:0:0:
352,77,265109,2,0,L|455:58,1,105.600003222656,2|0,2:0|3:0,0:0:0:0:
500,87,265425,2,0,P|514:136|497:186,1,105.600003222656,10|2,2:0|3:2,2:0:0:0:
506,238,265741,6,0,P|430:224|371:273,1,158.400004833985,6|10,2:0|2:0,2:0:0:0:
296,348,266267,1,10,3:2:0:0:
296,348,266372,2,0,P|243:342|190:338,1,105.600003222656,10|0,2:0|3:0,2:0:0:0:
146,368,266688,1,10,2:0:0:0:
18,273,267004,6,0,B|10:217|10:217|28:178|28:178|19:119,1,158.400004833985,6|10,2:0|2:0,2:0:0:0:
73,28,267530,2,0,P|133:78|210:72,1,158.400004833985,10|0,3:0|3:0,0:0:0:0:
257,48,267951,1,10,2:0:0:0:
351,96,268162,1,0,3:0:0:0:
351,96,268267,5,6,3:2:0:0:
272,167,268478,1,0,3:0:0:0:
272,167,268583,2,0,P|249:213|256:265,1,105.600003222656,10|10,2:0|3:0,2:0:0:0:
286,308,268899,1,10,2:3:0:0:
306,304,269004,1,0,2:0:0:0:
327,301,269109,1,0,3:0:0:0:
348,297,269214,2,0,L|399:311,2,52.8000016113282,2|0|0,2:0|2:0|3:0,0:0:0:0:
447,290,269530,6,0,P|469:215|434:146,1,158.400004833985,4|10,2:0|2:0,2:0:0:0:
399,46,270056,1,2,3:2:0:0:
399,45,270162,2,0,P|361:82|310:88,1,105.600003222656,2|0,2:0|3:0,0:0:0:0:
268,55,270478,1,10,2:0:0:0:
168,19,270688,6,0,P|90:18|32:69,1,158.400004833985,2|0,3:2|3:0,0:0:0:0:
21,121,271109,1,10,2:0:0:0:
88,202,271320,1,10,3:2:0:0:
88,202,271425,2,0,L|192:182,1,105.600003222656,10|0,2:0|3:0,0:0:0:0:
237,208,271741,1,10,2:0:0:0:
215,311,271951,1,2,3:2:0:0:
215,311,272056,6,0,P|141:333|75:294,2,158.400004833985,2|10|2,2:0|2:0|2:0,2:0:0:0:
308,360,272899,1,0,3:0:0:0:
308,360,273004,1,10,2:0:0:0:
403,316,273214,6,0,P|412:237|421:158,1,158.400004833985,2|0,3:2|3:0,0:0:0:0:
421,158,273635,1,10,2:0:0:0:
329,106,273846,1,10,3:2:0:0:
329,106,273951,2,0,P|287:136|235:137,1,105.600003222656,10|0,2:0|3:0,2:0:0:0:
188,111,274267,1,10,2:0:0:0:
120,29,274478,1,2,3:2:0:0:
120,29,274583,6,0,P|82:96|100:171,1,158.400004833985,6|10,2:0|2:0,2:0:0:0:
43,261,275109,1,2,3:2:0:0:
43,261,275214,2,0,B|99:251|99:251|141:273|141:273|194:263,1,158.400004833985,2|10,2:0|2:0,2:0:0:0:
272,191,275741,1,2,3:2:0:0:
272,191,275846,6,0,L|286:86,1,105.600003222656,6|0,2:0|3:0,2:0:0:0:
293,32,276162,2,0,P|340:12|392:20,1,105.600003222656,10|10,2:0|3:2,2:0:0:0:
429,57,276478,2,0,P|442:132|392:190,1,158.400004833985,10|10,2:0|2:0,2:0:0:0:
341,282,277004,1,2,3:2:0:0:
341,282,277109,6,0,P|417:292|480:246,1,158.400004833985,6|10,2:0|2:0,2:0:0:0:
392,190,277635,2,0,L|239:232,1,158.400004833985,2|0,3:2|3:0,0:0:0:0:
239,231,278056,1,10,2:0:0:0:
191,326,278267,1,2,3:2:0:0:
191,326,278372,6,0,P|136:272|142:195,1,158.400004833985,6|10,2:0|2:0,2:0:0:0:
217,120,278899,1,10,3:0:0:0:
217,120,279004,1,14,2:3:0:0:
170,25,279214,1,0,3:0:0:0:
170,25,279320,2,0,L|66:45,1,105.600003222656,10|2,2:0|3:2,2:0:0:0:
14,39,279635,6,0,P|1:114|51:172,1,158.400004833985,6|10,3:2|2:0,2:0:0:0:
26,276,280162,1,2,3:2:0:0:
26,275,280267,2,0,P|78:275|122:302,1,105.600003222656,2|0,2:0|3:0,2:0:0:0:
143,351,280583,1,10,2:0:0:0:
236,303,280793,1,2,3:2:0:0:
236,303,280899,6,0,L|262:146,1,158.400004833985,2|10,2:0|2:0,2:0:0:0:
281,42,281425,1,10,3:2:0:0:
281,41,281530,2,0,P|330:26|381:37,1,105.600003222656,10|0,2:0|3:0,2:0:0:0:
417,76,281846,2,0,P|432:125|421:176,1,105.600003222656,10|2,2:0|3:2,2:0:0:0:
455,217,282162,6,0,P|377:211|316:259,1,158.400004833985,6|10,2:0|2:0,2:0:0:0:
248,340,282688,1,2,3:2:0:0:
248,340,282793,2,0,L|221:237,1,105.600003222656,2|0,2:0|3:0,2:0:0:0:
249,192,283109,2,0,P|269:144|258:93,1,105.600003222656,10|2,2:0|3:2,0:0:0:0:
223,53,283425,6,0,P|147:37|83:80,1,158.400004833985,2|10,2:0|2:0,2:0:0:0:
41,177,283951,1,10,3:2:0:0:
41,177,284056,1,10,2:0:0:0:
117,254,284267,1,0,3:0:0:0:
117,254,284372,2,0,L|221:236,1,105.600003222656,10|2,2:0|3:2,2:0:0:0:
249,192,284688,6,0,B|343:178|300:240|397:222,1,158.400004833985,6|10,3:2|2:0,2:0:0:0:
478,153,285214,1,2,3:2:0:0:
478,153,285320,2,0,P|472:76|409:32,1,158.400004833985,2|10,2:0|2:0,0:0:0:0:
263,105,285951,5,8,2:0:0:0:
244,107,286056,1,8,2:0:0:0:
224,106,286161,1,8,2:0:0:0:
206,101,286267,2,0,L|194:50,2,52.8000016113282,8|8|8,2:0|2:0|2:0,0:0:0:0:
152,30,286583,5,8,2:3:0:0:
133,27,286688,1,8,2:3:0:0:
113,28,286793,1,8,2:3:0:0:
95,33,286899,2,0,L|82:84,2,52.8000016113282,4|4|4,2:3|2:3|2:3,0:0:0:0:
106,119,287214,6,0,B|89:193|89:193|118:242|118:242|99:341|99:341|142:300|202:316,1,345.6,4|2,2:0|2:0,2:0:0:0:
341,358,288478,1,8,2:3:0:0:
418,300,288688,2,0,P|487:311|529:367,2,144,8|8|8,2:3|2:3|2:3,2:0:0:0:
418,300,289425,1,4,2:3:0:0:
251,255,289741,6,0,P|211:196|220:126,1,144,4|10,2:0|2:0,2:0:0:0:
314,106,290267,1,2,3:2:0:0:
314,106,290372,2,0,P|353:164|344:234,1,144,2|10,2:0|2:0,0:0:0:0:
362,378,291004,5,2,2:0:0:0:
276,334,291214,1,0,3:0:0:0:
277,334,291320,2,0,P|229:342|182:349,1,96,10|2,2:0|3:2,2:0:0:0:
142,376,291635,2,0,P|92:328|96:258,1,144,2|10,2:0|2:0,2:0:0:0:
60,169,292162,1,2,3:2:0:0:
60,169,292267,6,0,B|109:160|109:160|139:175|139:175|198:164,1,144,2|10,2:0|2:0,2:0:0:0:
285,204,292793,1,2,3:2:0:0:
285,204,292899,2,0,P|291:156|297:108,1,96,2|0,2:0|3:0,2:0:0:0:
301,61,293214,1,10,2:0:0:0:
386,16,293425,1,2,3:2:0:0:
386,16,293530,6,0,P|433:13|476:33,1,96,2|0,2:0|3:0,2:0:0:0:
490,80,293846,2,0,P|480:127|470:174,1,96,10|2,2:0|3:2,2:0:0:0:
491,216,294162,2,0,P|429:246|368:213,1,144,2|10,2:0|2:0,2:0:0:0:
295,150,294688,1,2,3:2:0:0:
295,150,294793,6,0,B|231:164|231:164|224:175|224:175|160:190,1,144,6|10,2:0|2:0,2:0:0:0:
142,322,295320,1,2,3:2:0:0:
142,321,295425,2,0,P|175:259|160:190,1,144,2|10,2:0|2:0,2:0:0:0:
64,179,295951,1,2,3:2:0:0:
64,179,296056,6,0,P|30:241|45:310,1,144,2|10,2:0|2:0,2:0:0:0:
220,368,296688,2,0,L|314:349,1,96,2|0,2:0|3:0,2:0:0:0:
357,369,297004,2,0,P|374:326|362:280,1,96,10|2,2:0|3:2,2:0:0:0:
336,238,297320,6,0,P|405:248|462:207,1,144,2|10,2:0|2:0,2:0:0:0:
440,113,297846,1,2,3:2:0:0:
440,113,297951,2,0,P|370:103|313:144,1,144,2|10,2:0|2:0,2:0:0:0:
222,256,298583,6,0,L|205:112,1,144,2|10,2:0|2:0,2:0:0:0:
256,31,299109,1,10,3:0:0:0:
256,31,299214,2,0,P|209:42|164:28,1,96,6|0,2:3|3:0,2:0:0:0:
164,28,299530,1,10,2:0:0:0:
69,46,299741,1,2,3:2:0:0:
69,46,299846,6,0,B|103:90|103:90|88:177,1,144,6|10,3:2|2:0,2:0:0:0:
71,271,300372,1,2,3:2:0:0:
71,271,300478,2,0,P|123:224|193:230,1,144,2|10,2:0|2:0,0:0:0:0:
273,282,301004,1,2,3:2:0:0:
273,282,301109,6,0,P|281:234|289:187,1,96,2|0,2:0|3:0,2:0:0:0:
297,139,301425,1,10,2:0:0:0:
263,49,301635,1,2,3:2:0:0:
264,48,301741,2,0,P|310:40|355:55,1,96,2|0,2:0|3:0,2:0:0:0:
387,91,302056,1,10,2:0:0:0:
464,34,302267,1,2,3:2:0:0:
464,34,302372,6,0,B|478:114|478:114|458:138|457:171,1,144,2|10,2:0|2:0,2:0:0:0:
507,254,302899,1,2,3:2:0:0:
507,254,303004,2,0,P|442:226|378:254,1,144,2|10,2:0|2:0,2:0:0:0:
311,323,303530,1,2,3:2:0:0:
311,323,303635,6,0,P|265:320|230:285,1,96,2|0,2:0|3:0,2:0:0:0:
230,286,303951,1,10,2:0:0:0:
286,208,304162,1,2,3:2:0:0:
286,208,304267,2,0,L|303:113,1,96,2|0,2:0|3:0,2:0:0:0:
316,67,304583,1,10,2:0:0:0:
211,26,304793,1,2,3:2:0:0:
211,26,304899,6,0,P|140:20|83:61,1,144,6|10,3:2|2:0,2:0:0:0:
116,152,305425,1,2,3:2:0:0:
116,152,305530,2,0,L|101:246,1,96,2|0,2:0|3:0,2:0:0:0:
93,294,305846,1,10,2:0:0:0:
163,359,306056,1,2,3:2:0:0:
163,359,306162,6,0,B|214:348|214:348|248:367|248:367|299:356,1,144,2|10,2:0|2:0,2:0:0:0:
394,369,306688,1,2,3:2:0:0:
393,368,306793,2,0,P|388:321|406:277,1,96,2|0,2:0|3:0,2:0:0:0:
452,262,307109,2,0,P|469:217|464:170,1,96,10|2,2:0|3:2,2:0:0:0:
446,125,307425,2,0,P|382:95|315:117,1,144,2|10,2:0|2:0,2:0:0:0:
255,192,307951,1,10,3:0:0:0:
255,192,308056,1,10,2:3:0:0:
166,154,308267,1,0,3:0:0:0:
166,154,308372,2,0,L|143:248,1,96,10|0,2:0|3:0,0:0:0:0:
118,288,308688,6,0,B|177:254|248:280|253:344|253:344|219:344|207:319,1,230.4,4|0,2:0|2:0,2:0:0:0:
245,29,309846,5,0,2:0:0:0:
245,29,309951,1,0,3:0:0:0:
312,97,310162,2,0,P|381:109|442:73,1,144,8|8,2:0|2:3,2:0:0:0:
479,42,310583,1,8,2:3:0:0:
510,132,310793,1,8,2:0:0:0:
496,178,310899,1,8,2:0:0:0:
428,246,311109,1,8,2:3:0:0:
441,291,311214,2,0,P|394:298|358:327,1,96,8|0,2:3|0:0,2:0:0:0:
358,327,311530,1,2,2:1:0:0:
263,308,311741,5,4,2:0:0:0:
256,192,311846,12,0,316267,2:0:0:0:
