osu file format v14

[General]
AudioFilename: audio.mp3
AudioLeadIn: 0
PreviewTime: 162793
Countdown: 0
SampleSet: Soft
StackLeniency: 0.7
Mode: 0
LetterboxInBreaks: 0
WidescreenStoryboard: 0

[Editor]
Bookmarks: 311741,314004,316267
DistanceSpacing: 1
BeatDivisor: 1
GridSize: 32
TimelineZoom: 1.26

[Metadata]
Title:Koi, Hitokuchi.
TitleUnicode:恋、ひとくち。
Artist:Yuizuki Sora
ArtistUnicode:結月そら
Creator:Shizuku-
Version:Easy
Source:恋ニ、甘味ヲソエテ
Tags:galgame 宮坂なこ 宮坂みゆ Koi ni Kanmi o Soete Love's Sweet Garnish canvas+garden eroge japanese video game
BeatmapID:2261622
BeatmapSetID:1045588

[Difficulty]
HPDrainRate:3
CircleSize:2.5
OverallDifficulty:3
ApproachRate:4
SliderMultiplier:0.88
SliderTickRate:0.5

[Events]
//Background and Video events
0,0,"ve_rr03_a.jpg",0,0
//Break Periods
2,117951,126736
2,224056,231579
//Storyboard Layer 0 (Background)
//Storyboard Layer 1 (Fail)
//Storyboard Layer 2 (Pass)
//Storyboard Layer 3 (Foreground)
//Storyboard Layer 4 (Overlay)
//Storyboard Sound Samples

[TimingPoints]
478,315.789473684211,4,2,1,40,1,0
1741,-100,4,2,1,60,0,0
6793,-100,4,2,6,60,0,0
11109,-100,4,2,1,60,0,0
16898,-100,4,2,6,60,0,0
19951,-100,4,2,2,60,0,0
20056,-100,4,2,1,60,0,0
20688,-100,4,2,2,60,0,0
21951,-100,4,2,3,50,0,0
31424,-100,4,2,4,50,0,0
31740,-100,4,2,3,50,0,0
40898,-100,4,2,2,60,0,0
41109,-100,4,2,1,60,0,0
41530,-100,4,2,2,60,0,0
41741,-100,4,2,1,60,0,0
41846,-100,4,2,1,60,0,0
42162,-100,4,2,1,60,0,0
46898,-100,4,2,5,60,0,0
47108,-100,4,2,6,60,0,0
51004,-100,4,2,1,60,0,0
51319,-100,4,2,2,60,0,0
51529,-100,4,2,1,60,0,0
51951,-100,4,2,3,60,0,0
52056,-100,4,2,1,60,0,0
57319,-100,4,2,6,60,0,0
62898,-100,4,2,6,60,0,0
63635,-100,4,2,6,60,0,0
63846,-100,4,2,6,60,0,0
64267,-100,4,2,2,60,0,0
64372,-100,4,2,1,60,0,0
64583,-100,4,2,2,60,0,0
64688,-100,4,2,1,60,0,0
64898,-100,4,2,6,60,0,0
65214,-100,4,2,6,60,0,0
65530,-100,4,2,6,60,0,0
66477,-100,4,2,6,60,0,0
67425,-100,4,2,3,70,0,1
67635,-100,4,2,1,70,0,1
69004,-100,4,2,7,70,0,1
69214,-100,4,2,8,70,0,1
69635,-100,4,2,1,70,0,1
71530,-100,4,2,7,70,0,1
71741,-100,4,2,8,70,0,1
72162,-100,4,2,6,70,0,1
73109,-100,4,2,6,70,0,1
73741,-100,4,2,5,70,0,1
73951,-100,4,2,1,70,0,1
74056,-100,4,2,7,70,0,1
74266,-100,4,2,8,70,0,1
74372,-100,4,2,8,70,0,1
74688,-100,4,2,6,70,0,1
75004,-100,4,2,6,70,0,1
76267,-100,4,2,6,70,0,1
76583,-100,4,2,7,70,0,1
76793,-100,4,2,4,70,0,1
76898,-100,4,2,5,70,0,1
77108,-100,4,2,1,70,0,1
77214,-100,4,2,1,70,0,1
77530,-100,4,2,1,70,0,1
78162,-100,4,2,1,70,0,1
78793,-100,4,2,1,70,0,1
79108,-100,4,2,7,70,0,1
79319,-100,4,2,8,70,0,1
79425,-100,4,2,8,70,0,1
79741,-100,4,2,1,70,0,1
80056,-100,4,2,5,70,0,1
80266,-100,4,2,1,70,0,1
81634,-100,4,2,7,70,0,1
81846,-100,4,2,8,70,0,1
82267,-100,4,2,6,70,0,1
83846,-100,4,2,5,70,0,1
84056,-100,4,2,1,70,0,1
84162,-100,4,2,7,70,0,1
84372,-100,4,2,8,70,0,1
84477,-100,4,2,8,70,0,1
84793,-100,4,2,6,70,0,1
85109,-100,4,2,6,70,0,1
85636,-100,4,2,2,70,0,1
85741,-100,4,2,1,70,0,1
86372,-100,4,2,2,70,0,1
86688,-100,4,2,8,70,0,1
86898,-100,4,2,6,70,0,1
87004,-100,4,2,4,70,0,1
87319,-100,4,2,1,70,0,1
87635,-100,4,2,3,70,0,1
87845,-100,4,2,1,70,0,1
89214,-100,4,2,7,70,0,1
89424,-100,4,2,8,70,0,1
89846,-100,4,2,1,70,0,1
91741,-100,4,2,7,70,0,1
91951,-100,4,2,8,70,0,1
92372,-100,4,2,6,70,0,1
93319,-100,4,2,6,70,0,1
93951,-100,4,2,5,70,0,1
94161,-100,4,2,1,70,0,1
94267,-100,4,2,7,70,0,1
94477,-100,4,2,8,70,0,1
94583,-100,4,2,8,70,0,1
94898,-100,4,2,6,70,0,1
95214,-100,4,2,6,70,0,1
96477,-100,4,2,6,70,0,1
96793,-100,4,2,7,70,0,1
97003,-100,4,2,4,70,0,1
97109,-100,4,2,5,70,0,1
97319,-100,4,2,1,70,0,1
97425,-100,4,2,1,70,0,1
97741,-100,4,2,1,70,0,1
98371,-100,4,2,1,70,0,1
99319,-100,4,2,7,70,0,1
99530,-100,4,2,8,70,0,1
99951,-100,4,2,1,70,0,1
100267,-100,4,2,5,70,0,1
100793,-100,4,2,1,70,0,1
101845,-100,4,2,7,70,0,1
102056,-100,4,2,8,70,0,1
102477,-100,4,2,6,70,0,1
104372,-100,4,2,8,70,0,1
104688,-100,4,2,1,70,0,1
105320,-100,4,2,2,60,0,0
105951,-100,4,2,3,60,0,0
106267,-100,4,2,3,60,0,0
106583,-100,4,2,2,60,0,0
107108,-100,4,2,1,60,0,0
107846,-100,4,2,1,60,0,0
112898,-100,4,2,6,60,0,0
115951,-100,4,2,2,60,0,0
116056,-100,4,2,1,60,0,0
116688,-100,4,2,2,60,0,0
117951,-100,4,2,3,50,0,0
127425,-100,4,2,9,50,0,0
127741,-100,4,2,3,50,0,0
128056,-100,4,2,3,50,0,0
136898,-100,4,2,2,60,0,0
137109,-100,4,2,1,60,0,0
137530,-100,4,2,2,60,0,0
137741,-100,4,2,1,60,0,0
137846,-100,4,2,1,60,0,0
138162,-100,4,2,1,60,0,0
142898,-100,4,2,5,60,0,0
143108,-100,4,2,6,60,0,0
147004,-100,4,2,1,60,0,0
147319,-100,4,2,2,60,0,0
147529,-100,4,2,1,60,0,0
147951,-100,4,2,3,60,0,0
148056,-100,4,2,1,60,0,0
155846,-100,4,2,6,60,0,0
158898,-100,4,2,6,60,0,0
159635,-100,4,2,6,60,0,0
159846,-100,4,2,6,60,0,0
160267,-100,4,2,2,60,0,0
160372,-100,4,2,1,60,0,0
160583,-100,4,2,2,60,0,0
160688,-100,4,2,1,60,0,0
160898,-100,4,2,6,60,0,0
161214,-100,4,2,6,60,0,0
161530,-100,4,2,6,60,0,0
162477,-100,4,2,6,60,0,0
163425,-100,4,2,3,70,0,1
163635,-100,4,2,1,70,0,1
165004,-100,4,2,7,70,0,1
165214,-100,4,2,8,70,0,1
165635,-100,4,2,1,70,0,1
167530,-100,4,2,7,70,0,1
167741,-100,4,2,8,70,0,1
168162,-100,4,2,6,70,0,1
169109,-100,4,2,6,70,0,1
169741,-100,4,2,5,70,0,1
169951,-100,4,2,1,70,0,1
170056,-100,4,2,7,70,0,1
170266,-100,4,2,8,70,0,1
170372,-100,4,2,8,70,0,1
170688,-100,4,2,6,70,0,1
171004,-100,4,2,6,70,0,1
172267,-100,4,2,6,70,0,1
172583,-100,4,2,7,70,0,1
172793,-100,4,2,4,70,0,1
172898,-100,4,2,5,70,0,1
173108,-100,4,2,1,70,0,1
173214,-100,4,2,1,70,0,1
173530,-100,4,2,1,70,0,1
174162,-100,4,2,1,70,0,1
174793,-100,4,2,1,70,0,1
175108,-100,4,2,7,70,0,1
175319,-100,4,2,8,70,0,1
175425,-100,4,2,8,70,0,1
175741,-100,4,2,1,70,0,1
176056,-100,4,2,5,70,0,1
176266,-100,4,2,1,70,0,1
177634,-100,4,2,7,70,0,1
177846,-100,4,2,8,70,0,1
178267,-100,4,2,6,70,0,1
179846,-100,4,2,5,70,0,1
180056,-100,4,2,1,70,0,1
180162,-100,4,2,7,70,0,1
180372,-100,4,2,8,70,0,1
180477,-100,4,2,8,70,0,1
180793,-100,4,2,6,70,0,1
181109,-100,4,2,6,70,0,1
181636,-100,4,2,2,70,0,1
181741,-100,4,2,1,70,0,1
182372,-100,4,2,2,70,0,1
182688,-100,4,2,8,70,0,1
182898,-100,4,2,6,70,0,1
183004,-100,4,2,4,70,0,1
183319,-100,4,2,1,70,0,1
183635,-100,4,2,3,70,0,1
183845,-100,4,2,1,70,0,1
185214,-100,4,2,7,70,0,1
185424,-100,4,2,8,70,0,1
185846,-100,4,2,1,70,0,1
187741,-100,4,2,7,70,0,1
187951,-100,4,2,8,70,0,1
188372,-100,4,2,6,70,0,1
189319,-100,4,2,6,70,0,1
189951,-100,4,2,5,70,0,1
190161,-100,4,2,1,70,0,1
190267,-100,4,2,7,70,0,1
190477,-100,4,2,8,70,0,1
190583,-100,4,2,8,70,0,1
190898,-100,4,2,6,70,0,1
191214,-100,4,2,6,70,0,1
192477,-100,4,2,6,70,0,1
192793,-100,4,2,7,70,0,1
193003,-100,4,2,4,70,0,1
193109,-100,4,2,5,70,0,1
193319,-100,4,2,1,70,0,1
193425,-100,4,2,1,70,0,1
193741,-100,4,2,1,70,0,1
194372,-100,4,2,1,70,0,1
195319,-100,4,2,7,70,0,1
195530,-100,4,2,8,70,0,1
195951,-100,4,2,1,70,0,1
196267,-100,4,2,5,70,0,1
196793,-100,4,2,1,70,0,1
197845,-100,4,2,7,70,0,1
198056,-100,4,2,8,70,0,1
198477,-100,4,2,6,70,0,1
200372,-100,4,2,8,70,0,1
200688,-100,4,2,1,70,0,1
201320,-100,4,2,2,60,0,0
201635,-100,4,2,8,60,0,0
202583,-100,4,2,2,60,0,0
202793,-100,4,2,1,60,0,0
203846,-100,4,2,6,60,0,0
213214,-100,4,2,1,60,0,0
213635,-100,4,2,3,60,0,0
213845,-100,4,2,1,60,0,0
213951,-100,4,2,6,60,0,0
218688,-100,4,2,5,60,0,0
218899,-100,4,2,6,60,0,0
222792,-100,4,2,1,60,0,0
224056,-100,4,2,3,50,0,0
233846,-100,4,2,3,50,0,0
234162,-100,4,2,1,60,0,0
239214,-100,4,2,1,60,0,0
243635,-100,4,2,2,60,0,0
243740,-100,4,2,1,60,0,0
243951,-100,4,2,2,60,0,0
244056,-100,4,2,1,60,0,0
244267,-100,4,2,6,70,0,0
246162,-100,4,2,2,70,0,0
246267,-100,4,2,1,70,0,0
246477,-100,4,2,2,70,0,0
246582,-100,4,2,1,70,0,0
246793,-100,4,2,4,70,0,0
247741,-100,4,2,1,70,0,0
249319,-100,4,2,2,70,0,0
250583,-100,4,2,7,70,0,1
250793,-100,4,2,1,70,0,1
250898,-100,4,2,7,70,0,1
251109,-100,4,2,8,70,0,1
251530,-100,4,2,1,70,0,1
253425,-100,4,2,7,70,0,1
253635,-100,4,2,8,70,0,1
254056,-100,4,2,6,70,0,1
255004,-100,4,2,6,70,0,1
255635,-100,4,2,5,70,0,1
255845,-100,4,2,1,70,0,1
255951,-100,4,2,7,70,0,1
256161,-100,4,2,8,70,0,1
256267,-100,4,2,8,70,0,1
256581,-100,4,2,6,70,0,1
256583,-100,4,2,6,70,0,1
256898,-100,4,2,6,70,0,1
258162,-100,4,2,6,70,0,1
258477,-100,4,2,7,70,0,1
258687,-100,4,2,4,70,0,1
258793,-100,4,2,5,70,0,1
259003,-100,4,2,1,70,0,1
259109,-100,4,2,1,70,0,1
259425,-100,4,2,1,70,0,1
260056,-100,4,2,1,70,0,1
261003,-100,4,2,7,70,0,1
261214,-100,4,2,8,70,0,1
261635,-100,4,2,1,70,0,1
261951,-100,4,2,5,70,0,1
262161,-100,4,2,1,70,0,1
263529,-100,4,2,7,70,0,1
263741,-100,4,2,8,70,0,1
264162,-100,4,2,6,70,0,1
265741,-100,4,2,5,70,0,1
265951,-100,4,2,1,70,0,1
266056,-100,4,2,7,70,0,1
266266,-100,4,2,8,70,0,1
266372,-100,4,2,8,70,0,1
266688,-100,4,2,6,70,0,1
267004,-100,4,2,6,70,0,1
267530,-100,4,2,2,70,0,1
267635,-100,4,2,1,70,0,1
268267,-100,4,2,2,70,0,1
268583,-100,4,2,8,70,0,1
268793,-100,4,2,6,70,0,1
268898,-100,4,2,4,70,0,1
269215,-100,4,2,1,70,0,1
269530,-100,4,2,3,70,0,1
269740,-100,4,2,1,70,0,1
271109,-100,4,2,7,70,0,1
271319,-100,4,2,8,70,0,1
271741,-100,4,2,1,70,0,1
273635,-100,4,2,7,70,0,1
273846,-100,4,2,8,70,0,1
274267,-100,4,2,6,70,0,1
275846,-100,4,2,5,70,0,1
276056,-100,4,2,1,70,0,1
276162,-100,4,2,7,70,0,1
276372,-100,4,2,8,70,0,1
276477,-100,4,2,8,70,0,1
276793,-100,4,2,6,70,0,1
277109,-100,4,2,6,70,0,1
278372,-100,4,2,6,70,0,1
278688,-100,4,2,7,70,0,1
278898,-100,4,2,4,70,0,1
279004,-100,4,2,5,70,0,1
279214,-100,4,2,1,70,0,1
279319,-100,4,2,1,70,0,1
279635,-100,4,2,1,70,0,1
280267,-100,4,2,1,70,0,1
281213,-100,4,2,7,70,0,1
281425,-100,4,2,8,70,0,1
281844,-100,4,2,1,70,0,1
281846,-100,4,2,1,70,0,1
282162,-100,4,2,5,70,0,1
282688,-100,4,2,1,70,0,1
283740,-100,4,2,7,70,0,1
283951,-100,4,2,8,70,0,1
284372,-100,4,2,6,70,0,1
286267,-100,4,2,8,70,0,1
286583,-100,4,2,1,70,0,1
287214,-100,4,2,2,70,0,0
287529,-100,4,2,3,60,0,0
288477,-100,4,2,2,60,0,0
289003,-100,4,2,1,60,0,0
289741,-100,4,2,1,60,0,0
294793,-100,4,2,6,60,0,0
299109,-100,4,2,1,60,0,0
304898,-100,4,2,6,60,0,0
307951,-100,4,2,2,60,0,0
308056,-100,4,2,1,60,0,0
308688,-100,4,2,5,60,0,0
309951,-100,4,2,2,60,0,0
310162,-100,4,2,2,60,0,0
310583,-100,4,2,1,60,0,0
310899,-100,4,2,1,60,0,0
311109,-100,4,2,2,60,0,0
311214,-100,4,2,1,60,0,0
311320,-100,4,2,6,5,0,0
311530,-100,4,2,1,60,0,0
311741,-100,4,2,2,60,0,0
316267,-100,4,2,2,5,0,0

[Colours]
Combo1 : 204,187,222
Combo2 : 252,160,171
Combo3 : 255,211,180

[HitObjects]
249,358,478,6,0,P|316:307|401:322,1,176,8|8,2:0|2:0,2:0:0:0:
458,155,1741,6,0,P|373:170|305:118,1,176,4|2,2:0|2:0,2:0:0:0:
159,19,3004,2,0,L|143:106,1,88,2|10,2:0|2:0,2:0:0:0:
180,185,3635,2,0,L|164:272,1,88,2|10,2:0|2:0,2:0:0:0:
190,355,4267,2,0,P|119:305|35:320,1,176,2|2,2:0|2:0,2:0:0:0:
26,144,5530,2,0,L|113:128,1,88,2|10,2:0|2:0,2:0:0:0:
180,185,6162,2,0,L|267:169,1,88,2|10,2:0|2:0,2:0:0:0:
334,225,6793,6,0,P|400:173|397:88,2,176,6|2|2,2:0|2:0|2:0,2:0:0:0:
227,366,8688,2,0,L|140:353,1,88,2|10,2:0|2:0,2:0:0:0:
52,340,9320,2,0,P|22:258|43:174,1,176,2|2,2:0|2:0,2:0:0:0:
218,158,10583,2,0,P|247:239|226:323,1,176,2|6,2:0|2:3,2:0:0:0:
398,360,11846,6,0,B|408:302|408:302|389:248|389:248|397:188,1,176,6|2,3:2|2:0,2:0:0:0:
469,28,13109,2,0,P|433:51|389:53,1,88,2|10,2:0|2:0,2:0:0:0:
309,17,13741,2,0,L|292:103,1,88,2|10,2:0|2:0,2:0:0:0:
271,188,14372,2,0,B|167:162|211:242|106:220,1,176,2|2,2:0|2:0,2:0:0:0:
34,62,15635,2,0,P|71:40|115:41,1,88,2|10,2:0|2:0,2:0:0:0:
185,94,16267,2,0,L|272:76,1,88,2|10,2:0|2:0,2:0:0:0:
347,31,16899,6,0,P|431:45|485:112,2,176,6|2|2,3:2|2:0|2:0,2:0:0:0:
257,182,18793,2,0,L|275:269,1,88,2|10,2:0|2:0,2:0:0:0:
331,335,19425,2,0,P|415:320|469:253,2,176,2|10|6,2:0|2:3|3:2,2:0:0:0:
135,42,21951,5,0,3:0:0:0:
59,86,22267,2,0,P|31:168|56:251,1,176,10|10,2:0|2:0,2:0:0:0:
112,318,23214,1,2,3:2:0:0:
280,267,23846,2,0,L|366:285,1,88,2|10,2:0|2:0,2:0:0:0:
405,205,24478,2,0,P|452:275|423:354,2,176,2|2|2,3:2|2:0|3:2,2:0:0:0:
465,39,26372,2,0,L|378:54,1,88,2|10,2:0|2:0,2:0:0:0:
295,23,27004,6,0,P|234:82|149:74,2,176,2|2|2,3:2|2:0|3:2,2:0:0:0:
260,195,28899,2,0,L|275:282,1,88,2|10,2:0|2:0,0:0:0:0:
335,345,29530,2,0,B|240:323|261:390|166:372,1,176,2|2,3:2|2:0,2:0:0:0:
16,280,30793,2,0,P|-1:240|1:196,2,88,2|10|2,3:2|2:0|2:0,2:0:0:0:
167,371,32056,6,0,P|215:300|299:281,1,176,2|2,3:2|2:0,2:0:0:0:
468,332,33320,2,0,L|447:157,1,176,2|2,3:2|2:0,2:0:0:0:
438,69,34267,1,10,2:0:0:0:
366,120,34583,2,0,P|277:120|216:63,2,176,2|2|2,3:2|2:0|3:2,2:0:0:0:
461,268,36478,2,0,L|373:278,1,88,2|10,2:0|2:0,2:0:0:0:
316,345,37109,6,0,B|216:360|256:281|155:296,1,176,2|2,3:2|2:0,2:0:0:0:
36,167,38372,2,0,P|14:128|12:85,1,88,2|10,3:2|2:0,2:0:0:0:
95,56,39004,2,0,P|116:94|118:137,1,88,2|10,2:0|2:0,0:0:0:0:
182,198,39635,2,0,P|268:198|334:143,1,176,2|0,3:2|0:0,2:0:0:0:
443,351,41109,2,0,B|471:312|471:312|460:244,1,117.333333333333,8|8,2:3|2:3,2:0:0:0:
483,158,41846,1,4,2:3:0:0:
511,73,42162,6,0,P|428:84|393:161,1,176,6|2,3:2|2:0,2:0:0:0:
321,288,43320,2,0,L|204:272,1,117.333333333333,2|10,3:2|2:0,0:0:0:0:
140,332,44056,2,0,P|119:293|120:250,1,88,2|10,2:0|2:0,0:0:0:0:
177,182,44688,2,0,P|95:207|22:164,2,176,2|2|2,2:0|2:0|2:0,2:0:0:0:
284,42,46583,2,0,L|375:28,1,88,2|14,2:0|2:0,0:0:0:0:
456,49,47214,6,0,P|465:133|406:194,1,176,6|2,2:0|2:0,2:0:0:0:
249,112,48478,2,0,B|188:103|188:103|140:127|140:127|80:117,1,176,2|2,2:0|2:0,2:0:0:0:
33,192,49425,1,10,2:0:0:0:
47,278,49741,2,0,P|111:332|194:315,1,176,2|2,2:0|2:0,2:0:0:0:
236,142,51004,2,0,P|300:88|383:105,1,176,2|4,2:1|2:3,2:0:0:0:
452,162,51951,1,8,2:3:0:0:
439,249,52267,6,0,B|391:241|372:200|372:200|287:227,1,176,6|2,3:2|2:0,2:0:0:0:
121,289,53530,2,0,P|69:220|76:134,1,176,2|2,2:0|2:0,2:0:0:0:
128,63,54478,1,10,2:0:0:0:
214,76,54793,2,0,L|387:40,1,176,2|2,2:0|2:0,2:0:0:0:
484,186,56056,2,0,P|488:270|424:325,1,176,2|10,2:0|2:0,2:0:0:0:
338,345,57004,1,10,2:0:0:0:
263,297,57320,6,0,L|241:122,1,176,6|2,2:0|2:0,2:0:0:0:
216,37,58267,1,10,2:0:0:0:
130,17,58583,2,0,P|45:27|2:100,1,176,2|2,2:0|2:0,2:0:0:0:
160,178,59846,6,0,L|335:156,1,176,6|2,3:2|2:0,2:0:0:0:
418,127,60793,1,10,2:0:0:0:
490,177,61109,2,0,P|494:262|433:321,1,176,2|2,2:0|2:0,2:0:0:0:
263,275,62372,6,0,B|211:282|211:282|178:316|178:316|131:324,1,146.666666666667,6|2,3:2|3:2,0:0:0:0:
33,260,63320,2,0,P|20:174|68:103,1,176,14|0,2:0|0:0,0:0:0:0:
154,123,64267,2,0,L|241:106,1,88,8|8,2:3|2:3,2:0:0:0:
314,57,64899,2,0,P|357:60|395:82,1,88,12|8,2:0|2:0,2:0:0:0:
427,164,65530,2,0,L|409:309,1,146.666666666667,8|10,2:0|2:0,2:0:0:0:
208,359,66793,2,0,P|194:318|195:275,1,88,0|0,2:0|2:0,2:0:0:0:
260,215,67425,6,0,P|176:233|108:182,1,176,4|2,2:0|2:0,2:0:0:0:
20,64,68583,2,0,L|2:182,1,117.333333333333,2|10,3:2|2:0,0:0:0:0:
47,255,69320,2,0,L|33:343,1,88,10|10,2:0|2:0,0:0:0:0:
120,358,69951,6,0,L|133:271,2,88,2|10|2,2:0|2:0|2:0,2:0:0:0:
264,329,71109,2,0,B|307:324|307:324|332:339|332:339|378:333,1,117.333333333333,2|10,3:2|2:0,0:0:0:0:
451,379,71846,2,0,P|463:337|455:294,1,88,10|10,2:0|2:0,2:0:0:0:
381,245,72478,6,0,P|357:162|396:85,1,176,6|2,2:0|2:0,2:0:0:0:
235,13,73741,2,0,L|149:27,1,88,6|10,2:0|2:0,2:0:0:0:
61,44,74372,2,0,P|45:84|51:127,1,88,10|10,2:0|2:0,2:0:0:0:
18,209,75004,2,0,P|99:184|171:231,1,176,6|2,2:0|2:0,2:0:0:0:
296,355,76267,2,0,L|382:337,1,88,6|10,2:0|2:0,2:0:0:0:
466,366,76899,2,0,L|483:279,1,88,14|10,2:3|2:0,2:0:0:0:
491,192,77530,6,0,P|409:213|342:160,2,176,6|2|2,3:2|2:0|2:0,2:0:0:0:
414,33,79425,2,0,L|327:51,1,88,10|10,2:0|2:0,2:0:0:0:
246,16,80056,2,0,P|200:88|215:173,1,176,6|2,2:0|2:0,2:0:0:0:
323,313,81320,2,0,B|265:304|265:304|211:328|211:328|153:317,1,176,2|10,2:0|2:0,2:0:0:0:
73,354,82267,1,10,2:0:0:0:
4,296,82583,6,0,P|-6:212|48:145,1,176,6|2,3:2|2:0,2:0:0:0:
214,205,83846,2,0,L|300:190,1,88,6|10,2:0|2:0,2:0:0:0:
381,226,84478,2,0,L|395:139,1,88,10|10,2:0|2:0,2:0:0:0:
460,80,85109,2,0,P|388:80|333:33,1,146.666666666667,6|10,2:0|3:0,2:0:0:0:
224,79,86056,1,10,2:0:0:0:
143,42,86372,2,0,B|99:12|37:37|29:85|29:85|43:115,1,176,6|10,3:2|2:3,2:0:0:0:
79,195,87320,1,2,2:0:0:0:
120,272,87635,6,0,B|233:257|172:323|286:303,1,176,4|2,2:0|2:0,2:0:0:0:
412,377,88793,2,0,P|436:324|430:266,1,117.333333333333,2|10,3:2|2:0,0:0:0:0:
482,195,89530,2,0,L|471:107,1,88,10|10,2:0|2:0,0:0:0:0:
416,38,90162,2,0,P|455:19|498:21,2,88,2|10|2,2:0|2:0|2:0,2:0:0:0:
273,4,91320,2,0,L|260:120,1,117.333333333333,2|10,3:2|2:0,0:0:0:0:
318,185,92056,2,0,P|333:225|326:268,1,88,10|10,2:0|2:0,2:0:0:0:
265,332,92688,6,0,P|182:352|112:302,1,176,6|2,2:0|2:0,2:0:0:0:
85,128,93951,2,0,L|-2:146,2,88,6|10|10,2:0|2:0|2:0,2:0:0:0:
147,65,94899,1,8,0:0:0:0:
230,92,95214,2,0,P|290:130|389:103,1,176,6|2,2:0|3:2,2:0:0:0:
415,21,96162,1,10,2:0:0:0:
500,40,96478,2,0,L|486:126,1,88,6|10,2:0|2:0,2:0:0:0:
497,217,97109,2,0,L|483:303,1,88,14|10,2:3|2:0,2:0:0:0:
421,367,97741,6,0,P|337:349|301:272,1,176,6|2,3:2|2:0,2:0:0:0:
356,105,99004,2,0,P|319:28|236:10,1,176,2|10,2:0|2:0,2:0:0:0:
155,45,99951,1,10,2:0:0:0:
68,30,100267,6,0,B|55:98|55:98|76:139|76:139|65:198,1,176,6|2,2:0|2:0,2:0:0:0:
52,374,101530,2,0,P|110:311|196:306,1,176,2|10,2:0|2:0,2:0:0:0:
269,357,102478,1,10,2:0:0:0:
354,373,102793,2,0,P|415:314|405:230,1,176,6|2,3:2|2:0,2:0:0:0:
478,70,104056,6,0,P|436:78|394:64,1,88,8|8,2:0|2:0,0:0:0:0:
316,23,104688,2,0,P|274:9|231:17,1,88,8|4,2:3|2:3,0:0:0:0:
160,70,105320,2,0,P|128:149|162:228,1,176,4|2,2:0|2:0,2:0:0:0:
336,203,106583,2,0,B|432:192|432:192|455:206|462:230,1,146.666666666667,8|8,2:3|2:3,0:0:0:0:
416,338,107530,1,4,2:3:0:0:
334,303,107846,6,0,B|237:282|269:359|171:338,1,176,4|2,2:0|2:0,2:0:0:0:
60,198,109109,2,0,P|37:162|34:118,1,88,2|10,2:0|2:0,2:0:0:0:
118,91,109741,2,0,P|141:127|144:171,1,88,2|10,2:0|2:0,2:0:0:0:
217,220,110372,2,0,P|302:220|364:161,1,176,2|2,2:0|2:0,2:0:0:0:
465,15,111635,2,0,L|449:101,1,88,2|10,2:0|2:0,2:0:0:0:
498,174,112267,2,0,L|482:260,1,88,2|10,2:0|2:0,0:0:0:0:
495,347,112899,6,0,P|410:355|348:297,2,176,6|2|2,3:2|2:0|2:0,2:0:0:0:
498,174,114793,2,0,L|411:192,1,88,2|10,2:0|2:0,2:0:0:0:
332,153,115425,2,0,B|228:136|274:211|168:187,2,176,2|10|6,2:0|2:3|3:2,2:0:0:0:
199,305,128056,6,0,P|114:310|56:247,1,176,0|0,3:0|3:0,2:0:0:0:
119,82,129320,2,0,P|203:76|261:139,1,176,0|8,3:0|2:0,0:0:0:0:
294,220,130267,1,0,3:0:0:0:
327,301,130583,2,0,P|384:363|469:358,2,176,0|0|0,3:0|3:0|3:0,2:0:0:0:
427,156,132478,2,0,L|417:68,1,88,0|8,3:0|2:0,2:0:0:0:
348,12,133109,6,0,B|298:20|277:59|277:59|241:32|193:43,1,176,0|0,3:0|3:0,2:0:0:0:
62,160,134372,2,0,P|40:199|38:242,1,88,0|0,3:0|3:0,0:0:0:0:
71,323,135004,2,0,P|109:344|152:346,1,88,0|0,3:0|3:0,2:0:0:0:
237,370,135635,2,0,L|260:195,1,176,0|0,3:0|3:0,2:0:0:0:
86,37,137109,2,0,B|125:65|125:65|193:54,1,117.333333333333,8|8,2:3|2:3,2:0:0:0:
280,42,137846,1,4,2:3:0:0:
366,23,138162,6,0,B|420:22|435:78|435:78|420:156,1,176,6|2,3:2|2:0,2:0:0:0:
462,297,139320,2,0,P|410:270|353:277,1,117.333333333333,2|10,3:2|2:0,0:0:0:0:
289,337,140056,2,0,P|268:298|269:255,1,88,2|10,2:0|2:0,0:0:0:0:
192,211,140688,2,0,P|110:236|37:193,2,176,2|2|2,2:0|2:0|2:0,2:0:0:0:
260,48,142583,2,0,L|351:34,1,88,2|14,2:0|2:0,0:0:0:0:
434,28,143214,6,0,P|443:112|384:173,1,176,6|2,2:0|2:0,2:0:0:0:
260,48,144478,2,0,B|199:39|199:39|151:63|151:63|91:53,1,176,2|2,2:0|2:0,2:0:0:0:
94,141,145425,1,10,2:0:0:0:
25,196,145741,2,0,P|14:280|70:344,1,176,2|2,2:0|2:0,2:0:0:0:
246,330,147004,2,0,B|308:319|308:319|348:342|348:342|413:329,1,176,2|4,2:1|2:3,2:0:0:0:
481,272,147951,1,8,2:3:0:0:
467,185,148267,6,0,P|412:119|327:118,1,176,6|2,3:2|2:0,2:0:0:0:
256,170,149214,1,10,2:0:0:0:
237,256,149530,2,0,P|182:321|97:322,1,176,2|2,2:0|2:0,2:0:0:0:
20,278,150478,1,10,2:0:0:0:
39,192,150793,2,0,P|93:126|178:125,1,176,2|2,2:0|2:0,2:0:0:0:
334,215,152056,2,0,P|419:214|473:148,1,176,2|10,2:0|2:0,2:0:0:0:
478,60,153004,1,10,2:0:0:0:
407,6,153320,6,0,L|232:28,1,176,6|2,2:0|2:0,2:0:0:0:
159,193,154583,2,0,L|334:215,1,176,2|2,2:0|2:0,2:0:0:0:
418,192,155530,1,10,2:0:0:0:
480,254,155846,2,0,P|461:336|381:362,1,176,6|2,3:2|2:0,2:0:0:0:
254,239,157109,2,0,B|286:182|286:182|263:73,1,176,2|2,2:0|2:0,2:0:0:0:
207,5,158056,1,10,2:0:0:0:
148,70,158372,6,0,P|83:102|12:87,1,146.666666666667,6|2,3:2|3:2,0:0:0:0:
19,205,159320,2,0,B|78:217|78:217|108:262|108:262|168:273,1,176,14|0,2:0|0:0,0:0:0:0:
225,341,160267,2,0,L|312:324,1,88,8|8,2:3|2:3,2:0:0:0:
387,368,160899,2,0,P|398:326|391:283,1,88,12|8,2:0|2:0,2:0:0:0:
450,218,161530,2,0,P|378:226|322:183,1,146.666666666667,8|10,2:0|2:0,2:0:0:0:
198,17,162793,2,0,P|155:12|115:29,1,88,0|0,2:0|2:0,2:0:0:0:
48,86,163425,6,0,P|30:170|81:238,1,176,4|2,2:0|2:0,2:0:0:0:
186,340,164583,2,0,L|304:322,1,117.333333333333,2|10,3:2|2:0,0:0:0:0:
385,348,165320,2,0,L|399:260,1,88,10|10,2:0|2:0,0:0:0:0:
471,210,165951,2,0,L|484:123,2,88,2|10|2,2:0|2:0|2:0,2:0:0:0:
326,186,167109,2,0,B|283:181|283:181|258:196|258:196|212:190,1,117.333333333333,2|10,3:2|2:0,0:0:0:0:
138,236,167846,2,0,P|126:194|134:151,1,88,10|10,2:0|2:0,2:0:0:0:
61,100,168478,6,0,P|35:183|51:268,1,176,6|2,2:0|2:0,2:0:0:0:
208,347,169741,2,0,L|294:333,1,88,6|10,2:0|2:0,2:0:0:0:
375,367,170372,2,0,P|381:323|365:283,1,88,10|10,2:0|2:0,2:0:0:0:
420,215,171004,2,0,P|336:230|268:178,1,176,6|2,2:0|2:0,2:0:0:0:
170,31,172267,2,0,L|84:13,1,88,6|10,2:0|2:0,2:0:0:0:
18,72,172899,2,0,L|35:159,1,88,14|10,2:3|2:0,2:0:0:0:
11,243,173530,6,0,P|77:188|163:191,2,176,6|2|2,3:2|2:0|2:0,2:0:0:0:
145,356,175425,2,0,L|232:338,1,88,10|10,2:0|2:0,2:0:0:0:
313,373,176056,2,0,P|359:301|344:216,1,176,6|2,2:0|2:0,2:0:0:0:
230,80,177320,2,0,B|288:71|288:71|342:95|342:95|400:84,1,176,2|10,2:0|2:0,2:0:0:0:
487,88,178267,1,10,2:0:0:0:
510,172,178583,6,0,P|506:257|438:307,1,176,6|2,3:2|2:0,2:0:0:0:
265,342,179846,2,0,L|250:256,1,88,6|10,2:0|2:0,2:0:0:0:
325,209,180478,2,0,L|339:122,1,88,10|10,2:0|2:0,2:0:0:0:
302,41,181109,2,0,P|230:41|175:88,1,146.666666666667,6|10,2:0|3:0,2:0:0:0:
107,182,182056,1,10,2:0:0:0:
120,271,182372,2,0,B|76:301|14:276|6:228|6:228|20:198,1,176,6|10,3:2|2:3,2:0:0:0:
107,182,183320,1,2,2:0:0:0:
190,209,183635,6,0,B|303:194|242:260|356:240,1,176,4|2,2:0|2:0,2:0:0:0:
478,320,184793,2,0,P|502:267|496:209,1,117.333333333333,2|10,3:2|2:0,0:0:0:0:
434,146,185530,2,0,L|423:58,1,88,10|10,2:0|2:0,0:0:0:0:
340,26,186162,2,0,P|296:28|257:9,2,88,2|10|2,2:0|2:0|2:0,2:0:0:0:
323,171,187320,2,0,L|310:287,1,117.333333333333,2|10,3:2|2:0,0:0:0:0:
256,357,188056,2,0,P|216:372|173:365,1,88,10|10,2:0|2:0,2:0:0:0:
109,304,188688,6,0,P|89:221|139:151,1,176,6|2,2:0|2:0,2:0:0:0:
273,270,189951,2,0,L|255:357,2,88,6|10|10,2:0|2:0|2:0,2:0:0:0:
347,110,191214,2,0,B|354:55|319:32|319:32|270:40|262:91,1,176,6|2,2:0|2:0,2:0:0:0:
107,174,192478,2,0,L|21:160,1,88,6|10,2:0|2:0,2:0:0:0:
5,246,193109,2,0,L|91:260,1,88,14|10,2:3|2:0,2:0:0:0:
148,328,193741,6,0,P|232:310|268:233,1,176,6|2,3:2|2:0,2:0:0:0:
290,59,195004,2,0,P|373:77|409:154,1,176,2|10,2:0|2:0,2:0:0:0:
359,226,195951,1,10,2:0:0:0:
273,247,196267,6,0,B|205:234|205:234|164:255|164:255|105:244,1,176,6|2,2:0|2:0,2:0:0:0:
13,93,197530,2,0,P|66:27|150:32,1,176,2|10,2:0|2:0,2:0:0:0:
223,82,198478,1,10,2:0:0:0:
179,158,198793,2,0,P|173:242|239:295,1,176,6|2,3:2|2:0,2:0:0:0:
386,197,200056,2,0,P|428:189|470:203,1,88,8|8,2:0|2:0,0:0:0:0:
461,290,200688,2,0,P|418:297|376:283,1,88,8|4,2:3|2:3,0:0:0:0:
386,197,201320,6,0,P|418:118|384:39,1,176,6|8,2:0|2:0,0:0:0:0:
206,29,202583,2,0,P|173:92|186:163,1,146.666666666667,8|8,2:3|2:3,0:0:0:0:
291,218,203530,1,4,2:3:0:0:
313,304,203846,6,0,P|241:357|159:347,1,176,6|2,3:2|2:0,2:0:0:0:
31,227,205109,2,0,P|22:141|74:73,1,176,2|2,2:0|2:0,2:0:0:0:
160,52,206056,1,10,2:0:0:0:
239,90,206372,2,0,P|324:91|388:33,2,176,2|2|2,2:0|2:0|2:0,2:0:0:0:
134,231,208267,2,0,L|153:316,1,88,2|10,2:0|2:0,2:0:0:0:
222,371,208899,6,0,B|332:390|278:321|386:338,1,176,6|2,2:0|2:0,2:0:0:0:
484,192,210162,2,0,P|499:151|491:108,1,88,2|10,2:0|2:0,0:0:0:0:
404,100,210793,2,0,P|388:140|396:183,1,88,2|10,2:0|2:0,0:0:0:0:
326,238,211425,2,0,P|240:240|180:179,1,176,2|2,2:0|2:0,2:0:0:0:
208,95,212372,1,10,2:0:0:0:
138,40,212688,2,0,B|117:6|67:-4|25:23|25:23|25:49|39:68,1,176,2|4,2:0|2:3,2:0:0:0:
208,95,213951,6,0,B|267:83|267:83|318:110|318:110|374:95,2,176,6|2|2,3:2|2:0|2:0,2:0:0:0:
56,184,215846,2,0,L|68:271,1,88,2|10,2:0|2:0,2:0:0:0:
122,341,216478,2,0,P|206:346|261:281,1,176,2|2,2:0|2:0,2:0:0:0:
238,107,217741,2,0,L|255:21,1,88,2|10,2:0|2:0,2:0:0:0:
341,37,218372,2,0,L|324:123,1,88,2|14,2:0|2:0,2:0:0:0:
397,172,219004,6,0,B|301:154|329:226|232:211,1,176,6|2,2:0|2:0,2:0:0:0:
68,149,220267,2,0,P|50:187|49:231,1,88,2|10,2:0|2:0,0:0:0:0:
82,314,220899,2,0,P|119:332|164:332,1,88,2|10,2:0|2:0,0:0:0:0:
239,285,221530,2,0,B|286:249|335:272|335:272|359:301|398:303,2,176,2|2|2,2:0|2:0|2:1,2:0:0:0:
399,303,232899,6,0,L|419:129,1,176,0|0,3:0|3:0,2:0:0:0:
429,41,233846,1,8,2:0:0:0:
347,74,234162,6,0,P|261:74|199:14,1,176,6|2,3:2|2:0,2:0:0:0:
111,10,235109,1,10,2:0:0:0:
51,74,235425,2,0,L|64:161,1,88,2|10,2:0|2:0,0:0:0:0:
145,195,236056,2,0,L|132:282,1,88,2|10,2:0|2:0,2:0:0:0:
171,359,236688,2,0,P|101:311|16:323,2,176,2|2|2,2:0|2:0|2:0,2:0:0:0:
255,204,238583,2,0,L|270:117,1,88,10|10,2:0|2:0,2:0:0:0:
287,31,239214,6,0,B|314:-1|368:-12|413:13|413:13|433:45,1,176,6|8,3:2|2:0,2:0:0:0:
470,125,240162,1,0,3:0:0:0:
444,298,240793,1,8,2:0:0:0:
376,354,241109,2,0,P|332:348|296:323,1,88,0|8,3:0|2:0,2:0:0:0:
269,239,241741,1,0,3:0:0:0:
243,64,242372,1,8,0:0:0:0:
163,29,242688,2,0,B|114:12|64:30|44:76|44:76|50:110,1,176,0|8,3:0|2:0,2:0:0:0:
101,181,243635,2,0,P|101:224|82:264,1,88,8|8,2:3|2:3,2:0:0:0:
35,339,244267,6,0,P|111:300|193:325,1,176,12|2,2:0|2:0,2:0:0:0:
256,264,245214,2,0,L|277:89,1,176,14|8,2:0|2:0,2:0:0:0:
337,24,246162,2,0,P|379:13|421:24,1,88,8|8,2:3|2:3,0:0:0:0:
472,96,246793,6,0,P|474:167|423:217,1,146.666666666667,12|8,2:0|2:0,2:0:0:0:
312,178,247741,2,0,B|254:168|254:168|204:191|204:191|142:180,1,176,10|8,2:1|2:0,2:0:0:0:
72,127,248688,2,0,P|55:167|57:211,2,88,8|8|4,2:0|2:0|2:0,0:0:0:0:
337,358,250583,6,0,L|424:346,1,88,6|10,2:0|2:0,2:0:0:0:
443,260,251214,2,0,L|355:248,1,88,10|10,2:0|2:0,2:0:0:0:
316,169,251846,2,0,P|312:125|331:86,2,88,2|10|2,2:0|2:0|2:0,2:0:0:0:
240,294,253004,2,0,B|194:329|194:329|135:316,1,117.333333333333,2|10,3:2|2:0,0:0:0:0:
61,269,253741,2,0,L|45:182,1,88,10|10,2:0|2:0,2:0:0:0:
4,104,254372,6,0,B|62:134|62:134|169:107,1,176,6|2,2:0|2:0,2:0:0:0:
325,26,255635,2,0,L|308:112,1,88,6|10,2:0|2:0,2:0:0:0:
240,168,256267,2,0,L|256:254,1,88,10|10,2:0|2:0,2:0:0:0:
240,341,256899,2,0,B|334:315|314:386|408:363,1,176,6|2,2:0|2:0,2:0:0:0:
487,205,258162,2,0,L|469:119,1,88,6|10,2:0|2:0,2:0:0:0:
498,35,258794,2,0,L|411:18,1,88,14|10,2:3|2:0,2:0:0:0:
335,61,259425,6,0,B|243:79|264:6|170:18,2,176,6|2|2,3:2|2:0|2:0,2:0:0:0:
277,227,261320,2,0,L|295:314,1,88,10|10,2:0|2:0,2:0:0:0:
227,370,261951,2,0,P|141:369|89:302,1,176,6|2,2:0|2:0,2:0:0:0:
29,136,263215,2,0,B|87:127|87:127|141:151|141:151|199:140,1,176,2|10,2:0|2:0,2:0:0:0:
261,78,264162,1,10,2:0:0:0:
348,87,264478,6,0,P|402:153|392:238,1,176,6|2,3:2|2:0,2:0:0:0:
248,339,265741,2,0,L|162:324,1,88,6|10,2:0|2:0,2:0:0:0:
76,347,266373,2,0,L|62:260,1,88,10|10,2:0|2:0,2:0:0:0:
2,195,267004,2,0,P|74:195|129:148,1,146.666666666667,6|10,2:0|3:0,2:0:0:0:
171,39,267951,1,10,2:0:0:0:
216,114,268267,2,0,B|232:142|232:142|276:163|332:127|333:73,1,176,6|10,3:2|2:3,2:0:0:0:
400,16,269215,1,2,2:0:0:0:
482,44,269530,6,0,L|455:218,1,176,4|2,2:0|2:0,2:0:0:0:
476,363,270688,2,0,B|437:326|437:326|375:338,1,117.333333333333,2|10,3:2|2:0,0:0:0:0:
291,311,271425,2,0,L|280:223,1,88,10|10,2:0|2:0,0:0:0:0:
354,176,272056,2,0,L|365:88,2,88,2|10|2,2:0|2:0|2:0,2:0:0:0:
207,164,273215,2,0,B|139:153|162:199|96:186,1,117.333333333333,2|10,3:2|2:0,0:0:0:0:
23,138,273951,2,0,P|8:178|15:221,1,88,10|10,2:0|2:0,2:0:0:0:
0,308,274583,6,0,P|83:288|153:338,1,176,6|2,2:0|2:0,2:0:0:0:
289,226,275846,2,0,L|271:139,1,88,6|10,2:0|2:0,2:0:0:0:
300,56,276478,2,0,L|213:38,1,88,10|10,2:0|2:0,2:0:0:0:
128,12,277109,2,0,P|79:63|8:60,1,146.666666666667,6|2,2:0|3:2,2:0:0:0:
39,173,278057,1,10,2:0:0:0:
120,207,278373,2,0,L|206:193,1,88,6|10,2:0|2:0,2:0:0:0:
289,226,279004,2,0,L|375:212,1,88,14|10,2:3|2:0,2:0:0:0:
462,226,279635,6,0,B|498:174|498:174|481:62,2,176,6|2|2,3:2|2:0|2:0,2:0:0:0:
341,354,281530,2,0,P|307:328|265:317,1,88,10|10,2:0|2:0,2:0:0:0:
179,339,282162,6,0,B|166:271|166:271|187:230|187:230|176:171,1,176,6|2,2:0|2:0,2:0:0:0:
84,19,283425,2,0,P|142:80|227:71,1,176,2|10,2:0|2:0,2:0:0:0:
301,23,284373,1,10,2:0:0:0:
385,45,284688,2,0,B|373:105|373:105|398:158|398:158|389:213,1,176,6|2,3:2|2:0,2:0:0:0:
498,351,285951,6,0,P|456:359|414:345,1,88,8|8,2:0|2:0,0:0:0:0:
343,291,286583,2,0,P|301:277|258:285,1,88,8|4,2:3|2:3,0:0:0:0:
194,345,287214,2,0,B|208:285|208:285|187:236|187:236|203:178,1,176,4|2,2:0|2:0,2:0:0:0:
133,14,288478,6,0,B|37:3|37:3|14:17|7:41,1,146.666666666667,8|8,2:3|2:3,0:0:0:0:
82,131,289425,1,4,2:3:0:0:
166,105,289741,2,0,B|225:93|225:93|278:116|278:116|335:105,1,176,4|2,2:0|2:0,2:0:0:0:
489,20,291004,6,0,L|473:107,1,88,2|10,2:0|2:0,2:0:0:0:
406,164,291635,2,0,L|422:251,1,88,2|10,2:0|2:0,2:0:0:0:
437,337,292267,2,0,P|366:287|282:302,1,176,2|2,2:0|2:0,2:0:0:0:
118,365,293530,6,0,L|102:278,1,88,2|10,2:0|2:0,2:0:0:0:
167,219,294162,2,0,L|183:132,1,88,2|10,2:0|2:0,2:0:0:0:
218,51,294793,2,0,P|136:75|63:30,2,176,6|2|2,2:0|2:0|2:0,2:0:0:0:
389,12,296688,2,0,L|376:99,1,88,2|10,2:0|2:0,2:0:0:0:
442,156,297320,6,0,B|338:137|379:209|279:194,1,176,2|2,2:0|2:0,2:0:0:0:
171,54,298583,2,0,B|127:22|66:36|47:79|47:79|57:109,1,176,2|6,2:0|2:3,2:0:0:0:
14,279,299846,6,0,B|110:255|87:329|181:300,1,176,6|2,3:2|2:0,2:0:0:0:
257,141,301109,2,0,P|255:97|232:60,1,88,2|10,2:0|2:0,2:0:0:0:
148,88,301741,2,0,P|149:131|172:168,1,88,2|10,2:0|2:0,2:0:0:0:
236,229,302372,6,0,B|332:205|309:279|403:250,1,176,2|2,2:0|2:0,2:0:0:0:
473,88,303635,2,0,P|436:66|392:67,1,88,2|10,2:0|2:0,2:0:0:0:
322,120,304267,2,0,L|235:102,1,88,2|10,2:0|2:0,2:0:0:0:
173,38,304899,6,0,P|105:89|20:78,2,176,6|2|2,3:2|2:0|2:0,2:0:0:0:
244,199,306793,2,0,L|262:286,1,88,2|10,2:0|2:0,2:0:0:0:
205,353,307425,2,0,P|121:338|67:271,2,176,2|10|4,2:0|2:3|2:0,2:0:0:0:
487,54,310162,6,0,B|441:21|441:21|383:41,1,117.333333333333,8|8,2:0|2:3,2:0:0:0:
305,81,310899,1,8,2:0:0:0:
342,160,311214,2,0,L|317:304,1,146.666666666667,8|4,2:3|2:0,2:0:0:0:
256,192,311846,12,0,316267,2:0:0:0:
