osu file format v14

[General]
AudioFilename: audio.mp3
AudioLeadIn: 0
PreviewTime: 162478
Countdown: 0
SampleSet: Normal
StackLeniency: 0.7
Mode: 1
LetterboxInBreaks: 0
WidescreenStoryboard: 0

[Editor]
DistanceSpacing: 1
BeatDivisor: 3
GridSize: 32
TimelineZoom: 2.6

[Metadata]
Title:Koi, Hitokuchi.
TitleUnicode:恋、ひとくち。
Artist:Yuizuki Sora
ArtistUnicode:結月そら
Creator:Nozdormu
Version:Ichigo Daifuku
Source:恋ニ、甘味ヲソエテ
Tags:sergom4444 tart3c6 taiko all rounder tournament 3 quarterfinals qf video game japanese j-pop jpop pop love's sweet garnish koi ni kanmi o soete visual novel vn eroge swing galgame canvas+garden sekai project opening op 宮坂なこ 宮坂みゆ miyasaka miyu naco nako 大久保潤 okubo jun
BeatmapID:4083620
BeatmapSetID:1968810

[Difficulty]
HPDrainRate:5
CircleSize:4
OverallDifficulty:5.5
ApproachRate:8
SliderMultiplier:1.4
SliderTickRate:1

[Events]
//Background and Video events
0,0,"ichigo.jpg",0,0
//Break Periods
//Storyboard Layer 0 (Background)
//Storyboard Layer 1 (Fail)
//Storyboard Layer 2 (Pass)
//Storyboard Layer 3 (Foreground)
//Storyboard Layer 4 (Overlay)
//Storyboard Sound Samples

[TimingPoints]
478,315.789473684211,4,1,0,80,1,0
478,-133.333333333333,4,1,0,80,0,0
20994,-133.333333333333,4,1,0,76,0,0
21204,-135.334047874241,4,1,0,74,0,0
21310,-136.366909064727,4,1,0,72,0,0
21415,-137.405687753918,4,1,0,70,0,0
21520,-138.460413772937,4,1,0,68,0,0
21625,-139.531457197584,4,1,0,66,0,0
21836,-141.734640425054,4,1,0,62,0,0
21941,-142.857142857143,4,1,0,60,0,0
41099,-142.857142857143,4,1,0,64,0,0
41520,-138.890720833608,4,1,0,70,0,0
41731,-136.98451931833,4,1,0,74,0,0
42152,-133.333333333333,4,1,0,80,0,0
66267,-142.857142857143,4,1,0,50,0,0
67214,-125,4,1,0,90,0,0
67425,-125,4,1,0,90,0,1
106783,-126.312631263126,4,1,0,88,0,1
107099,-128.340615791078,4,1,0,86,0,1
107204,-129.028962558104,4,1,0,85,0,1
107415,-130.434782608696,4,1,0,83,0,1
107520,-131.145838741498,4,1,0,82,0,1
107836,-133.333333333333,4,1,0,80,0,1
107846,-133.333333333333,4,1,0,80,0,0
117310,-137.931034482759,4,1,0,65,0,0
117941,-142.857142857143,4,1,0,50,0,0
127520,-142.857142857143,4,1,0,52,0,0
127625,-142.857142857143,4,1,0,54,0,0
127731,-142.857142857143,4,1,0,56,0,0
127941,-142.857142857143,4,1,0,58,0,0
128046,-142.857142857143,4,1,0,60,0,0
137099,-142.857142857143,4,1,0,64,0,0
137520,-138.890720833608,4,1,0,70,0,0
137731,-136.98451931833,4,1,0,74,0,0
138152,-133.333333333333,4,1,0,80,0,0
162267,-142.857142857143,4,1,0,50,0,0
163214,-125,4,1,0,90,0,0
163425,-125,4,1,0,90,0,1
202783,-126.312631263126,4,1,0,88,0,1
203099,-128.340615791078,4,1,0,86,0,1
203204,-129.028962558104,4,1,0,85,0,1
203310,-129.731395408556,4,1,0,84,0,1
203415,-130.434782608696,4,1,0,83,0,1
203520,-131.145838741498,4,1,0,82,0,1
203731,-132.59842519685,4,1,0,81,0,1
203836,-133.333333333333,4,1,0,80,0,1
203846,-133.333333333333,4,1,0,80,0,0
223109,-142.857142857143,4,1,0,74,0,0
223425,-142.857142857143,4,1,0,68,0,0
223741,-142.857142857143,4,1,0,60,0,0
233204,-142.857142857143,4,1,0,64,0,0
233520,-139.53488372093,4,1,0,68,0,0
233731,-137.401260960939,4,1,0,72,0,0
233836,-136.363636363636,4,1,0,74,0,0
234046,-134.334703131642,4,1,0,78,0,0
234152,-133.333333333333,4,1,0,80,0,0
249530,-133.333333333333,4,1,0,5,0,0
250372,-125,4,1,0,90,0,0
250583,-125,4,1,0,90,0,1
288678,-126.312631263126,4,1,0,88,0,1
288994,-128.340615791078,4,1,0,86,0,1
289099,-129.028962558104,4,1,0,85,0,1
289310,-130.434782608696,4,1,0,83,0,1
289415,-131.145838741498,4,1,0,82,0,1
289731,-133.333333333333,4,1,0,80,0,1
289741,-133.333333333333,4,1,0,80,0,0
311846,-125,4,1,0,50,0,0
312372,-133.333333333333,4,1,0,45,0,0
313635,-142.857142857143,4,1,0,40,0,0
314899,-153.846153846154,4,1,0,35,0,0
316162,-166.666666666667,4,1,0,30,0,0

[HitObjects]
173,147,478,5,8,0:0:0:0:
173,147,688,1,0,0:0:0:0:
173,147,793,1,8,0:0:0:0:
173,147,899,1,0,0:0:0:0:
173,147,1004,1,0,0:0:0:0:
178,147,1109,1,8,0:0:0:0:
173,147,1425,1,0,0:0:0:0:
173,147,1530,1,8,0:0:0:0:
173,147,1635,1,8,0:0:0:0:
173,147,1741,1,4,0:0:0:0:
178,147,2056,1,0,0:0:0:0:
173,147,2267,1,0,0:0:0:0:
173,147,2372,1,8,0:0:0:0:
173,147,2583,1,0,0:0:0:0:
173,147,2688,1,0,0:0:0:0:
173,147,2899,1,8,0:0:0:0:
178,147,3004,1,8,0:0:0:0:
173,147,3320,1,0,0:0:0:0:
173,147,3530,1,8,0:0:0:0:
173,147,3635,1,0,0:0:0:0:
173,147,3846,1,0,0:0:0:0:
178,147,3951,1,0,0:0:0:0:
173,147,4056,1,8,0:0:0:0:
173,147,4162,1,0,0:0:0:0:
173,147,4267,1,8,0:0:0:0:
173,147,4583,1,8,0:0:0:0:
173,147,4793,1,0,0:0:0:0:
178,147,4899,1,8,0:0:0:0:
173,147,5109,1,0,0:0:0:0:
173,147,5214,1,0,0:0:0:0:
173,147,5425,1,8,0:0:0:0:
173,147,5530,1,8,0:0:0:0:
178,147,5846,1,0,0:0:0:0:
173,147,6056,1,8,0:0:0:0:
173,147,6162,1,0,0:0:0:0:
173,147,6372,1,0,0:0:0:0:
173,147,6478,1,8,0:0:0:0:
178,147,6583,1,8,0:0:0:0:
178,147,6688,1,8,0:0:0:0:
178,147,6793,1,4,0:0:0:0:
173,147,7109,1,8,0:0:0:0:
178,148,7320,1,0,0:0:0:0:
173,147,7425,1,8,0:0:0:0:
178,147,7635,1,8,0:0:0:0:
172,151,7741,1,0,0:0:0:0:
173,147,7951,1,8,0:0:0:0:
173,147,8056,1,8,0:0:0:0:
178,148,8267,1,0,0:0:0:0:
173,147,8372,1,8,0:0:0:0:
172,145,8583,1,0,0:0:0:0:
172,151,8688,1,0,0:0:0:0:
173,147,8899,1,8,0:0:0:0:
173,147,9004,1,8,0:0:0:0:
170,150,9109,1,0,0:0:0:0:
170,150,9214,1,0,0:0:0:0:
166,149,9320,1,8,0:0:0:0:
172,151,9635,1,8,0:0:0:0:
168,154,9846,1,8,0:0:0:0:
172,154,9951,1,0,0:0:0:0:
172,155,10162,1,0,0:0:0:0:
172,155,10267,1,0,0:0:0:0:
172,151,10478,1,8,0:0:0:0:
172,151,10583,1,8,0:0:0:0:
176,148,10793,1,8,0:0:0:0:
172,154,10899,1,0,0:0:0:0:
172,155,11109,1,0,0:0:0:0:
172,155,11214,1,8,0:0:0:0:
176,154,11320,1,0,0:0:0:0:
176,154,11425,1,0,0:0:0:0:
172,151,11530,1,8,0:0:0:0:
172,154,11741,1,8,0:0:0:0:
172,154,11846,1,4,0:0:0:0:
172,155,12162,1,8,0:0:0:0:
170,160,12372,1,0,0:0:0:0:
164,159,12478,1,8,0:0:0:0:
166,158,12688,1,0,0:0:0:0:
166,158,12793,1,0,0:0:0:0:
164,162,13004,1,8,0:0:0:0:
164,162,13109,1,8,0:0:0:0:
164,159,13425,1,0,0:0:0:0:
166,158,13635,1,8,0:0:0:0:
166,158,13741,1,0,0:0:0:0:
164,162,13951,1,8,0:0:0:0:
164,162,14056,1,0,0:0:0:0:
164,159,14162,1,0,0:0:0:0:
164,159,14267,1,0,0:0:0:0:
164,159,14372,1,8,0:0:0:0:
166,158,14688,1,8,0:0:0:0:
164,162,14899,1,0,0:0:0:0:
164,162,15004,1,0,0:0:0:0:
164,159,15214,1,8,0:0:0:0:
164,159,15320,1,0,0:0:0:0:
166,158,15530,1,0,0:0:0:0:
166,158,15635,1,8,0:0:0:0:
164,162,15951,1,0,0:0:0:0:
164,159,16162,1,8,0:0:0:0:
164,159,16267,1,8,0:0:0:0:
148,153,16478,1,0,0:0:0:0:
148,153,16583,1,0,0:0:0:0:
140,151,16688,1,8,0:0:0:0:
140,151,16793,1,8,0:0:0:0:
136,131,16899,1,4,0:0:0:0:
173,147,17214,1,8,0:0:0:0:
178,148,17425,1,0,0:0:0:0:
173,147,17530,1,0,0:0:0:0:
178,147,17741,1,8,0:0:0:0:
172,151,17846,1,8,0:0:0:0:
173,147,18056,1,0,0:0:0:0:
173,147,18162,1,8,0:0:0:0:
178,148,18372,1,0,0:0:0:0:
173,147,18478,1,0,0:0:0:0:
172,145,18688,1,8,0:0:0:0:
172,151,18793,1,0,0:0:0:0:
173,147,19004,1,0,0:0:0:0:
173,147,19109,1,8,0:0:0:0:
170,150,19214,1,0,0:0:0:0:
170,150,19320,1,0,0:0:0:0:
166,149,19425,1,8,0:0:0:0:
172,151,19741,1,8,0:0:0:0:
168,154,19951,1,0,0:0:0:0:
172,154,20056,1,0,0:0:0:0:
172,155,20267,1,0,0:0:0:0:
172,155,20372,1,8,0:0:0:0:
172,151,20583,1,8,0:0:0:0:
172,151,20688,1,4,0:0:0:0:
172,154,21004,1,0,0:0:0:0:
172,155,21214,1,8,0:0:0:0:
172,155,21320,1,8,0:0:0:0:
176,154,21425,1,0,0:0:0:0:
176,154,21530,1,0,0:0:0:0:
172,151,21635,1,8,0:0:0:0:
172,154,21846,1,8,0:0:0:0:
172,154,21951,1,0,0:0:0:0:
172,155,22267,1,8,0:0:0:0:
172,154,22899,1,0,0:0:0:0:
172,155,23109,1,8,0:0:0:0:
172,155,23214,1,0,0:0:0:0:
172,154,23530,1,8,0:0:0:0:
172,154,23846,1,8,0:0:0:0:
172,155,24162,1,0,0:0:0:0:
172,154,24372,1,0,0:0:0:0:
172,154,24478,1,8,0:0:0:0:
172,154,24793,1,0,0:0:0:0:
172,155,25109,1,0,0:0:0:0:
172,154,25425,1,8,0:0:0:0:
172,154,25635,1,0,0:0:0:0:
172,154,25741,1,0,0:0:0:0:
172,154,26372,1,8,0:0:0:0:
172,154,26583,1,0,0:0:0:0:
172,154,26688,1,8,0:0:0:0:
172,155,26899,1,8,0:0:0:0:
172,155,27004,1,0,0:0:0:0:
172,154,27320,1,0,0:0:0:0:
172,154,27635,1,8,0:0:0:0:
172,155,27951,1,0,0:0:0:0:
172,154,28162,1,8,0:0:0:0:
172,154,28267,1,8,0:0:0:0:
172,154,28583,1,8,0:0:0:0:
172,155,28899,1,0,0:0:0:0:
172,154,29214,1,0,0:0:0:0:
172,154,29425,1,8,0:0:0:0:
177,152,29530,1,0,0:0:0:0:
172,155,29846,1,8,0:0:0:0:
172,154,30162,1,0,0:0:0:0:
171,152,30478,1,8,0:0:0:0:
172,155,30688,1,0,0:0:0:0:
172,155,30793,1,8,0:0:0:0:
172,154,31109,1,8,0:0:0:0:
171,152,31320,1,0,0:0:0:0:
171,152,31425,1,0,0:0:0:0:
172,155,31635,1,8,0:0:0:0:
172,155,31741,1,8,0:0:0:0:
172,154,32056,1,0,0:0:0:0:
172,155,32688,1,8,0:0:0:0:
172,154,33004,1,0,0:0:0:0:
172,154,33214,1,8,0:0:0:0:
171,152,33320,1,0,0:0:0:0:
172,155,33635,1,8,0:0:0:0:
172,154,33951,1,0,0:0:0:0:
171,152,34267,1,0,0:0:0:0:
172,155,34478,1,0,0:0:0:0:
172,155,34583,1,8,0:0:0:0:
172,154,34899,1,0,0:0:0:0:
167,156,35214,1,8,0:0:0:0:
172,155,35530,1,8,0:0:0:0:
172,154,35741,1,0,0:0:0:0:
172,154,35846,1,0,0:0:0:0:
172,155,36478,1,0,0:0:0:0:
172,154,36688,1,8,0:0:0:0:
172,154,36793,1,8,0:0:0:0:
167,156,37004,1,0,0:0:0:0:
167,156,37109,1,8,0:0:0:0:
166,160,37425,1,0,0:0:0:0:
171,162,37741,1,8,0:0:0:0:
167,164,38056,1,8,0:0:0:0:
166,160,38267,1,8,0:0:0:0:
166,160,38372,1,0,0:0:0:0:
166,158,38688,1,8,0:0:0:0:
167,164,39004,1,0,0:0:0:0:
166,160,39320,1,0,0:0:0:0:
166,158,39635,1,8,0:0:0:0:
165,157,39951,1,0,0:0:0:0:
166,160,40162,1,0,0:0:0:0:
166,158,40478,1,0,0:0:0:0:
166,158,40583,1,8,0:0:0:0:
170,161,40793,1,8,0:0:0:0:
161,162,40899,1,8,0:0:0:0:
166,160,41109,1,4,0:0:0:0:
164,164,41530,1,0,0:0:0:0:
170,161,41741,1,12,0:0:0:0:
164,164,42162,1,4,0:0:0:0:
164,164,42478,1,8,0:0:0:0:
170,161,42688,1,0,0:0:0:0:
167,165,42793,1,8,0:0:0:0:
166,160,43004,1,8,0:0:0:0:
164,164,43109,1,0,0:0:0:0:
164,164,43320,1,8,0:0:0:0:
164,164,43425,1,8,0:0:0:0:
167,165,43741,1,0,0:0:0:0:
166,160,43951,1,8,0:0:0:0:
168,160,44056,1,0,0:0:0:0:
164,164,44267,1,0,0:0:0:0:
164,164,44372,1,8,0:0:0:0:
167,165,44478,1,0,0:0:0:0:
167,165,44583,1,0,0:0:0:0:
167,165,44688,1,8,0:0:0:0:
166,171,45004,1,0,0:0:0:0:
168,167,45214,1,8,0:0:0:0:
168,167,45320,1,8,0:0:0:0:
167,165,45530,1,0,0:0:0:0:
167,165,45635,1,0,0:0:0:0:
167,165,45846,1,0,0:0:0:0:
163,164,45951,1,8,0:0:0:0:
168,167,46162,1,8,0:0:0:0:
168,167,46267,1,0,0:0:0:0:
167,165,46583,1,8,0:0:0:0:
165,159,46793,1,0,0:0:0:0:
163,164,46899,1,0,0:0:0:0:
164,159,47004,1,8,0:0:0:0:
164,159,47109,1,8,0:0:0:0:
166,148,47214,1,4,0:0:0:0:
164,148,47530,1,8,0:0:0:0:
165,159,47741,1,0,0:0:0:0:
166,151,47846,1,8,0:0:0:0:
166,151,48056,1,8,0:0:0:0:
162,154,48162,1,0,0:0:0:0:
164,148,48372,1,8,0:0:0:0:
151,143,48478,1,8,0:0:0:0:
166,151,48793,1,0,0:0:0:0:
166,151,49004,1,8,0:0:0:0:
154,147,49109,1,0,0:0:0:0:
154,147,49320,1,0,0:0:0:0:
167,147,49425,1,8,0:0:0:0:
166,151,49530,1,0,0:0:0:0:
166,151,49635,1,0,0:0:0:0:
151,143,49741,1,8,0:0:0:0:
158,142,50056,1,0,0:0:0:0:
160,148,50267,1,8,0:0:0:0:
160,148,50372,1,8,0:0:0:0:
156,146,50583,1,0,0:0:0:0:
156,146,50688,1,0,0:0:0:0:
158,142,50899,1,0,0:0:0:0:
159,137,51004,1,8,0:0:0:0:
160,148,51214,1,8,0:0:0:0:
161,141,51320,1,0,0:0:0:0:
160,140,51530,1,8,0:0:0:0:
160,140,51635,1,8,0:0:0:0:
158,145,51951,1,0,0:0:0:0:
160,148,52056,1,8,0:0:0:0:
160,148,52162,1,8,0:0:0:0:
154,146,52267,1,4,0:0:0:0:
157,148,52478,1,8,0:0:0:0:
161,150,52583,1,0,0:0:0:0:
158,145,52899,1,8,0:0:0:0:
160,148,53109,1,8,0:0:0:0:
161,147,53214,1,0,0:0:0:0:
160,152,53425,1,0,0:0:0:0:
152,150,53530,1,8,0:0:0:0:
166,151,53846,1,0,0:0:0:0:
160,148,54056,1,8,0:0:0:0:
161,147,54162,1,8,0:0:0:0:
160,152,54372,1,0,0:0:0:0:
152,150,54478,1,8,0:0:0:0:
156,150,54583,1,0,0:0:0:0:
156,149,54688,1,0,0:0:0:0:
166,151,54793,1,8,0:0:0:0:
157,154,55109,1,0,0:0:0:0:
160,152,55320,1,8,0:0:0:0:
160,150,55425,1,0,0:0:0:0:
156,149,55635,1,8,0:0:0:0:
153,150,55741,1,8,0:0:0:0:
157,154,55951,1,0,0:0:0:0:
160,148,56056,1,8,0:0:0:0:
160,150,56372,1,0,0:0:0:0:
156,149,56583,1,8,0:0:0:0:
153,150,56688,1,8,0:0:0:0:
157,154,56793,1,0,0:0:0:0:
157,154,56899,1,0,0:0:0:0:
160,148,57004,1,8,0:0:0:0:
160,150,57214,1,8,0:0:0:0:
162,143,57320,1,4,0:0:0:0:
159,144,57635,1,8,0:0:0:0:
157,142,57846,1,0,0:0:0:0:
158,142,57951,1,8,0:0:0:0:
157,141,58162,1,0,0:0:0:0:
162,143,58267,1,0,0:0:0:0:
159,144,58478,1,8,0:0:0:0:
171,144,58583,1,8,0:0:0:0:
158,142,58899,1,0,0:0:0:0:
161,144,59109,1,8,0:0:0:0:
162,143,59214,1,0,0:0:0:0:
159,144,59425,1,0,0:0:0:0:
147,145,59530,1,8,0:0:0:0:
146,144,59635,1,8,0:0:0:0:
146,144,59741,1,8,0:0:0:0:
129,145,59846,1,4,0:0:0:0:
133,147,60162,1,8,0:0:0:0:
130,143,60372,1,0,0:0:0:0:
140,144,60478,1,8,0:0:0:0:
132,148,60688,1,0,0:0:0:0:
129,145,60793,1,0,0:0:0:0:
141,144,61004,1,8,0:0:0:0:
145,146,61109,1,8,0:0:0:0:
146,144,61425,1,0,0:0:0:0:
154,153,61635,1,8,0:0:0:0:
152,156,61741,1,0,0:0:0:0:
142,153,61951,1,0,0:0:0:0:
158,152,62056,1,8,0:0:0:0:
133,151,62372,1,12,0:0:0:0:
146,155,62688,1,0,0:0:0:0:
117,153,62899,1,8,0:0:0:0:
125,157,63214,1,8,0:0:0:0:
136,159,63320,1,0,0:0:0:0:
139,158,63530,1,8,0:0:0:0:
141,160,63846,1,0,0:0:0:0:
135,160,63951,1,8,0:0:0:0:
136,162,64162,1,8,0:0:0:0:
133,167,64267,1,0,0:0:0:0:
139,158,64372,1,8,0:0:0:0:
139,158,64478,1,8,0:0:0:0:
137,165,64583,1,0,0:0:0:0:
141,160,64793,1,0,0:0:0:0:
135,160,64899,1,12,0:0:0:0:
143,163,65109,1,0,0:0:0:0:
140,163,65214,1,0,0:0:0:0:
140,164,65425,1,8,0:0:0:0:
137,165,65530,1,0,0:0:0:0:
141,160,65635,1,0,0:0:0:0:
138,166,65741,1,0,0:0:0:0:
140,159,65846,1,8,0:0:0:0:
143,163,66056,1,0,0:0:0:0:
256,192,66478,12,0,67109,0:0:0:0:
137,165,67320,5,8,0:0:0:0:
137,165,67425,1,4,0:0:0:0:
132,164,67741,1,8,0:0:0:0:
132,164,67951,1,0,0:0:0:0:
129,166,68056,1,0,0:0:0:0:
128,167,68267,1,0,0:0:0:0:
137,165,68372,1,8,0:0:0:0:
132,164,68583,1,0,0:0:0:0:
132,164,68688,1,0,0:0:0:0:
136,164,69004,1,8,0:0:0:0:
134,165,69214,1,0,0:0:0:0:
137,165,69320,1,8,0:0:0:0:
132,164,69530,1,8,0:0:0:0:
129,169,69635,1,0,0:0:0:0:
129,169,69741,1,8,0:0:0:0:
129,168,69846,1,8,0:0:0:0:
127,165,69951,1,0,0:0:0:0:
134,165,70162,1,0,0:0:0:0:
137,165,70267,1,8,0:0:0:0:
132,164,70478,1,8,0:0:0:0:
129,169,70583,1,0,0:0:0:0:
129,168,70793,1,8,0:0:0:0:
127,165,70899,1,8,0:0:0:0:
127,166,71004,1,0,0:0:0:0:
127,166,71109,1,0,0:0:0:0:
123,168,71214,1,8,0:0:0:0:
126,164,71425,1,8,0:0:0:0:
129,169,71530,1,0,0:0:0:0:
125,173,71741,1,8,0:0:0:0:
123,173,71846,1,8,0:0:0:0:
126,173,72162,1,0,0:0:0:0:
125,175,72372,1,8,0:0:0:0:
124,175,72478,1,0,0:0:0:0:
125,173,72688,1,0,0:0:0:0:
123,173,72793,1,8,0:0:0:0:
123,179,73004,1,0,0:0:0:0:
123,179,73109,1,0,0:0:0:0:
127,182,73425,1,8,0:0:0:0:
126,181,73635,1,8,0:0:0:0:
127,178,73741,1,0,0:0:0:0:
123,179,73951,1,8,0:0:0:0:
123,179,74056,1,8,0:0:0:0:
127,182,74267,1,0,0:0:0:0:
127,182,74372,1,8,0:0:0:0:
126,181,74583,1,8,0:0:0:0:
127,178,74688,1,0,0:0:0:0:
128,177,74793,1,8,0:0:0:0:
123,179,74899,1,8,0:0:0:0:
128,182,75004,1,0,0:0:0:0:
127,182,75320,1,8,0:0:0:0:
126,181,75530,1,0,0:0:0:0:
124,186,75635,1,8,0:0:0:0:
123,179,75846,1,0,0:0:0:0:
121,179,75951,1,8,0:0:0:0:
127,182,76162,1,0,0:0:0:0:
120,182,76267,1,0,0:0:0:0:
124,186,76583,1,8,0:0:0:0:
131,178,76793,1,0,0:0:0:0:
130,172,76899,1,8,0:0:0:0:
136,171,77004,1,0,0:0:0:0:
136,171,77109,1,0,0:0:0:0:
127,163,77214,1,8,0:0:0:0:
151,156,77425,1,8,0:0:0:0:
147,153,77530,1,4,0:0:0:0:
145,159,77846,1,8,0:0:0:0:
150,162,78056,1,0,0:0:0:0:
151,165,78162,1,8,0:0:0:0:
148,165,78372,1,0,0:0:0:0:
148,165,78478,1,0,0:0:0:0:
145,159,78688,1,8,0:0:0:0:
151,163,78793,1,0,0:0:0:0:
151,165,79109,1,8,0:0:0:0:
148,165,79320,1,0,0:0:0:0:
148,165,79425,1,0,0:0:0:0:
152,166,79635,1,8,0:0:0:0:
151,163,79741,1,8,0:0:0:0:
151,165,79846,1,0,0:0:0:0:
158,166,79951,1,8,0:0:0:0:
156,160,80056,1,0,0:0:0:0:
157,163,80267,1,8,0:0:0:0:
159,161,80372,1,0,0:0:0:0:
157,163,80583,1,0,0:0:0:0:
157,163,80688,1,8,0:0:0:0:
158,166,80899,1,0,0:0:0:0:
158,168,81004,1,0,0:0:0:0:
157,163,81214,1,8,0:0:0:0:
159,161,81320,1,8,0:0:0:0:
160,169,81635,1,8,0:0:0:0:
158,166,81846,1,0,0:0:0:0:
158,168,81951,1,0,0:0:0:0:
159,161,82056,1,8,0:0:0:0:
159,161,82162,1,8,0:0:0:0:
152,161,82267,1,0,0:0:0:0:
157,163,82478,1,8,0:0:0:0:
160,169,82583,1,0,0:0:0:0:
163,167,82899,1,8,0:0:0:0:
159,168,83109,1,0,0:0:0:0:
158,162,83214,1,8,0:0:0:0:
159,167,83425,1,8,0:0:0:0:
160,169,83530,1,0,0:0:0:0:
163,167,83635,1,0,0:0:0:0:
163,167,83741,1,0,0:0:0:0:
163,167,83846,1,8,0:0:0:0:
163,167,84162,1,0,0:0:0:0:
166,166,84372,1,8,0:0:0:0:
166,166,84478,1,8,0:0:0:0:
170,168,84688,1,0,0:0:0:0:
170,169,84793,1,8,0:0:0:0:
168,173,84899,1,0,0:0:0:0:
168,173,85004,1,0,0:0:0:0:
166,172,85109,1,8,0:0:0:0:
166,166,85425,1,0,0:0:0:0:
170,168,85635,1,0,0:0:0:0:
170,169,85741,1,8,0:0:0:0:
168,173,85951,1,0,0:0:0:0:
166,172,86056,1,8,0:0:0:0:
168,171,86267,1,0,0:0:0:0:
165,172,86372,1,0,0:0:0:0:
164,174,86583,1,8,0:0:0:0:
163,174,86688,1,8,0:0:0:0:
168,173,86899,1,0,0:0:0:0:
166,172,87004,1,8,0:0:0:0:
168,171,87109,1,0,0:0:0:0:
168,171,87214,1,0,0:0:0:0:
165,172,87320,1,12,0:0:0:0:
164,174,87530,1,8,0:0:0:0:
137,165,87635,1,4,0:0:0:0:
132,164,87951,1,8,0:0:0:0:
132,164,88162,1,0,0:0:0:0:
129,166,88267,1,8,0:0:0:0:
128,167,88478,1,0,0:0:0:0:
137,165,88583,1,0,0:0:0:0:
132,164,88793,1,8,0:0:0:0:
132,164,88899,1,8,0:0:0:0:
136,164,89214,1,0,0:0:0:0:
134,165,89425,1,8,0:0:0:0:
137,165,89530,1,0,0:0:0:0:
132,164,89741,1,8,0:0:0:0:
129,169,89846,1,8,0:0:0:0:
129,169,89951,1,0,0:0:0:0:
129,168,90056,1,0,0:0:0:0:
127,165,90162,1,8,0:0:0:0:
134,165,90372,1,0,0:0:0:0:
137,165,90478,1,8,0:0:0:0:
132,164,90688,1,0,0:0:0:0:
129,169,90793,1,0,0:0:0:0:
129,168,91004,1,8,0:0:0:0:
127,165,91109,1,0,0:0:0:0:
127,166,91214,1,0,0:0:0:0:
127,166,91320,1,0,0:0:0:0:
123,168,91425,1,8,0:0:0:0:
126,164,91635,1,0,0:0:0:0:
129,169,91741,1,0,0:0:0:0:
125,173,91951,1,8,0:0:0:0:
123,173,92056,1,8,0:0:0:0:
126,173,92372,1,0,0:0:0:0:
125,175,92583,1,8,0:0:0:0:
124,175,92688,1,0,0:0:0:0:
125,173,92899,1,8,0:0:0:0:
123,173,93004,1,8,0:0:0:0:
123,179,93214,1,0,0:0:0:0:
123,179,93320,1,0,0:0:0:0:
127,182,93635,1,8,0:0:0:0:
126,181,93846,1,8,0:0:0:0:
127,178,93951,1,0,0:0:0:0:
123,179,94162,1,8,0:0:0:0:
123,179,94267,1,8,0:0:0:0:
127,182,94478,1,0,0:0:0:0:
127,182,94583,1,8,0:0:0:0:
126,181,94793,1,0,0:0:0:0:
127,178,94899,1,0,0:0:0:0:
128,177,95004,1,8,0:0:0:0:
123,179,95109,1,8,0:0:0:0:
128,182,95214,1,0,0:0:0:0:
127,182,95530,1,8,0:0:0:0:
126,181,95741,1,0,0:0:0:0:
124,186,95846,1,8,0:0:0:0:
123,179,96056,1,0,0:0:0:0:
121,179,96162,1,8,0:0:0:0:
127,182,96372,1,0,0:0:0:0:
120,182,96478,1,0,0:0:0:0:
124,186,96793,1,8,0:0:0:0:
131,178,97004,1,0,0:0:0:0:
130,172,97109,1,8,0:0:0:0:
136,171,97214,1,0,0:0:0:0:
136,171,97320,1,0,0:0:0:0:
127,163,97425,1,8,0:0:0:0:
151,156,97635,1,8,0:0:0:0:
147,153,97741,1,4,0:0:0:0:
145,159,98056,1,8,0:0:0:0:
150,162,98267,1,0,0:0:0:0:
151,165,98372,1,0,0:0:0:0:
148,165,98583,1,8,0:0:0:0:
148,165,98688,1,0,0:0:0:0:
145,159,98899,1,0,0:0:0:0:
151,163,99004,1,8,0:0:0:0:
151,165,99320,1,0,0:0:0:0:
148,165,99530,1,8,0:0:0:0:
148,165,99635,1,8,0:0:0:0:
152,166,99846,1,0,0:0:0:0:
151,163,99951,1,8,0:0:0:0:
151,165,100056,1,8,0:0:0:0:
158,166,100162,1,8,0:0:0:0:
156,160,100267,1,0,0:0:0:0:
157,163,100478,1,8,0:0:0:0:
159,161,100583,1,0,0:0:0:0:
157,163,100793,1,8,0:0:0:0:
157,163,100899,1,0,0:0:0:0:
158,166,101109,1,0,0:0:0:0:
158,168,101214,1,0,0:0:0:0:
157,163,101425,1,8,0:0:0:0:
159,161,101530,1,8,0:0:0:0:
160,169,101846,1,8,0:0:0:0:
158,166,102056,1,0,0:0:0:0:
158,168,102162,1,0,0:0:0:0:
159,161,102267,1,8,0:0:0:0:
159,161,102372,1,8,0:0:0:0:
152,161,102478,1,0,0:0:0:0:
157,163,102688,1,8,0:0:0:0:
160,169,102793,1,0,0:0:0:0:
163,167,103109,1,8,0:0:0:0:
159,168,103320,1,0,0:0:0:0:
158,162,103425,1,0,0:0:0:0:
159,167,103635,1,8,0:0:0:0:
160,169,103741,1,8,0:0:0:0:
163,167,104056,1,0,0:0:0:0:
159,168,104162,1,8,0:0:0:0:
159,168,104267,1,8,0:0:0:0:
155,167,104372,1,0,0:0:0:0:
159,167,104583,1,8,0:0:0:0:
160,169,104688,1,0,0:0:0:0:
156,169,104793,1,0,0:0:0:0:
156,169,104899,1,0,0:0:0:0:
155,165,105004,1,8,0:0:0:0:
159,168,105214,1,8,0:0:0:0:
155,167,105320,1,0,0:0:0:0:
151,167,105635,1,8,0:0:0:0:
146,165,105951,1,0,0:0:0:0:
146,162,106162,1,8,0:0:0:0:
144,162,106267,1,8,0:0:0:0:
142,167,106583,1,4,0:0:0:0:
146,165,106793,1,4,0:0:0:0:
140,165,107109,1,8,0:0:0:0:
138,163,107214,1,0,0:0:0:0:
138,161,107425,1,8,0:0:0:0:
138,161,107530,1,8,0:0:0:0:
172,154,107846,1,4,0:0:0:0:
172,155,108162,1,8,0:0:0:0:
170,160,108372,1,0,0:0:0:0:
164,159,108478,1,0,0:0:0:0:
166,158,108688,1,8,0:0:0:0:
166,158,108793,1,8,0:0:0:0:
164,162,109004,1,0,0:0:0:0:
164,162,109109,1,8,0:0:0:0:
164,159,109425,1,0,0:0:0:0:
166,158,109635,1,8,0:0:0:0:
166,158,109741,1,0,0:0:0:0:
164,162,109951,1,8,0:0:0:0:
164,162,110056,1,8,0:0:0:0:
164,159,110162,1,0,0:0:0:0:
164,159,110267,1,0,0:0:0:0:
164,159,110372,1,8,0:0:0:0:
166,158,110688,1,8,0:0:0:0:
164,162,110899,1,0,0:0:0:0:
164,162,111004,1,0,0:0:0:0:
164,159,111214,1,8,0:0:0:0:
164,159,111320,1,0,0:0:0:0:
166,158,111530,1,0,0:0:0:0:
166,158,111635,1,8,0:0:0:0:
164,162,111951,1,0,0:0:0:0:
164,159,112162,1,8,0:0:0:0:
164,159,112267,1,0,0:0:0:0:
148,153,112478,1,8,0:0:0:0:
148,153,112583,1,0,0:0:0:0:
140,151,112688,1,8,0:0:0:0:
140,151,112793,1,8,0:0:0:0:
136,131,112899,1,4,0:0:0:0:
173,147,113214,1,8,0:0:0:0:
178,148,113425,1,0,0:0:0:0:
173,147,113530,1,8,0:0:0:0:
178,147,113741,1,8,0:0:0:0:
172,151,113846,1,0,0:0:0:0:
173,147,114056,1,8,0:0:0:0:
173,147,114162,1,8,0:0:0:0:
178,148,114372,1,0,0:0:0:0:
173,147,114478,1,0,0:0:0:0:
172,145,114688,1,8,0:0:0:0:
172,151,114793,1,0,0:0:0:0:
173,147,115004,1,0,0:0:0:0:
173,147,115109,1,8,0:0:0:0:
170,150,115214,1,0,0:0:0:0:
170,150,115320,1,0,0:0:0:0:
166,149,115425,1,8,0:0:0:0:
172,151,115741,1,8,0:0:0:0:
168,154,115951,1,0,0:0:0:0:
172,154,116056,1,0,0:0:0:0:
172,155,116267,1,8,0:0:0:0:
172,155,116372,1,8,0:0:0:0:
172,151,116583,1,8,0:0:0:0:
172,151,116688,1,4,0:0:0:0:
172,155,117320,1,0,0:0:0:0:
172,154,117951,1,8,0:0:0:0:
172,155,118267,1,8,0:0:0:0:
172,154,118899,1,0,0:0:0:0:
172,155,119214,1,8,0:0:0:0:
172,154,119530,1,0,0:0:0:0:
172,155,120056,1,8,0:0:0:0:
167,157,120478,1,0,0:0:0:0:
172,155,120793,1,8,0:0:0:0:
167,157,121320,1,8,0:0:0:0:
172,155,121741,1,8,0:0:0:0:
167,157,121951,1,0,0:0:0:0:
167,157,122372,1,8,0:0:0:0:
166,152,122688,1,8,0:0:0:0:
167,157,123004,1,0,0:0:0:0:
167,157,123320,1,8,0:0:0:0:
167,157,123846,1,0,0:0:0:0:
167,157,124267,1,8,0:0:0:0:
167,157,124583,1,0,0:0:0:0:
167,157,125109,1,8,0:0:0:0:
167,157,125530,1,0,0:0:0:0:
167,157,125846,1,0,0:0:0:0:
167,157,126162,1,8,0:0:0:0:
167,157,126478,1,0,0:0:0:0:
167,157,126793,1,8,0:0:0:0:
167,157,127109,1,8,0:0:0:0:
167,157,127425,1,0,0:0:0:0:
167,157,127530,1,0,0:0:0:0:
167,157,127635,1,0,0:0:0:0:
167,157,127741,1,8,0:0:0:0:
167,157,127951,1,8,0:0:0:0:
167,157,128056,1,0,0:0:0:0:
167,157,128372,1,8,0:0:0:0:
167,157,128688,1,0,0:0:0:0:
167,157,128899,1,0,0:0:0:0:
167,157,129004,1,8,0:0:0:0:
167,157,129214,1,0,0:0:0:0:
167,157,129530,1,8,0:0:0:0:
167,157,129635,1,8,0:0:0:0:
167,157,129846,1,0,0:0:0:0:
167,157,129951,1,0,0:0:0:0:
167,157,130162,1,8,0:0:0:0:
167,157,130267,1,0,0:0:0:0:
167,157,130583,1,0,0:0:0:0:
167,157,130899,1,8,0:0:0:0:
167,157,131214,1,0,0:0:0:0:
167,157,131425,1,0,0:0:0:0:
165,151,131530,1,0,0:0:0:0:
167,157,131846,1,8,0:0:0:0:
167,157,132056,1,0,0:0:0:0:
167,157,132372,1,0,0:0:0:0:
162,159,132478,1,8,0:0:0:0:
167,157,132793,1,8,0:0:0:0:
167,157,133109,1,0,0:0:0:0:
168,156,133425,1,0,0:0:0:0:
167,157,133741,1,8,0:0:0:0:
167,157,133951,1,8,0:0:0:0:
172,157,134056,1,0,0:0:0:0:
168,156,134372,1,8,0:0:0:0:
167,157,134583,1,0,0:0:0:0:
167,157,134688,1,8,0:0:0:0:
167,157,134899,1,0,0:0:0:0:
172,157,135004,1,8,0:0:0:0:
168,156,135214,1,0,0:0:0:0:
168,156,135320,1,0,0:0:0:0:
167,157,135635,1,8,0:0:0:0:
164,157,135951,1,8,0:0:0:0:
168,156,136162,1,0,0:0:0:0:
167,157,136478,1,0,0:0:0:0:
167,157,136583,1,8,0:0:0:0:
164,157,136793,1,8,0:0:0:0:
164,157,136899,1,0,0:0:0:0:
162,157,137109,1,4,0:0:0:0:
167,157,137530,1,0,0:0:0:0:
164,157,137741,1,12,0:0:0:0:
167,157,138162,1,4,0:0:0:0:
164,164,138478,1,8,0:0:0:0:
170,161,138688,1,0,0:0:0:0:
167,165,138793,1,8,0:0:0:0:
166,160,139004,1,0,0:0:0:0:
164,164,139109,1,0,0:0:0:0:
164,164,139320,1,8,0:0:0:0:
164,164,139425,1,8,0:0:0:0:
167,165,139741,1,0,0:0:0:0:
166,160,139951,1,8,0:0:0:0:
168,160,140056,1,0,0:0:0:0:
164,164,140267,1,0,0:0:0:0:
164,164,140372,1,8,0:0:0:0:
167,165,140478,1,0,0:0:0:0:
167,165,140583,1,0,0:0:0:0:
167,165,140688,1,8,0:0:0:0:
166,171,141004,1,0,0:0:0:0:
168,167,141214,1,8,0:0:0:0:
168,167,141320,1,0,0:0:0:0:
167,165,141530,1,0,0:0:0:0:
167,165,141635,1,8,0:0:0:0:
167,165,141846,1,0,0:0:0:0:
163,164,141951,1,0,0:0:0:0:
168,167,142162,1,8,0:0:0:0:
168,167,142267,1,8,0:0:0:0:
167,165,142583,1,8,0:0:0:0:
165,159,142793,1,0,0:0:0:0:
163,164,142899,1,8,0:0:0:0:
164,159,143004,1,8,0:0:0:0:
164,159,143109,1,8,0:0:0:0:
166,148,143214,1,4,0:0:0:0:
164,148,143530,1,8,0:0:0:0:
165,159,143741,1,0,0:0:0:0:
166,151,143846,1,8,0:0:0:0:
166,151,144056,1,8,0:0:0:0:
162,154,144162,1,0,0:0:0:0:
164,148,144372,1,8,0:0:0:0:
151,143,144478,1,8,0:0:0:0:
166,151,144793,1,0,0:0:0:0:
166,151,145004,1,8,0:0:0:0:
154,147,145109,1,0,0:0:0:0:
154,147,145320,1,8,0:0:0:0:
167,147,145425,1,8,0:0:0:0:
166,151,145530,1,0,0:0:0:0:
166,151,145635,1,0,0:0:0:0:
151,143,145741,1,8,0:0:0:0:
158,142,146056,1,0,0:0:0:0:
160,148,146267,1,8,0:0:0:0:
160,148,146372,1,0,0:0:0:0:
156,146,146583,1,0,0:0:0:0:
156,146,146688,1,8,0:0:0:0:
158,142,146899,1,0,0:0:0:0:
159,137,147004,1,0,0:0:0:0:
160,148,147214,1,8,0:0:0:0:
161,141,147320,1,0,0:0:0:0:
160,140,147530,1,8,0:0:0:0:
160,140,147635,1,8,0:0:0:0:
158,145,147951,1,0,0:0:0:0:
160,148,148056,1,8,0:0:0:0:
160,148,148162,1,8,0:0:0:0:
154,146,148267,1,4,0:0:0:0:
157,148,148478,1,8,0:0:0:0:
161,150,148583,1,0,0:0:0:0:
158,145,148899,1,8,0:0:0:0:
160,148,149109,1,8,0:0:0:0:
161,147,149214,1,8,0:0:0:0:
160,152,149425,1,0,0:0:0:0:
152,150,149530,1,8,0:0:0:0:
166,151,149846,1,0,0:0:0:0:
160,148,150056,1,8,0:0:0:0:
161,147,150162,1,0,0:0:0:0:
160,152,150372,1,0,0:0:0:0:
152,150,150478,1,8,0:0:0:0:
156,150,150583,1,0,0:0:0:0:
156,149,150688,1,0,0:0:0:0:
166,151,150793,1,8,0:0:0:0:
157,154,151109,1,0,0:0:0:0:
160,152,151320,1,0,0:0:0:0:
160,150,151425,1,0,0:0:0:0:
156,149,151635,1,8,0:0:0:0:
153,150,151741,1,8,0:0:0:0:
157,154,151951,1,0,0:0:0:0:
160,148,152056,1,8,0:0:0:0:
160,150,152372,1,0,0:0:0:0:
156,149,152583,1,8,0:0:0:0:
153,150,152688,1,8,0:0:0:0:
157,154,152793,1,0,0:0:0:0:
157,154,152899,1,0,0:0:0:0:
160,148,153004,1,8,0:0:0:0:
160,150,153214,1,8,0:0:0:0:
162,143,153320,1,4,0:0:0:0:
159,144,153635,1,8,0:0:0:0:
157,142,153846,1,0,0:0:0:0:
158,142,153951,1,8,0:0:0:0:
157,141,154162,1,0,0:0:0:0:
162,143,154267,1,0,0:0:0:0:
159,144,154478,1,8,0:0:0:0:
171,144,154583,1,8,0:0:0:0:
158,142,154899,1,0,0:0:0:0:
161,144,155109,1,8,0:0:0:0:
162,143,155214,1,0,0:0:0:0:
159,144,155425,1,0,0:0:0:0:
147,145,155530,1,0,0:0:0:0:
146,144,155635,1,8,0:0:0:0:
146,144,155741,1,8,0:0:0:0:
129,145,155846,1,4,0:0:0:0:
133,147,156162,1,8,0:0:0:0:
130,143,156372,1,0,0:0:0:0:
140,144,156478,1,0,0:0:0:0:
132,148,156688,1,8,0:0:0:0:
129,145,156793,1,0,0:0:0:0:
141,144,157004,1,8,0:0:0:0:
145,146,157109,1,8,0:0:0:0:
146,144,157425,1,0,0:0:0:0:
154,153,157635,1,8,0:0:0:0:
152,156,157741,1,0,0:0:0:0:
142,153,157951,1,8,0:0:0:0:
158,152,158056,1,0,0:0:0:0:
133,151,158372,1,12,0:0:0:0:
146,155,158688,1,0,0:0:0:0:
117,153,158899,1,8,0:0:0:0:
125,157,159214,1,8,0:0:0:0:
136,159,159320,1,0,0:0:0:0:
139,158,159530,1,8,0:0:0:0:
141,160,159846,1,0,0:0:0:0:
135,160,159951,1,0,0:0:0:0:
136,162,160162,1,8,0:0:0:0:
133,167,160267,1,0,0:0:0:0:
139,158,160372,1,8,0:0:0:0:
139,158,160478,1,8,0:0:0:0:
137,165,160583,1,0,0:0:0:0:
141,160,160793,1,0,0:0:0:0:
135,160,160899,1,12,0:0:0:0:
143,163,161109,1,0,0:0:0:0:
140,163,161214,1,0,0:0:0:0:
140,164,161425,1,8,0:0:0:0:
137,165,161530,1,0,0:0:0:0:
141,160,161635,1,0,0:0:0:0:
138,166,161741,1,0,0:0:0:0:
140,159,161846,1,8,0:0:0:0:
143,163,162056,1,0,0:0:0:0:
256,192,162478,12,0,163109,0:0:0:0:
137,165,163320,5,8,0:0:0:0:
137,165,163425,1,4,0:0:0:0:
132,164,163741,1,8,0:0:0:0:
132,164,163951,1,0,0:0:0:0:
129,166,164056,1,8,0:0:0:0:
128,167,164267,1,8,0:0:0:0:
137,165,164372,1,0,0:0:0:0:
132,164,164583,1,8,0:0:0:0:
132,164,164688,1,8,0:0:0:0:
136,164,165004,1,0,0:0:0:0:
134,165,165214,1,8,0:0:0:0:
137,165,165320,1,0,0:0:0:0:
132,164,165530,1,0,0:0:0:0:
129,169,165635,1,8,0:0:0:0:
129,169,165741,1,0,0:0:0:0:
129,168,165846,1,0,0:0:0:0:
127,165,165951,1,8,0:0:0:0:
134,165,166162,1,0,0:0:0:0:
137,165,166267,1,8,0:0:0:0:
132,164,166478,1,8,0:0:0:0:
129,169,166583,1,0,0:0:0:0:
129,168,166793,1,8,0:0:0:0:
127,165,166899,1,8,0:0:0:0:
127,166,167004,1,0,0:0:0:0:
127,166,167109,1,0,0:0:0:0:
123,168,167214,1,8,0:0:0:0:
126,164,167425,1,8,0:0:0:0:
129,169,167530,1,0,0:0:0:0:
125,173,167741,1,8,0:0:0:0:
123,173,167846,1,8,0:0:0:0:
126,173,168162,1,0,0:0:0:0:
125,175,168372,1,8,0:0:0:0:
124,175,168478,1,0,0:0:0:0:
125,173,168688,1,8,0:0:0:0:
123,173,168793,1,8,0:0:0:0:
123,179,169004,1,0,0:0:0:0:
123,179,169109,1,0,0:0:0:0:
127,182,169425,1,8,0:0:0:0:
126,181,169635,1,8,0:0:0:0:
127,178,169741,1,0,0:0:0:0:
123,179,169951,1,0,0:0:0:0:
123,179,170056,1,8,0:0:0:0:
127,182,170267,1,0,0:0:0:0:
127,182,170372,1,0,0:0:0:0:
126,181,170583,1,8,0:0:0:0:
127,178,170688,1,0,0:0:0:0:
128,177,170793,1,8,0:0:0:0:
123,179,170899,1,8,0:0:0:0:
128,182,171004,1,0,0:0:0:0:
127,182,171320,1,8,0:0:0:0:
126,181,171530,1,8,0:0:0:0:
124,186,171635,1,0,0:0:0:0:
123,179,171846,1,0,0:0:0:0:
121,179,171951,1,8,0:0:0:0:
127,182,172162,1,0,0:0:0:0:
120,182,172267,1,0,0:0:0:0:
124,186,172583,1,8,0:0:0:0:
131,178,172793,1,0,0:0:0:0:
130,172,172899,1,8,0:0:0:0:
136,171,173004,1,0,0:0:0:0:
136,171,173109,1,0,0:0:0:0:
127,163,173214,1,8,0:0:0:0:
151,156,173425,1,8,0:0:0:0:
147,153,173530,1,4,0:0:0:0:
145,159,173846,1,8,0:0:0:0:
150,162,174056,1,0,0:0:0:0:
151,165,174162,1,8,0:0:0:0:
148,165,174372,1,0,0:0:0:0:
148,165,174478,1,0,0:0:0:0:
145,159,174688,1,8,0:0:0:0:
151,163,174793,1,8,0:0:0:0:
151,165,175109,1,0,0:0:0:0:
148,165,175320,1,8,0:0:0:0:
148,165,175425,1,0,0:0:0:0:
152,166,175635,1,0,0:0:0:0:
151,163,175741,1,8,0:0:0:0:
151,165,175846,1,8,0:0:0:0:
158,166,175951,1,8,0:0:0:0:
156,160,176056,1,0,0:0:0:0:
157,163,176267,1,8,0:0:0:0:
159,161,176372,1,0,0:0:0:0:
157,163,176583,1,0,0:0:0:0:
157,163,176688,1,8,0:0:0:0:
158,166,176899,1,0,0:0:0:0:
158,168,177004,1,0,0:0:0:0:
157,163,177214,1,8,0:0:0:0:
159,161,177320,1,8,0:0:0:0:
160,169,177635,1,8,0:0:0:0:
158,166,177846,1,0,0:0:0:0:
158,168,177951,1,0,0:0:0:0:
159,161,178056,1,8,0:0:0:0:
159,161,178162,1,8,0:0:0:0:
152,161,178267,1,0,0:0:0:0:
157,163,178478,1,8,0:0:0:0:
160,169,178583,1,0,0:0:0:0:
163,167,178899,1,8,0:0:0:0:
159,168,179109,1,0,0:0:0:0:
158,162,179214,1,8,0:0:0:0:
159,167,179425,1,8,0:0:0:0:
160,169,179530,1,8,0:0:0:0:
163,167,179635,1,0,0:0:0:0:
163,167,179741,1,0,0:0:0:0:
163,167,179846,1,8,0:0:0:0:
163,167,180162,1,0,0:0:0:0:
166,166,180372,1,8,0:0:0:0:
166,166,180478,1,0,0:0:0:0:
170,168,180688,1,0,0:0:0:0:
170,169,180793,1,8,0:0:0:0:
168,173,180899,1,0,0:0:0:0:
168,173,181004,1,0,0:0:0:0:
166,172,181109,1,8,0:0:0:0:
166,166,181425,1,0,0:0:0:0:
170,168,181635,1,0,0:0:0:0:
170,169,181741,1,0,0:0:0:0:
168,173,181951,1,8,0:0:0:0:
166,172,182056,1,8,0:0:0:0:
168,171,182267,1,0,0:0:0:0:
165,172,182372,1,8,0:0:0:0:
164,174,182583,1,0,0:0:0:0:
163,174,182688,1,0,0:0:0:0:
168,173,182899,1,8,0:0:0:0:
166,172,183004,1,0,0:0:0:0:
168,171,183109,1,0,0:0:0:0:
168,171,183214,1,0,0:0:0:0:
165,172,183320,1,12,0:0:0:0:
164,174,183530,1,8,0:0:0:0:
137,165,183635,1,4,0:0:0:0:
132,164,183951,1,0,0:0:0:0:
132,164,184162,1,8,0:0:0:0:
129,166,184267,1,8,0:0:0:0:
128,167,184478,1,0,0:0:0:0:
137,165,184583,1,0,0:0:0:0:
132,164,184793,1,0,0:0:0:0:
132,164,184899,1,8,0:0:0:0:
136,164,185214,1,0,0:0:0:0:
134,165,185425,1,8,0:0:0:0:
137,165,185530,1,0,0:0:0:0:
132,164,185741,1,8,0:0:0:0:
129,169,185846,1,8,0:0:0:0:
129,169,185951,1,0,0:0:0:0:
129,168,186056,1,0,0:0:0:0:
127,165,186162,1,8,0:0:0:0:
134,165,186372,1,0,0:0:0:0:
137,165,186478,1,8,0:0:0:0:
132,164,186688,1,0,0:0:0:0:
129,169,186793,1,0,0:0:0:0:
129,168,187004,1,8,0:0:0:0:
127,165,187109,1,0,0:0:0:0:
127,166,187214,1,0,0:0:0:0:
127,166,187320,1,0,0:0:0:0:
123,168,187425,1,8,0:0:0:0:
126,164,187635,1,8,0:0:0:0:
129,169,187741,1,8,0:0:0:0:
125,173,187951,1,0,0:0:0:0:
123,173,188056,1,8,0:0:0:0:
126,173,188372,1,0,0:0:0:0:
125,175,188583,1,8,0:0:0:0:
124,175,188688,1,0,0:0:0:0:
125,173,188899,1,8,0:0:0:0:
123,173,189004,1,8,0:0:0:0:
123,179,189214,1,0,0:0:0:0:
123,179,189320,1,0,0:0:0:0:
127,182,189635,1,8,0:0:0:0:
126,181,189846,1,8,0:0:0:0:
127,178,189951,1,0,0:0:0:0:
123,179,190162,1,8,0:0:0:0:
123,179,190267,1,8,0:0:0:0:
127,182,190478,1,0,0:0:0:0:
127,182,190583,1,8,0:0:0:0:
126,181,190793,1,0,0:0:0:0:
127,178,190899,1,0,0:0:0:0:
128,177,191004,1,8,0:0:0:0:
123,179,191109,1,8,0:0:0:0:
128,182,191214,1,0,0:0:0:0:
127,182,191530,1,8,0:0:0:0:
126,181,191741,1,0,0:0:0:0:
124,186,191846,1,8,0:0:0:0:
123,179,192056,1,0,0:0:0:0:
121,179,192162,1,8,0:0:0:0:
127,182,192372,1,0,0:0:0:0:
120,182,192478,1,0,0:0:0:0:
124,186,192793,1,8,0:0:0:0:
131,178,193004,1,0,0:0:0:0:
130,172,193109,1,8,0:0:0:0:
136,171,193214,1,0,0:0:0:0:
136,171,193320,1,0,0:0:0:0:
127,163,193425,1,8,0:0:0:0:
151,156,193635,1,8,0:0:0:0:
147,153,193741,1,4,0:0:0:0:
145,159,194056,1,8,0:0:0:0:
150,162,194267,1,0,0:0:0:0:
151,165,194372,1,0,0:0:0:0:
148,165,194583,1,8,0:0:0:0:
148,165,194688,1,8,0:0:0:0:
145,159,194899,1,0,0:0:0:0:
151,163,195004,1,8,0:0:0:0:
151,165,195320,1,0,0:0:0:0:
148,165,195530,1,8,0:0:0:0:
148,165,195635,1,0,0:0:0:0:
152,166,195846,1,0,0:0:0:0:
151,163,195951,1,0,0:0:0:0:
151,165,196056,1,8,0:0:0:0:
158,166,196162,1,8,0:0:0:0:
156,160,196267,1,0,0:0:0:0:
157,163,196478,1,8,0:0:0:0:
159,161,196583,1,8,0:0:0:0:
157,163,196793,1,8,0:0:0:0:
157,163,196899,1,8,0:0:0:0:
158,166,197109,1,0,0:0:0:0:
158,168,197214,1,0,0:0:0:0:
159,161,197425,1,0,0:0:0:0:
157,163,197530,1,8,0:0:0:0:
160,169,197846,1,0,0:0:0:0:
158,166,198056,1,8,0:0:0:0:
158,168,198162,1,8,0:0:0:0:
159,161,198267,1,0,0:0:0:0:
159,161,198372,1,0,0:0:0:0:
152,161,198478,1,8,0:0:0:0:
157,163,198688,1,8,0:0:0:0:
160,169,198793,1,0,0:0:0:0:
163,167,199109,1,8,0:0:0:0:
159,168,199320,1,0,0:0:0:0:
158,162,199425,1,0,0:0:0:0:
159,167,199635,1,8,0:0:0:0:
160,169,199741,1,8,0:0:0:0:
163,167,200056,1,0,0:0:0:0:
159,168,200162,1,8,0:0:0:0:
159,168,200267,1,8,0:0:0:0:
155,167,200372,1,0,0:0:0:0:
159,167,200583,1,0,0:0:0:0:
160,169,200688,1,8,0:0:0:0:
156,169,200793,1,0,0:0:0:0:
156,169,200899,1,0,0:0:0:0:
155,165,201004,1,8,0:0:0:0:
159,168,201214,1,8,0:0:0:0:
155,167,201320,1,8,0:0:0:0:
153,145,202583,1,4,0:0:0:0:
153,145,202793,1,4,0:0:0:0:
153,145,203109,1,0,0:0:0:0:
153,145,203214,1,8,0:0:0:0:
153,145,203320,1,8,0:0:0:0:
153,145,203425,1,8,0:0:0:0:
153,145,203530,1,0,0:0:0:0:
153,145,203741,1,8,0:0:0:0:
153,145,203846,1,4,0:0:0:0:
153,145,204162,1,8,0:0:0:0:
153,145,204372,1,0,0:0:0:0:
153,145,204478,1,8,0:0:0:0:
153,145,204688,1,0,0:0:0:0:
153,145,204793,1,8,0:0:0:0:
153,145,205004,1,8,0:0:0:0:
153,145,205109,1,0,0:0:0:0:
153,145,205425,1,8,0:0:0:0:
153,145,205635,1,0,0:0:0:0:
153,145,205741,1,0,0:0:0:0:
153,145,205951,1,8,0:0:0:0:
153,145,206056,1,0,0:0:0:0:
153,145,206162,1,8,0:0:0:0:
153,145,206267,1,8,0:0:0:0:
153,145,206372,1,0,0:0:0:0:
153,145,206688,1,8,0:0:0:0:
153,145,206899,1,0,0:0:0:0:
153,145,207004,1,8,0:0:0:0:
153,145,207320,1,0,0:0:0:0:
153,145,207530,1,8,0:0:0:0:
153,145,207635,1,0,0:0:0:0:
153,145,207951,1,8,0:0:0:0:
153,145,208162,1,0,0:0:0:0:
153,145,208267,1,0,0:0:0:0:
153,145,208478,1,8,0:0:0:0:
153,145,208583,1,8,0:0:0:0:
153,145,208688,1,0,0:0:0:0:
153,145,208793,1,0,0:0:0:0:
153,145,208899,1,8,0:0:0:0:
153,145,209214,1,0,0:0:0:0:
153,145,209425,1,8,0:0:0:0:
153,145,209530,1,0,0:0:0:0:
153,145,209741,1,8,0:0:0:0:
153,145,209846,1,8,0:0:0:0:
153,145,210056,1,0,0:0:0:0:
153,145,210162,1,0,0:0:0:0:
153,145,210478,1,8,0:0:0:0:
153,145,210688,1,0,0:0:0:0:
153,145,210793,1,8,0:0:0:0:
153,145,211004,1,8,0:0:0:0:
153,145,211109,1,0,0:0:0:0:
153,145,211214,1,0,0:0:0:0:
153,145,211320,1,0,0:0:0:0:
153,145,211425,1,8,0:0:0:0:
153,145,211741,1,0,0:0:0:0:
153,145,211951,1,8,0:0:0:0:
160,141,212056,1,0,0:0:0:0:
165,142,212267,1,8,0:0:0:0:
165,142,212372,1,8,0:0:0:0:
168,153,212583,1,0,0:0:0:0:
167,152,212688,1,0,0:0:0:0:
171,144,213004,1,8,0:0:0:0:
165,142,213214,1,0,0:0:0:0:
165,142,213320,1,0,0:0:0:0:
164,142,213425,1,8,0:0:0:0:
165,142,213530,1,8,0:0:0:0:
162,145,213635,1,0,0:0:0:0:
161,145,213846,1,8,0:0:0:0:
166,142,213951,1,4,0:0:0:0:
153,145,214267,1,8,0:0:0:0:
153,145,214478,1,0,0:0:0:0:
153,145,214583,1,0,0:0:0:0:
153,145,214793,1,0,0:0:0:0:
153,145,214899,1,0,0:0:0:0:
153,145,215109,1,8,0:0:0:0:
153,145,215214,1,8,0:0:0:0:
153,145,215530,1,0,0:0:0:0:
153,145,215741,1,8,0:0:0:0:
153,145,215846,1,0,0:0:0:0:
153,145,216056,1,0,0:0:0:0:
153,145,216162,1,8,0:0:0:0:
153,145,216267,1,0,0:0:0:0:
153,145,216372,1,0,0:0:0:0:
153,145,216478,1,8,0:0:0:0:
153,145,216793,1,0,0:0:0:0:
153,145,217004,1,8,0:0:0:0:
153,145,217109,1,8,0:0:0:0:
153,145,217425,1,0,0:0:0:0:
153,145,217635,1,8,0:0:0:0:
153,145,217741,1,0,0:0:0:0:
153,145,217951,1,0,0:0:0:0:
153,145,218056,1,8,0:0:0:0:
153,145,218267,1,0,0:0:0:0:
153,145,218372,1,0,0:0:0:0:
153,145,218583,1,8,0:0:0:0:
153,145,218688,1,0,0:0:0:0:
153,145,218793,1,0,0:0:0:0:
153,145,218899,1,0,0:0:0:0:
153,145,219004,1,8,0:0:0:0:
153,145,219320,1,0,0:0:0:0:
153,145,219530,1,0,0:0:0:0:
153,145,219635,1,8,0:0:0:0:
153,145,219846,1,0,0:0:0:0:
153,145,219951,1,8,0:0:0:0:
153,145,220162,1,0,0:0:0:0:
153,145,220267,1,0,0:0:0:0:
153,145,220583,1,8,0:0:0:0:
153,145,220793,1,0,0:0:0:0:
153,145,220899,1,8,0:0:0:0:
153,145,221109,1,8,0:0:0:0:
153,145,221214,1,0,0:0:0:0:
153,145,221320,1,8,0:0:0:0:
153,145,221425,1,8,0:0:0:0:
153,145,221530,1,0,0:0:0:0:
153,145,221846,1,8,0:0:0:0:
153,145,222056,1,0,0:0:0:0:
160,141,222162,1,0,0:0:0:0:
165,142,222372,1,0,0:0:0:0:
165,142,222478,1,8,0:0:0:0:
168,153,222688,1,0,0:0:0:0:
167,152,222793,1,0,0:0:0:0:
173,139,224056,1,8,0:0:0:0:
173,139,224688,1,0,0:0:0:0:
173,139,225004,1,0,0:0:0:0:
173,139,225320,1,8,0:0:0:0:
173,139,225951,1,0,0:0:0:0:
173,139,226267,1,8,0:0:0:0:
173,139,226478,1,8,0:0:0:0:
173,139,226583,1,0,0:0:0:0:
173,139,227214,1,8,0:0:0:0:
173,139,227846,1,8,0:0:0:0:
173,139,228056,1,0,0:0:0:0:
173,139,228372,1,8,0:0:0:0:
173,139,228478,1,0,0:0:0:0:
173,139,228688,1,8,0:0:0:0:
173,139,228793,1,8,0:0:0:0:
167,139,229109,1,0,0:0:0:0:
173,139,229741,1,8,0:0:0:0:
167,139,230056,1,8,0:0:0:0:
173,139,230372,1,0,0:0:0:0:
173,139,231004,1,8,0:0:0:0:
173,139,231320,1,0,0:0:0:0:
167,133,231530,1,0,0:0:0:0:
173,139,231635,1,8,0:0:0:0:
173,139,232267,1,8,0:0:0:0:
169,145,232899,1,0,0:0:0:0:
167,145,233214,1,8,0:0:0:0:
173,148,233530,1,0,0:0:0:0:
172,150,233741,1,0,0:0:0:0:
169,145,233846,1,8,0:0:0:0:
167,145,234056,1,8,0:0:0:0:
167,145,234162,1,4,0:0:0:0:
173,148,234478,1,8,0:0:0:0:
172,150,234688,1,0,0:0:0:0:
179,150,234793,1,8,0:0:0:0:
179,150,235004,1,8,0:0:0:0:
179,150,235109,1,0,0:0:0:0:
179,148,235425,1,8,0:0:0:0:
179,150,235741,1,0,0:0:0:0:
179,150,235951,1,8,0:0:0:0:
184,145,236056,1,0,0:0:0:0:
179,148,236267,1,8,0:0:0:0:
179,148,236372,1,8,0:0:0:0:
179,150,236583,1,0,0:0:0:0:
179,150,236688,1,8,0:0:0:0:
184,145,237004,1,0,0:0:0:0:
184,146,237214,1,8,0:0:0:0:
179,148,237320,1,8,0:0:0:0:
186,146,237530,1,0,0:0:0:0:
179,150,237635,1,8,0:0:0:0:
184,145,237741,1,0,0:0:0:0:
184,145,237846,1,0,0:0:0:0:
184,145,237951,1,8,0:0:0:0:
186,146,238267,1,0,0:0:0:0:
186,146,238478,1,8,0:0:0:0:
179,150,238583,1,0,0:0:0:0:
191,145,238793,1,8,0:0:0:0:
184,145,238899,1,0,0:0:0:0:
186,146,239109,1,0,0:0:0:0:
186,146,239214,1,12,0:0:0:0:
179,150,239530,1,8,0:0:0:0:
177,149,239846,1,0,0:0:0:0:
177,150,240162,1,8,0:0:0:0:
179,150,240372,1,0,0:0:0:0:
172,146,240478,1,8,0:0:0:0:
171,151,240688,1,0,0:0:0:0:
166,153,240793,1,0,0:0:0:0:
171,151,241109,1,8,0:0:0:0:
171,153,241320,1,8,0:0:0:0:
167,151,241425,1,0,0:0:0:0:
171,151,241635,1,0,0:0:0:0:
173,154,241741,1,8,0:0:0:0:
171,151,242056,1,0,0:0:0:0:
171,153,242267,1,8,0:0:0:0:
167,151,242372,1,8,0:0:0:0:
173,154,242688,1,0,0:0:0:0:
171,151,242899,1,0,0:0:0:0:
176,150,243004,1,8,0:0:0:0:
171,153,243214,1,0,0:0:0:0:
167,151,243320,1,0,0:0:0:0:
173,154,243635,1,8,0:0:0:0:
171,151,243741,1,8,0:0:0:0:
171,151,243846,1,8,0:0:0:0:
170,153,243951,1,0,0:0:0:0:
171,153,244162,1,0,0:0:0:0:
167,151,244267,1,12,0:0:0:0:
173,154,244583,1,8,0:0:0:0:
176,153,244793,1,0,0:0:0:0:
172,154,245214,1,8,0:0:0:0:
173,154,245425,1,8,0:0:0:0:
169,154,245741,1,0,0:0:0:0:
172,154,245846,1,8,0:0:0:0:
172,154,246056,1,0,0:0:0:0:
172,154,246162,1,0,0:0:0:0:
173,154,246372,1,8,0:0:0:0:
169,154,246478,1,8,0:0:0:0:
169,154,246688,1,0,0:0:0:0:
172,154,246793,1,12,0:0:0:0:
172,154,247109,1,8,0:0:0:0:
166,157,247320,1,0,0:0:0:0:
169,154,247425,1,0,0:0:0:0:
165,151,247741,1,0,0:0:0:0:
166,154,248056,1,8,0:0:0:0:
166,157,248267,1,0,0:0:0:0:
169,154,248372,1,8,0:0:0:0:
165,151,248583,1,8,0:0:0:0:
165,151,248688,1,0,0:0:0:0:
166,154,248899,1,8,0:0:0:0:
160,155,249004,1,0,0:0:0:0:
160,155,249109,1,0,0:0:0:0:
159,155,249214,1,0,0:0:0:0:
154,154,249320,1,12,0:0:0:0:
132,164,250583,1,4,0:0:0:0:
136,164,250899,1,8,0:0:0:0:
134,165,251109,1,0,0:0:0:0:
137,165,251214,1,0,0:0:0:0:
132,164,251425,1,8,0:0:0:0:
129,169,251530,1,8,0:0:0:0:
129,169,251635,1,0,0:0:0:0:
129,168,251741,1,0,0:0:0:0:
127,165,251846,1,8,0:0:0:0:
134,165,252056,1,0,0:0:0:0:
137,165,252162,1,8,0:0:0:0:
132,164,252372,1,0,0:0:0:0:
129,169,252478,1,0,0:0:0:0:
129,168,252688,1,8,0:0:0:0:
127,165,252793,1,0,0:0:0:0:
127,166,252899,1,8,0:0:0:0:
127,166,253004,1,8,0:0:0:0:
123,168,253109,1,0,0:0:0:0:
126,164,253320,1,0,0:0:0:0:
129,169,253425,1,8,0:0:0:0:
125,173,253635,1,0,0:0:0:0:
123,173,253741,1,0,0:0:0:0:
126,173,254056,1,8,0:0:0:0:
125,175,254267,1,8,0:0:0:0:
124,175,254372,1,0,0:0:0:0:
125,173,254583,1,8,0:0:0:0:
123,173,254688,1,8,0:0:0:0:
123,179,254899,1,0,0:0:0:0:
123,179,255004,1,0,0:0:0:0:
127,182,255320,1,8,0:0:0:0:
126,181,255530,1,8,0:0:0:0:
127,178,255635,1,0,0:0:0:0:
123,179,255846,1,8,0:0:0:0:
123,179,255951,1,8,0:0:0:0:
127,182,256162,1,0,0:0:0:0:
127,182,256267,1,8,0:0:0:0:
126,181,256478,1,0,0:0:0:0:
127,178,256583,1,0,0:0:0:0:
128,177,256688,1,8,0:0:0:0:
123,179,256793,1,0,0:0:0:0:
128,182,256899,1,8,0:0:0:0:
127,182,257214,1,0,0:0:0:0:
126,181,257425,1,8,0:0:0:0:
124,186,257530,1,8,0:0:0:0:
123,179,257741,1,0,0:0:0:0:
121,179,257846,1,8,0:0:0:0:
127,182,258056,1,0,0:0:0:0:
120,182,258162,1,0,0:0:0:0:
124,186,258478,1,8,0:0:0:0:
131,178,258688,1,0,0:0:0:0:
130,172,258793,1,8,0:0:0:0:
136,171,258899,1,0,0:0:0:0:
136,171,259004,1,0,0:0:0:0:
127,163,259109,1,8,0:0:0:0:
151,156,259320,1,8,0:0:0:0:
147,153,259425,1,4,0:0:0:0:
145,159,259741,1,8,0:0:0:0:
150,162,259951,1,0,0:0:0:0:
151,165,260056,1,0,0:0:0:0:
148,165,260267,1,8,0:0:0:0:
148,165,260372,1,8,0:0:0:0:
145,159,260583,1,0,0:0:0:0:
151,163,260688,1,8,0:0:0:0:
151,165,261004,1,0,0:0:0:0:
148,165,261214,1,8,0:0:0:0:
148,165,261320,1,0,0:0:0:0:
152,166,261530,1,8,0:0:0:0:
151,163,261635,1,0,0:0:0:0:
151,165,261741,1,8,0:0:0:0:
158,166,261846,1,8,0:0:0:0:
156,160,261951,1,0,0:0:0:0:
157,163,262162,1,0,0:0:0:0:
159,161,262267,1,8,0:0:0:0:
157,163,262478,1,0,0:0:0:0:
157,163,262583,1,8,0:0:0:0:
158,166,262793,1,0,0:0:0:0:
158,168,262899,1,0,0:0:0:0:
157,163,263109,1,8,0:0:0:0:
159,161,263214,1,8,0:0:0:0:
160,169,263530,1,8,0:0:0:0:
158,166,263741,1,8,0:0:0:0:
158,168,263846,1,0,0:0:0:0:
159,161,263951,1,0,0:0:0:0:
159,161,264056,1,0,0:0:0:0:
152,161,264162,1,8,0:0:0:0:
157,163,264372,1,8,0:0:0:0:
160,169,264478,1,0,0:0:0:0:
163,167,264793,1,8,0:0:0:0:
159,168,265004,1,0,0:0:0:0:
158,162,265109,1,0,0:0:0:0:
159,167,265320,1,8,0:0:0:0:
160,169,265425,1,8,0:0:0:0:
163,167,265530,1,0,0:0:0:0:
163,167,265635,1,0,0:0:0:0:
163,167,265741,1,8,0:0:0:0:
163,167,266056,1,0,0:0:0:0:
166,166,266267,1,8,0:0:0:0:
166,166,266372,1,0,0:0:0:0:
170,168,266583,1,0,0:0:0:0:
170,169,266688,1,8,0:0:0:0:
168,173,266793,1,0,0:0:0:0:
168,173,266899,1,0,0:0:0:0:
166,172,267004,1,8,0:0:0:0:
166,166,267320,1,0,0:0:0:0:
170,168,267530,1,8,0:0:0:0:
170,169,267635,1,8,0:0:0:0:
168,173,267846,1,8,0:0:0:0:
166,172,267951,1,8,0:0:0:0:
168,171,268162,1,0,0:0:0:0:
165,172,268267,1,0,0:0:0:0:
164,174,268478,1,0,0:0:0:0:
163,174,268583,1,8,0:0:0:0:
168,173,268793,1,8,0:0:0:0:
166,172,268899,1,8,0:0:0:0:
168,171,269004,1,0,0:0:0:0:
168,171,269109,1,0,0:0:0:0:
165,172,269214,1,12,0:0:0:0:
164,174,269425,1,8,0:0:0:0:
137,165,269530,1,4,0:0:0:0:
132,164,269846,1,8,0:0:0:0:
132,164,270056,1,0,0:0:0:0:
129,166,270162,1,8,0:0:0:0:
128,167,270372,1,0,0:0:0:0:
137,165,270478,1,0,0:0:0:0:
132,164,270688,1,8,0:0:0:0:
132,164,270793,1,8,0:0:0:0:
136,164,271109,1,0,0:0:0:0:
134,165,271320,1,8,0:0:0:0:
137,165,271425,1,0,0:0:0:0:
132,164,271635,1,0,0:0:0:0:
129,169,271741,1,0,0:0:0:0:
129,169,271846,1,8,0:0:0:0:
129,168,271951,1,8,0:0:0:0:
127,165,272056,1,0,0:0:0:0:
134,165,272267,1,8,0:0:0:0:
137,165,272372,1,0,0:0:0:0:
132,164,272583,1,0,0:0:0:0:
129,169,272688,1,0,0:0:0:0:
129,168,272899,1,8,0:0:0:0:
127,165,273004,1,0,0:0:0:0:
127,166,273109,1,0,0:0:0:0:
127,166,273214,1,0,0:0:0:0:
123,168,273320,1,8,0:0:0:0:
126,164,273530,1,0,0:0:0:0:
129,169,273635,1,0,0:0:0:0:
125,173,273846,1,0,0:0:0:0:
123,173,273951,1,8,0:0:0:0:
126,173,274267,1,0,0:0:0:0:
125,175,274478,1,8,0:0:0:0:
124,175,274583,1,0,0:0:0:0:
125,173,274793,1,8,0:0:0:0:
123,173,274899,1,8,0:0:0:0:
123,179,275109,1,0,0:0:0:0:
123,179,275214,1,0,0:0:0:0:
127,182,275530,1,8,0:0:0:0:
126,181,275741,1,8,0:0:0:0:
127,178,275846,1,0,0:0:0:0:
123,179,276056,1,8,0:0:0:0:
123,179,276162,1,0,0:0:0:0:
127,182,276372,1,8,0:0:0:0:
127,182,276478,1,8,0:0:0:0:
126,181,276688,1,0,0:0:0:0:
127,178,276793,1,8,0:0:0:0:
128,177,276899,1,8,0:0:0:0:
123,179,277004,1,8,0:0:0:0:
128,182,277109,1,0,0:0:0:0:
127,182,277425,1,8,0:0:0:0:
126,181,277635,1,8,0:0:0:0:
124,186,277741,1,0,0:0:0:0:
123,179,277951,1,0,0:0:0:0:
121,179,278056,1,8,0:0:0:0:
127,182,278267,1,0,0:0:0:0:
120,182,278372,1,0,0:0:0:0:
124,186,278688,1,8,0:0:0:0:
131,178,278899,1,8,0:0:0:0:
130,172,279004,1,8,0:0:0:0:
136,171,279109,1,0,0:0:0:0:
136,171,279214,1,0,0:0:0:0:
127,163,279320,1,8,0:0:0:0:
151,156,279530,1,8,0:0:0:0:
147,153,279635,1,4,0:0:0:0:
145,159,279951,1,8,0:0:0:0:
150,162,280162,1,0,0:0:0:0:
151,165,280267,1,8,0:0:0:0:
148,165,280478,1,8,0:0:0:0:
148,165,280583,1,0,0:0:0:0:
145,159,280793,1,8,0:0:0:0:
151,163,280899,1,8,0:0:0:0:
151,165,281214,1,0,0:0:0:0:
148,165,281425,1,8,0:0:0:0:
148,165,281530,1,0,0:0:0:0:
152,166,281741,1,0,0:0:0:0:
151,163,281846,1,8,0:0:0:0:
151,165,281951,1,0,0:0:0:0:
158,166,282056,1,0,0:0:0:0:
156,160,282162,1,8,0:0:0:0:
157,163,282372,1,0,0:0:0:0:
159,161,282478,1,0,0:0:0:0:
157,163,282688,1,8,0:0:0:0:
157,163,282793,1,0,0:0:0:0:
158,166,283004,1,8,0:0:0:0:
158,168,283109,1,0,0:0:0:0:
157,163,283320,1,8,0:0:0:0:
159,161,283425,1,8,0:0:0:0:
160,169,283741,1,8,0:0:0:0:
158,166,283951,1,0,0:0:0:0:
158,168,284056,1,0,0:0:0:0:
159,161,284162,1,8,0:0:0:0:
159,161,284267,1,8,0:0:0:0:
152,161,284372,1,0,0:0:0:0:
157,163,284583,1,8,0:0:0:0:
160,169,284688,1,0,0:0:0:0:
163,167,285004,1,8,0:0:0:0:
159,168,285214,1,0,0:0:0:0:
158,162,285320,1,8,0:0:0:0:
159,167,285530,1,8,0:0:0:0:
160,169,285635,1,0,0:0:0:0:
163,167,285951,1,8,0:0:0:0:
159,168,286056,1,0,0:0:0:0:
159,168,286162,1,0,0:0:0:0:
155,167,286267,1,8,0:0:0:0:
159,167,286478,1,0,0:0:0:0:
160,169,286583,1,8,0:0:0:0:
156,169,286688,1,0,0:0:0:0:
156,169,286793,1,0,0:0:0:0:
155,165,286899,1,8,0:0:0:0:
159,168,287109,1,8,0:0:0:0:
155,167,287214,1,0,0:0:0:0:
151,167,287530,1,8,0:0:0:0:
146,165,287846,1,0,0:0:0:0:
146,162,288056,1,8,0:0:0:0:
144,162,288162,1,8,0:0:0:0:
142,167,288478,1,4,0:0:0:0:
146,165,288688,1,4,0:0:0:0:
140,165,289004,1,8,0:0:0:0:
138,163,289109,1,8,0:0:0:0:
138,161,289320,1,0,0:0:0:0:
138,161,289425,1,8,0:0:0:0:
172,154,289741,1,4,0:0:0:0:
178,147,290056,1,8,0:0:0:0:
173,147,290267,1,8,0:0:0:0:
173,147,290372,1,0,0:0:0:0:
173,147,290583,1,8,0:0:0:0:
173,147,290688,1,8,0:0:0:0:
173,147,290899,1,0,0:0:0:0:
178,147,291004,1,0,0:0:0:0:
173,147,291320,1,0,0:0:0:0:
173,147,291530,1,8,0:0:0:0:
173,147,291635,1,0,0:0:0:0:
173,147,291846,1,0,0:0:0:0:
178,147,291951,1,8,0:0:0:0:
173,147,292056,1,0,0:0:0:0:
173,147,292162,1,0,0:0:0:0:
173,147,292267,1,8,0:0:0:0:
173,147,292583,1,0,0:0:0:0:
173,147,292793,1,8,0:0:0:0:
178,147,292899,1,8,0:0:0:0:
173,147,293109,1,0,0:0:0:0:
173,147,293214,1,0,0:0:0:0:
173,147,293425,1,0,0:0:0:0:
173,147,293530,1,8,0:0:0:0:
178,147,293846,1,0,0:0:0:0:
173,147,294056,1,8,0:0:0:0:
173,147,294162,1,0,0:0:0:0:
173,147,294372,1,8,0:0:0:0:
173,147,294478,1,8,0:0:0:0:
178,147,294583,1,0,0:0:0:0:
178,147,294688,1,8,0:0:0:0:
178,147,294793,1,4,0:0:0:0:
173,147,295109,1,8,0:0:0:0:
178,148,295320,1,0,0:0:0:0:
173,147,295425,1,8,0:0:0:0:
178,147,295635,1,0,0:0:0:0:
172,151,295741,1,0,0:0:0:0:
173,147,295951,1,8,0:0:0:0:
173,147,296056,1,8,0:0:0:0:
178,148,296267,1,0,0:0:0:0:
173,147,296372,1,8,0:0:0:0:
172,145,296583,1,8,0:0:0:0:
172,151,296688,1,0,0:0:0:0:
173,147,296899,1,8,0:0:0:0:
173,147,297004,1,0,0:0:0:0:
170,150,297109,1,0,0:0:0:0:
170,150,297214,1,0,0:0:0:0:
166,149,297320,1,8,0:0:0:0:
172,151,297635,1,0,0:0:0:0:
168,154,297846,1,8,0:0:0:0:
172,154,297951,1,8,0:0:0:0:
172,155,298162,1,0,0:0:0:0:
172,155,298267,1,0,0:0:0:0:
172,151,298478,1,0,0:0:0:0:
172,151,298583,1,8,0:0:0:0:
174,153,298793,1,8,0:0:0:0:
172,154,298899,1,0,0:0:0:0:
172,155,299109,1,0,0:0:0:0:
172,155,299214,1,8,0:0:0:0:
176,154,299320,1,0,0:0:0:0:
176,154,299425,1,0,0:0:0:0:
172,151,299530,1,8,0:0:0:0:
172,154,299741,1,8,0:0:0:0:
172,154,299846,1,4,0:0:0:0:
172,155,300162,1,8,0:0:0:0:
170,160,300372,1,0,0:0:0:0:
164,159,300478,1,8,0:0:0:0:
166,158,300688,1,8,0:0:0:0:
166,158,300793,1,0,0:0:0:0:
164,162,301004,1,8,0:0:0:0:
164,162,301109,1,8,0:0:0:0:
164,159,301425,1,0,0:0:0:0:
166,158,301635,1,8,0:0:0:0:
166,158,301741,1,0,0:0:0:0:
164,162,301951,1,8,0:0:0:0:
164,162,302056,1,8,0:0:0:0:
164,159,302162,1,0,0:0:0:0:
164,159,302267,1,0,0:0:0:0:
164,159,302372,1,8,0:0:0:0:
166,158,302688,1,0,0:0:0:0:
164,162,302899,1,8,0:0:0:0:
164,162,303004,1,0,0:0:0:0:
164,159,303214,1,8,0:0:0:0:
164,159,303320,1,0,0:0:0:0:
166,158,303530,1,8,0:0:0:0:
166,158,303635,1,8,0:0:0:0:
164,162,303951,1,0,0:0:0:0:
164,159,304162,1,0,0:0:0:0:
164,159,304267,1,8,0:0:0:0:
148,153,304478,1,8,0:0:0:0:
148,153,304583,1,0,0:0:0:0:
140,151,304688,1,8,0:0:0:0:
140,151,304793,1,8,0:0:0:0:
136,131,304899,1,4,0:0:0:0:
173,147,305214,1,8,0:0:0:0:
178,148,305425,1,8,0:0:0:0:
173,147,305530,1,0,0:0:0:0:
178,147,305741,1,8,0:0:0:0:
172,151,305846,1,8,0:0:0:0:
173,147,306056,1,0,0:0:0:0:
173,147,306162,1,8,0:0:0:0:
178,148,306372,1,0,0:0:0:0:
173,147,306478,1,0,0:0:0:0:
172,145,306688,1,0,0:0:0:0:
172,151,306793,1,8,0:0:0:0:
173,147,307004,1,8,0:0:0:0:
173,147,307109,1,8,0:0:0:0:
170,150,307214,1,0,0:0:0:0:
170,150,307320,1,0,0:0:0:0:
166,149,307425,1,8,0:0:0:0:
172,151,307741,1,0,0:0:0:0:
168,154,307951,1,8,0:0:0:0:
172,154,308056,1,8,0:0:0:0:
172,155,308267,1,8,0:0:0:0:
172,155,308372,1,8,0:0:0:0:
172,151,308583,1,8,0:0:0:0:
172,151,308688,1,4,0:0:0:0:
175,148,309320,1,8,0:0:0:0:
175,148,309846,1,0,0:0:0:0:
175,148,309951,1,8,0:0:0:0:
175,148,310162,1,0,0:0:0:0:
175,148,310478,1,8,0:0:0:0:
175,148,310583,1,0,0:0:0:0:
175,148,310688,1,8,0:0:0:0:
175,148,310793,1,8,0:0:0:0:
175,148,310899,1,0,0:0:0:0:
175,148,311109,1,8,0:0:0:0:
175,148,311214,1,0,0:0:0:0:
175,148,311530,1,4,0:0:0:0:
175,148,311741,1,12,0:0:0:0:
256,192,311951,12,8,316267,0:0:0:0:
