osu file format v14

[General]
AudioFilename: audio.mp3
AudioLeadIn: 0
PreviewTime: 162478
Countdown: 0
SampleSet: Normal
StackLeniency: 0.7
Mode: 1
LetterboxInBreaks: 0
WidescreenStoryboard: 1

[Editor]
Bookmarks: 478,21951,42162,67425,87635,107846,117951,138162,163425,183635,203846,224056,234162,250583,269530,289741,316267
DistanceSpacing: 1
BeatDivisor: 3
GridSize: 32
TimelineZoom: 2.6

[Metadata]
Title:Koi, Hitokuchi.
TitleUnicode:恋、ひとくち。
Artist:Yuizuki Sora
ArtistUnicode:結月そら
Creator:Nozdormu
Version:Collab Muzukashii
Source:恋ニ、甘味ヲソエテ
Tags:sergom4444 tart3c6 taiko all rounder tournament 3 quarterfinals qf video game japanese j-pop jpop pop love's sweet garnish koi ni kanmi o soete visual novel vn eroge swing galgame canvas+garden sekai project opening op 宮坂なこ 宮坂みゆ miyasaka miyu naco nako 大久保潤 okubo jun
BeatmapID:4083619
BeatmapSetID:1968810

[Difficulty]
HPDrainRate:6
CircleSize:4
OverallDifficulty:4.5
ApproachRate:8
SliderMultiplier:1.4
SliderTickRate:1

[Events]
//Background and Video events
0,0,"cherry.jpg",0,0
//Break Periods
//Storyboard Layer 0 (Background)
//Storyboard Layer 1 (Fail)
//Storyboard Layer 2 (Pass)
//Storyboard Layer 3 (Foreground)
//Storyboard Layer 4 (Overlay)
//Storyboard Sound Samples

[TimingPoints]
478,315.789473684211,4,1,0,80,1,0
478,-133.333333333333,4,1,0,80,0,0
21310,-133.333333333333,4,1,0,70,0,0
21941,-133.333333333333,4,1,0,60,0,0
41099,-133.333333333333,4,1,0,64,0,0
41520,-133.333333333333,4,1,0,70,0,0
41731,-133.333333333333,4,1,0,74,0,0
42152,-133.333333333333,4,1,0,80,0,0
66267,-133.333333333333,4,1,0,50,0,0
67214,-128.205128205128,4,1,0,90,0,0
67425,-128.205128205128,4,1,0,90,0,1
106783,-129.030280740468,4,1,0,88,0,1
107099,-130.292151522654,4,1,0,86,0,1
107415,-131.578947368421,4,1,0,83,0,1
107520,-132.012166441943,4,1,0,82,0,1
107836,-133.333333333333,4,1,0,80,0,1
107846,-133.333333333333,4,1,0,80,0,0
117310,-133.333333333333,4,1,0,65,0,0
117941,-133.333333333333,4,1,0,50,0,0
127625,-133.333333333333,4,1,0,52,0,0
127731,-133.333333333333,4,1,0,54,0,0
127941,-133.333333333333,4,1,0,58,0,0
128046,-133.333333333333,4,1,0,60,0,0
137099,-133.333333333333,4,1,0,64,0,0
137520,-133.333333333333,4,1,0,70,0,0
137731,-133.333333333333,4,1,0,74,0,0
138152,-133.333333333333,4,1,0,80,0,0
162267,-133.333333333333,4,1,0,50,0,0
163214,-128.205128205128,4,1,0,90,0,0
163425,-128.205128205128,4,1,0,90,0,1
202573,-128.205128205128,4,1,0,90,0,1
202783,-129.030280740468,4,1,0,88,0,1
203099,-130.292151522654,4,1,0,86,0,1
203415,-131.578947368421,4,1,0,83,0,1
203520,-132.012166441943,4,1,0,82,0,1
203836,-133.333333333333,4,1,0,80,0,1
203846,-133.333333333333,4,1,0,80,0,0
223109,-133.333333333333,4,1,0,74,0,0
223425,-133.333333333333,4,1,0,68,0,0
223741,-133.333333333333,4,1,0,60,0,0
233204,-133.333333333333,4,1,0,65,0,0
233520,-133.333333333333,4,1,0,70,0,0
233731,-133.333333333333,4,1,0,73,0,0
233836,-133.333333333333,4,1,0,75,0,0
234152,-133.333333333333,4,1,0,80,0,0
249530,-133.333333333333,4,1,0,5,0,0
250372,-128.205128205128,4,1,0,90,0,0
250583,-128.205128205128,4,1,0,90,0,1
288678,-129.030280740468,4,1,0,88,0,1
288994,-130.292151522654,4,1,0,86,0,1
289310,-131.578947368421,4,1,0,84,0,1
289415,-132.012166441943,4,1,0,82,0,1
289731,-133.333333333333,4,1,0,80,0,1
289741,-133.333333333333,4,1,0,80,0,0
311846,-133.333333333333,4,1,0,50,0,0
312372,-133.333333333333,4,1,0,45,0,0
313635,-142.857142857143,4,1,0,40,0,0
314899,-153.846153846154,4,1,0,35,0,0
316162,-166.666666666667,4,1,0,30,0,0

[HitObjects]
146,145,478,5,8,0:0:0:0:
146,145,793,1,0,0:0:0:0:
146,145,1004,1,0,0:0:0:0:
146,145,1109,1,0,0:0:0:0:
146,145,1425,1,8,0:0:0:0:
146,145,1741,1,4,0:0:0:0:
146,145,2372,1,8,0:0:0:0:
146,145,2688,1,0,0:0:0:0:
146,145,3004,1,8,0:0:0:0:
146,145,3320,1,8,0:0:0:0:
146,145,3635,1,0,0:0:0:0:
146,145,3846,1,0,0:0:0:0:
146,145,3951,1,0,0:0:0:0:
146,145,4267,1,8,0:0:0:0:
146,145,4899,1,0,0:0:0:0:
146,145,5214,1,0,0:0:0:0:
146,145,5530,1,8,0:0:0:0:
146,145,5741,1,8,0:0:0:0:
146,145,5846,1,8,0:0:0:0:
146,145,6162,1,0,0:0:0:0:
146,145,6478,1,8,0:0:0:0:
146,145,6793,1,4,0:0:0:0:
146,145,7425,1,8,0:0:0:0:
146,145,7635,1,0,0:0:0:0:
146,145,7741,1,0,0:0:0:0:
146,145,8056,1,8,0:0:0:0:
112,139,8688,1,0,0:0:0:0:
112,139,9004,1,0,0:0:0:0:
103,133,9320,1,8,0:0:0:0:
102,136,9951,1,0,0:0:0:0:
103,133,10162,1,0,0:0:0:0:
106,138,10267,1,0,0:0:0:0:
102,136,10583,1,8,0:0:0:0:
102,136,10899,1,0,0:0:0:0:
103,133,11109,1,8,0:0:0:0:
106,138,11214,1,8,0:0:0:0:
102,136,11530,1,8,0:0:0:0:
96,167,11846,1,4,0:0:0:0:
96,167,12478,1,8,0:0:0:0:
96,167,12688,1,0,0:0:0:0:
96,167,12793,1,0,0:0:0:0:
96,167,13109,1,8,0:0:0:0:
96,167,13425,1,8,0:0:0:0:
88,158,13741,1,0,0:0:0:0:
90,157,14056,1,0,0:0:0:0:
80,140,14372,1,8,0:0:0:0:
89,138,15004,1,0,0:0:0:0:
91,133,15320,1,8,0:0:0:0:
89,138,15635,1,0,0:0:0:0:
89,138,15951,1,0,0:0:0:0:
90,152,16267,1,8,0:0:0:0:
90,152,16478,1,8,0:0:0:0:
90,152,16583,1,8,0:0:0:0:
106,177,16899,1,4,0:0:0:0:
106,177,17530,1,8,0:0:0:0:
106,177,17846,1,0,0:0:0:0:
101,180,18162,1,8,0:0:0:0:
106,177,18793,1,0,0:0:0:0:
101,180,19109,1,0,0:0:0:0:
106,177,19425,1,8,0:0:0:0:
106,177,19741,1,0,0:0:0:0:
105,173,19951,1,8,0:0:0:0:
105,173,20056,1,8,0:0:0:0:
111,164,20267,1,0,0:0:0:0:
111,164,20372,1,0,0:0:0:0:
116,152,20688,1,4,0:0:0:0:
114,152,21320,1,0,0:0:0:0:
114,152,21951,1,8,0:0:0:0:
224,160,22267,1,0,0:0:0:0:
288,160,22899,1,8,0:0:0:0:
224,160,23109,1,0,0:0:0:0:
224,160,23214,1,0,0:0:0:0:
288,160,23530,1,8,0:0:0:0:
224,160,23846,1,0,0:0:0:0:
224,160,24162,1,0,0:0:0:0:
224,160,24478,1,8,0:0:0:0:
224,160,25109,1,8,0:0:0:0:
288,160,25425,1,0,0:0:0:0:
224,160,25635,1,8,0:0:0:0:
224,160,25741,1,8,0:0:0:0:
288,160,26372,1,0,0:0:0:0:
288,160,26688,1,0,0:0:0:0:
224,160,27004,1,8,0:0:0:0:
288,160,27635,1,8,0:0:0:0:
288,160,27951,1,8,0:0:0:0:
224,160,28267,1,0,0:0:0:0:
225,167,28583,1,8,0:0:0:0:
288,160,28899,1,0,0:0:0:0:
224,160,29425,1,0,0:0:0:0:
224,160,29530,1,0,0:0:0:0:
224,160,29846,1,0,0:0:0:0:
288,160,30162,1,8,0:0:0:0:
288,160,30793,1,8,0:0:0:0:
288,160,31109,1,8,0:0:0:0:
224,160,31425,1,0,0:0:0:0:
288,160,31635,1,8,0:0:0:0:
288,160,31741,1,8,0:0:0:0:
224,160,32056,1,0,0:0:0:0:
288,160,32688,1,8,0:0:0:0:
224,160,33004,1,0,0:0:0:0:
224,160,33214,1,0,0:0:0:0:
224,160,33320,1,0,0:0:0:0:
224,160,33951,1,0,0:0:0:0:
288,160,34267,1,8,0:0:0:0:
288,160,34583,1,0,0:0:0:0:
224,160,35109,1,8,0:0:0:0:
224,160,35214,1,8,0:0:0:0:
224,160,35530,1,0,0:0:0:0:
288,160,35846,1,8,0:0:0:0:
224,160,36162,1,0,0:0:0:0:
288,160,36478,1,8,0:0:0:0:
288,160,36688,1,8,0:0:0:0:
288,160,36793,1,8,0:0:0:0:
285,166,37004,1,0,0:0:0:0:
288,160,37109,1,0,0:0:0:0:
224,160,37741,1,8,0:0:0:0:
224,160,37951,1,0,0:0:0:0:
224,160,38056,1,0,0:0:0:0:
288,160,38372,1,8,0:0:0:0:
288,160,38688,1,8,0:0:0:0:
224,160,39004,1,0,0:0:0:0:
224,160,39320,1,0,0:0:0:0:
288,160,39635,1,8,0:0:0:0:
288,160,39951,1,8,0:0:0:0:
224,160,40162,1,0,0:0:0:0:
288,160,40899,1,0,0:0:0:0:
224,160,41109,1,12,0:0:0:0:
288,160,41530,5,8,0:0:0:0:
224,160,41741,1,4,0:0:0:0:
153,147,42162,5,12,0:0:0:0:
153,147,42372,1,0,0:0:0:0:
153,147,42478,1,0,0:0:0:0:
153,147,42793,1,8,0:0:0:0:
153,147,43109,1,0,0:0:0:0:
153,147,43320,1,8,0:0:0:0:
153,147,43741,1,0,0:0:0:0:
150,152,43951,1,8,0:0:0:0:
150,152,44056,1,8,0:0:0:0:
155,152,44372,1,8,0:0:0:0:
155,152,44688,1,0,0:0:0:0:
155,152,45320,1,8,0:0:0:0:
155,152,45635,1,0,0:0:0:0:
155,152,45951,1,0,0:0:0:0:
155,152,46162,1,8,0:0:0:0:
155,152,46267,1,8,0:0:0:0:
155,152,46583,1,0,0:0:0:0:
155,152,46899,1,0,0:0:0:0:
155,152,47214,1,12,0:0:0:0:
155,152,47846,1,0,0:0:0:0:
155,152,48056,1,0,0:0:0:0:
155,152,48162,1,0,0:0:0:0:
155,152,48478,1,8,0:0:0:0:
155,152,48793,1,0,0:0:0:0:
155,152,49109,1,8,0:0:0:0:
155,152,49320,1,8,0:0:0:0:
155,152,49425,1,8,0:0:0:0:
147,142,49741,1,0,0:0:0:0:
146,141,50056,1,0,0:0:0:0:
144,143,50372,1,8,0:0:0:0:
147,142,50688,1,8,0:0:0:0:
144,143,51004,1,0,0:0:0:0:
144,143,51214,1,8,0:0:0:0:
144,143,51320,1,8,0:0:0:0:
147,142,51530,1,0,0:0:0:0:
147,142,51635,1,0,0:0:0:0:
147,138,51951,1,0,0:0:0:0:
112,149,52267,1,12,0:0:0:0:
112,149,52899,1,8,0:0:0:0:
112,149,53214,1,0,0:0:0:0:
112,149,53530,1,0,0:0:0:0:
115,153,54162,1,8,0:0:0:0:
105,157,54372,1,8,0:0:0:0:
106,157,54478,1,8,0:0:0:0:
98,159,54793,1,0,0:0:0:0:
98,159,55109,1,8,0:0:0:0:
97,163,55425,1,0,0:0:0:0:
97,164,55741,1,0,0:0:0:0:
80,163,56056,1,8,0:0:0:0:
100,159,56688,1,0,0:0:0:0:
114,150,56899,1,0,0:0:0:0:
116,151,57004,1,0,0:0:0:0:
166,148,57320,1,12,0:0:0:0:
143,148,57951,1,0,0:0:0:0:
147,154,58267,1,8,0:0:0:0:
146,156,58583,1,0,0:0:0:0:
140,156,58899,1,0,0:0:0:0:
128,161,59214,1,8,0:0:0:0:
127,161,59425,1,8,0:0:0:0:
127,161,59530,1,8,0:0:0:0:
109,185,59846,1,4,0:0:0:0:
105,178,60478,1,8,0:0:0:0:
109,185,60688,1,0,0:0:0:0:
109,185,60793,1,0,0:0:0:0:
107,186,61109,1,8,0:0:0:0:
102,190,61425,1,0,0:0:0:0:
109,185,61741,1,0,0:0:0:0:
112,174,61951,1,8,0:0:0:0:
112,174,62056,1,8,0:0:0:0:
131,157,62372,1,12,0:0:0:0:
133,158,62899,1,0,0:0:0:0:
131,157,63320,1,0,0:0:0:0:
133,158,63530,1,8,0:0:0:0:
133,158,63846,1,0,0:0:0:0:
131,157,63951,1,0,0:0:0:0:
131,157,64267,1,0,0:0:0:0:
133,158,64583,1,8,0:0:0:0:
131,157,64899,1,4,0:0:0:0:
131,157,65214,1,0,0:0:0:0:
128,163,65425,1,8,0:0:0:0:
133,158,65530,1,8,0:0:0:0:
136,162,65846,1,8,0:0:0:0:
136,159,66056,1,0,0:0:0:0:
256,192,66478,12,0,67109,0:0:0:0:
153,158,67425,5,4,0:0:0:0:
153,158,67741,1,8,0:0:0:0:
153,158,68056,1,0,0:0:0:0:
153,158,68372,1,8,0:0:0:0:
153,158,68583,1,8,0:0:0:0:
153,158,69004,1,0,0:0:0:0:
153,158,69214,1,8,0:0:0:0:
153,158,69320,1,8,0:0:0:0:
153,158,69635,1,8,0:0:0:0:
159,161,69951,1,0,0:0:0:0:
161,165,70267,1,0,0:0:0:0:
163,164,70583,1,8,0:0:0:0:
164,171,70899,1,8,0:0:0:0:
168,164,71109,1,0,0:0:0:0:
163,164,71530,1,0,0:0:0:0:
158,162,71741,1,8,0:0:0:0:
158,162,71846,1,8,0:0:0:0:
163,164,72162,1,8,0:0:0:0:
159,161,72478,1,4,0:0:0:0:
154,162,73109,1,8,0:0:0:0:
154,163,73425,1,0,0:0:0:0:
154,162,73741,1,12,0:0:0:0:
154,162,74056,1,0,0:0:0:0:
154,163,74267,1,0,0:0:0:0:
154,163,74372,1,0,0:0:0:0:
154,162,74688,1,0,0:0:0:0:
158,161,75004,1,12,0:0:0:0:
154,162,75635,1,0,0:0:0:0:
158,161,75846,1,8,0:0:0:0:
158,161,75951,1,8,0:0:0:0:
154,162,76267,1,4,0:0:0:0:
154,162,76583,1,8,0:0:0:0:
152,163,76793,1,0,0:0:0:0:
152,163,76899,1,0,0:0:0:0:
154,162,77214,1,0,0:0:0:0:
158,161,77530,1,12,0:0:0:0:
154,162,78162,1,0,0:0:0:0:
151,161,78478,1,8,0:0:0:0:
154,162,78793,1,0,0:0:0:0:
151,161,79320,1,8,0:0:0:0:
151,161,79425,1,8,0:0:0:0:
154,162,79741,1,8,0:0:0:0:
158,161,80056,1,0,0:0:0:0:
168,170,80372,1,8,0:0:0:0:
164,177,80583,1,0,0:0:0:0:
169,172,80688,1,0,0:0:0:0:
164,177,81004,1,0,0:0:0:0:
167,177,81320,1,8,0:0:0:0:
162,162,81846,1,8,0:0:0:0:
159,162,81951,1,8,0:0:0:0:
155,167,82267,1,8,0:0:0:0:
158,161,82583,1,4,0:0:0:0:
154,160,83214,1,0,0:0:0:0:
158,161,83425,1,8,0:0:0:0:
158,161,83530,1,8,0:0:0:0:
159,163,83846,1,4,0:0:0:0:
154,160,84162,1,8,0:0:0:0:
158,161,84372,1,0,0:0:0:0:
150,162,84478,1,0,0:0:0:0:
159,163,84793,1,0,0:0:0:0:
158,161,85109,1,12,0:0:0:0:
159,163,85635,1,0,0:0:0:0:
158,161,85951,1,0,0:0:0:0:
158,161,86056,1,0,0:0:0:0:
159,163,86267,1,8,0:0:0:0:
159,163,86372,1,8,0:0:0:0:
159,163,86583,1,0,0:0:0:0:
162,165,86899,1,8,0:0:0:0:
158,161,87004,5,8,0:0:0:0:
159,163,87214,1,8,0:0:0:0:
159,163,87320,1,8,0:0:0:0:
156,157,87635,5,4,0:0:0:0:
156,157,87951,1,8,0:0:0:0:
156,157,88267,1,0,0:0:0:0:
156,157,88583,1,0,0:0:0:0:
156,157,88793,1,8,0:0:0:0:
156,157,89214,1,0,0:0:0:0:
156,157,89425,1,8,0:0:0:0:
156,157,89530,1,8,0:0:0:0:
156,157,89846,1,8,0:0:0:0:
156,157,90162,1,0,0:0:0:0:
156,157,90478,1,0,0:0:0:0:
158,162,90793,1,8,0:0:0:0:
156,157,91109,1,8,0:0:0:0:
158,166,91320,1,0,0:0:0:0:
158,162,91741,1,8,0:0:0:0:
158,166,91951,1,8,0:0:0:0:
158,166,92056,1,8,0:0:0:0:
159,170,92372,1,8,0:0:0:0:
156,169,92688,1,4,0:0:0:0:
148,165,93320,1,8,0:0:0:0:
146,167,93635,1,0,0:0:0:0:
148,165,93951,1,12,0:0:0:0:
148,165,94267,1,8,0:0:0:0:
146,167,94478,1,0,0:0:0:0:
146,167,94583,1,0,0:0:0:0:
148,165,94899,1,8,0:0:0:0:
148,165,95214,1,4,0:0:0:0:
148,165,95846,1,8,0:0:0:0:
148,165,96056,1,8,0:0:0:0:
148,165,96162,1,8,0:0:0:0:
148,165,96478,1,4,0:0:0:0:
148,165,96793,1,8,0:0:0:0:
148,165,97004,1,0,0:0:0:0:
148,165,97109,1,0,0:0:0:0:
148,165,97425,1,8,0:0:0:0:
148,165,97741,1,4,0:0:0:0:
148,165,98372,1,8,0:0:0:0:
148,165,98688,1,0,0:0:0:0:
144,155,99004,1,8,0:0:0:0:
149,155,99530,1,8,0:0:0:0:
149,156,99635,1,8,0:0:0:0:
156,157,99951,1,8,0:0:0:0:
152,156,100267,1,0,0:0:0:0:
149,156,100583,1,8,0:0:0:0:
156,157,100899,1,0,0:0:0:0:
152,156,101109,1,0,0:0:0:0:
152,156,101214,1,0,0:0:0:0:
155,158,101530,1,8,0:0:0:0:
152,156,102056,1,8,0:0:0:0:
152,156,102162,1,8,0:0:0:0:
154,149,102478,1,8,0:0:0:0:
168,143,102793,1,0,0:0:0:0:
97,238,103109,1,0,0:0:0:0:
161,155,103425,1,8,0:0:0:0:
161,155,104056,1,8,0:0:0:0:
161,155,104267,1,8,0:0:0:0:
161,155,104372,1,8,0:0:0:0:
161,155,104583,1,0,0:0:0:0:
161,155,104688,1,0,0:0:0:0:
161,155,105004,1,0,0:0:0:0:
161,155,105320,1,8,0:0:0:0:
161,155,105951,1,8,0:0:0:0:
161,155,106583,1,4,0:0:0:0:
161,155,106793,1,4,0:0:0:0:
161,155,107109,1,8,0:0:0:0:
161,155,107425,1,8,0:0:0:0:
161,155,107530,1,8,0:0:0:0:
161,155,107846,1,4,0:0:0:0:
161,155,108478,1,8,0:0:0:0:
161,155,108688,1,0,0:0:0:0:
161,155,108793,1,0,0:0:0:0:
161,155,109109,1,8,0:0:0:0:
161,155,109425,1,8,0:0:0:0:
161,155,109741,1,0,0:0:0:0:
161,155,110056,1,0,0:0:0:0:
161,155,110372,1,8,0:0:0:0:
161,155,111004,1,0,0:0:0:0:
161,155,111320,1,8,0:0:0:0:
161,155,111635,1,0,0:0:0:0:
161,155,111951,1,8,0:0:0:0:
161,155,112267,1,0,0:0:0:0:
161,155,112478,1,0,0:0:0:0:
161,155,112583,1,0,0:0:0:0:
161,155,112899,1,12,0:0:0:0:
224,160,113530,1,0,0:0:0:0:
224,160,113846,1,8,0:0:0:0:
288,160,114162,1,8,0:0:0:0:
224,160,114793,1,0,0:0:0:0:
288,160,115109,1,8,0:0:0:0:
288,160,115425,1,0,0:0:0:0:
224,160,115741,1,8,0:0:0:0:
224,160,115951,1,8,0:0:0:0:
224,160,116056,1,8,0:0:0:0:
288,160,116267,1,0,0:0:0:0:
288,160,116372,1,0,0:0:0:0:
288,160,116688,1,12,0:0:0:0:
224,160,117320,5,0,0:0:0:0:
189,147,117951,5,8,0:0:0:0:
189,147,118267,1,8,0:0:0:0:
189,147,118899,1,8,0:0:0:0:
189,147,119214,1,0,0:0:0:0:
189,147,119530,1,0,0:0:0:0:
189,147,120162,1,0,0:0:0:0:
189,147,120478,1,8,0:0:0:0:
189,147,120793,1,0,0:0:0:0:
189,147,121425,1,8,0:0:0:0:
189,147,121741,1,0,0:0:0:0:
189,147,121951,1,8,0:0:0:0:
189,147,122372,1,0,0:0:0:0:
189,147,122688,1,8,0:0:0:0:
189,147,123004,1,8,0:0:0:0:
182,147,123320,1,0,0:0:0:0:
182,147,123951,1,8,0:0:0:0:
182,147,124267,1,0,0:0:0:0:
182,148,124583,1,8,0:0:0:0:
163,145,125214,1,0,0:0:0:0:
151,142,125530,1,8,0:0:0:0:
138,145,125846,1,8,0:0:0:0:
137,145,126162,1,0,0:0:0:0:
136,150,126793,1,0,0:0:0:0:
131,152,127109,1,8,0:0:0:0:
132,155,127425,1,0,0:0:0:0:
132,155,127635,1,0,0:0:0:0:
132,155,127741,1,0,0:0:0:0:
135,157,127951,1,8,0:0:0:0:
135,157,128056,1,8,0:0:0:0:
132,155,128688,1,8,0:0:0:0:
135,157,128899,1,0,0:0:0:0:
135,157,129004,1,0,0:0:0:0:
132,156,129214,1,8,0:0:0:0:
132,155,129635,1,0,0:0:0:0:
130,151,129846,1,8,0:0:0:0:
130,151,129951,1,8,0:0:0:0:
135,148,130267,1,8,0:0:0:0:
154,147,130583,1,0,0:0:0:0:
156,156,131214,1,0,0:0:0:0:
157,155,131425,1,0,0:0:0:0:
157,155,131530,1,0,0:0:0:0:
208,156,131846,1,8,0:0:0:0:
184,149,132372,1,0,0:0:0:0:
186,150,132478,1,0,0:0:0:0:
169,156,132793,1,8,0:0:0:0:
160,153,133109,1,0,0:0:0:0:
175,149,133741,1,0,0:0:0:0:
181,142,133951,1,8,0:0:0:0:
180,143,134056,1,8,0:0:0:0:
183,146,134372,1,8,0:0:0:0:
180,141,134688,1,0,0:0:0:0:
181,142,134899,1,0,0:0:0:0:
180,143,135004,1,0,0:0:0:0:
172,140,135320,1,0,0:0:0:0:
153,145,135635,1,8,0:0:0:0:
156,145,135951,1,0,0:0:0:0:
159,148,136162,1,0,0:0:0:0:
163,149,136478,1,8,0:0:0:0:
162,149,136583,1,8,0:0:0:0:
167,147,136899,1,8,0:0:0:0:
165,148,137109,1,4,0:0:0:0:
162,149,137530,1,0,0:0:0:0:
160,154,137741,1,12,0:0:0:0:
162,149,138162,1,4,0:0:0:0:
153,147,138478,1,0,0:0:0:0:
153,147,138793,1,8,0:0:0:0:
153,147,139109,1,8,0:0:0:0:
153,147,139320,1,0,0:0:0:0:
153,147,139741,1,8,0:0:0:0:
150,152,139951,1,0,0:0:0:0:
150,152,140056,1,0,0:0:0:0:
155,152,140372,1,0,0:0:0:0:
155,152,140688,1,8,0:0:0:0:
155,152,141320,1,8,0:0:0:0:
155,152,141530,1,0,0:0:0:0:
155,152,141635,1,0,0:0:0:0:
155,152,141951,1,0,0:0:0:0:
155,152,142162,1,8,0:0:0:0:
155,152,142267,1,8,0:0:0:0:
155,152,142583,1,8,0:0:0:0:
155,152,142899,1,8,0:0:0:0:
155,152,143214,1,4,0:0:0:0:
155,152,143846,1,0,0:0:0:0:
155,152,144056,1,0,0:0:0:0:
155,152,144162,1,0,0:0:0:0:
155,152,144478,1,8,0:0:0:0:
155,152,144793,1,0,0:0:0:0:
155,152,145109,1,8,0:0:0:0:
155,152,145320,1,8,0:0:0:0:
155,152,145425,1,8,0:0:0:0:
147,142,145741,1,0,0:0:0:0:
148,145,146056,1,0,0:0:0:0:
144,143,146372,1,8,0:0:0:0:
147,142,146688,1,0,0:0:0:0:
144,143,147004,1,8,0:0:0:0:
144,143,147214,1,8,0:0:0:0:
144,143,147320,1,8,0:0:0:0:
147,142,147530,1,0,0:0:0:0:
147,142,147635,1,0,0:0:0:0:
147,138,147951,1,0,0:0:0:0:
112,149,148267,1,12,0:0:0:0:
112,149,148899,1,8,0:0:0:0:
112,149,149214,1,0,0:0:0:0:
112,149,149530,1,8,0:0:0:0:
115,153,150162,1,0,0:0:0:0:
105,157,150372,1,8,0:0:0:0:
106,157,150478,1,8,0:0:0:0:
98,159,150793,1,0,0:0:0:0:
98,159,151109,1,0,0:0:0:0:
97,163,151425,1,8,0:0:0:0:
97,164,151741,1,8,0:0:0:0:
80,163,152056,1,0,0:0:0:0:
100,159,152688,1,0,0:0:0:0:
114,150,152899,1,8,0:0:0:0:
116,151,153004,1,8,0:0:0:0:
166,148,153320,1,4,0:0:0:0:
143,148,153951,1,8,0:0:0:0:
147,154,154267,1,0,0:0:0:0:
146,156,154583,1,8,0:0:0:0:
140,156,154899,1,8,0:0:0:0:
128,161,155214,1,0,0:0:0:0:
127,161,155425,1,0,0:0:0:0:
127,161,155530,1,0,0:0:0:0:
109,185,155846,1,12,0:0:0:0:
105,178,156478,1,0,0:0:0:0:
109,185,156688,1,0,0:0:0:0:
109,185,156793,1,0,0:0:0:0:
107,186,157109,1,8,0:0:0:0:
102,190,157425,1,8,0:0:0:0:
109,185,157741,1,0,0:0:0:0:
112,174,157951,1,8,0:0:0:0:
112,174,158056,1,8,0:0:0:0:
131,157,158372,1,12,0:0:0:0:
133,158,158899,1,8,0:0:0:0:
131,157,159320,1,0,0:0:0:0:
133,158,159530,1,0,0:0:0:0:
133,158,159846,1,0,0:0:0:0:
131,157,159951,1,0,0:0:0:0:
131,157,160267,1,8,0:0:0:0:
133,158,160583,1,8,0:0:0:0:
131,157,160899,1,4,0:0:0:0:
131,157,161214,1,0,0:0:0:0:
133,158,161425,1,8,0:0:0:0:
133,158,161530,1,8,0:0:0:0:
131,157,161846,1,8,0:0:0:0:
136,159,162056,1,0,0:0:0:0:
256,192,162478,12,0,163109,0:0:0:0:
153,158,163425,5,4,0:0:0:0:
153,158,163741,1,8,0:0:0:0:
153,158,164056,1,8,0:0:0:0:
153,158,164372,1,0,0:0:0:0:
153,158,164583,1,0,0:0:0:0:
153,158,165004,1,8,0:0:0:0:
153,158,165214,1,0,0:0:0:0:
153,158,165320,1,0,0:0:0:0:
153,158,165635,1,8,0:0:0:0:
159,161,165951,1,0,0:0:0:0:
161,165,166267,1,0,0:0:0:0:
163,164,166583,1,8,0:0:0:0:
159,161,166899,1,8,0:0:0:0:
168,164,167109,1,0,0:0:0:0:
163,164,167530,1,8,0:0:0:0:
158,162,167741,1,0,0:0:0:0:
158,162,167846,1,0,0:0:0:0:
163,164,168162,1,8,0:0:0:0:
159,161,168478,1,4,0:0:0:0:
154,162,169109,1,8,0:0:0:0:
154,163,169425,1,8,0:0:0:0:
154,162,169741,1,4,0:0:0:0:
154,162,170056,1,8,0:0:0:0:
154,163,170267,1,8,0:0:0:0:
154,163,170372,1,8,0:0:0:0:
154,162,170688,1,0,0:0:0:0:
158,161,171004,1,4,0:0:0:0:
154,162,171635,1,0,0:0:0:0:
158,161,171846,1,8,0:0:0:0:
158,161,171951,1,8,0:0:0:0:
154,162,172267,1,4,0:0:0:0:
154,162,172583,1,8,0:0:0:0:
152,163,172793,1,0,0:0:0:0:
152,163,172899,1,0,0:0:0:0:
154,162,173214,1,0,0:0:0:0:
158,161,173530,1,12,0:0:0:0:
154,162,174162,1,8,0:0:0:0:
151,161,174478,1,8,0:0:0:0:
154,162,174793,1,8,0:0:0:0:
151,161,175320,1,0,0:0:0:0:
151,161,175425,1,0,0:0:0:0:
154,162,175741,1,8,0:0:0:0:
158,161,176056,1,0,0:0:0:0:
168,170,176372,1,8,0:0:0:0:
164,177,176583,1,0,0:0:0:0:
169,172,176688,1,0,0:0:0:0:
164,177,177004,1,0,0:0:0:0:
167,177,177320,1,8,0:0:0:0:
150,160,177846,1,8,0:0:0:0:
159,162,177951,1,8,0:0:0:0:
155,167,178267,1,8,0:0:0:0:
158,161,178583,1,4,0:0:0:0:
154,160,179214,1,8,0:0:0:0:
158,161,179425,1,0,0:0:0:0:
158,161,179530,1,0,0:0:0:0:
159,163,179846,1,12,0:0:0:0:
154,160,180162,1,8,0:0:0:0:
158,161,180372,1,0,0:0:0:0:
150,162,180478,1,0,0:0:0:0:
159,163,180793,1,8,0:0:0:0:
158,161,181109,1,4,0:0:0:0:
159,163,181635,1,8,0:0:0:0:
158,161,181951,1,0,0:0:0:0:
158,161,182056,1,0,0:0:0:0:
159,163,182267,1,8,0:0:0:0:
159,163,182372,1,8,0:0:0:0:
159,163,182583,1,0,0:0:0:0:
155,166,182899,1,8,0:0:0:0:
158,161,183004,1,8,0:0:0:0:
159,163,183214,1,8,0:0:0:0:
159,163,183320,1,8,0:0:0:0:
158,161,183635,1,4,0:0:0:0:
156,157,183951,1,0,0:0:0:0:
156,157,184267,1,8,0:0:0:0:
156,157,184583,1,8,0:0:0:0:
156,157,184793,1,0,0:0:0:0:
156,157,185214,1,8,0:0:0:0:
156,157,185425,1,0,0:0:0:0:
156,157,185530,1,0,0:0:0:0:
156,157,185846,1,0,0:0:0:0:
156,157,186162,1,8,0:0:0:0:
156,157,186478,1,0,0:0:0:0:
158,162,186793,1,8,0:0:0:0:
156,157,187109,1,8,0:0:0:0:
158,166,187320,1,0,0:0:0:0:
158,162,187741,1,8,0:0:0:0:
158,166,187951,1,8,0:0:0:0:
158,166,188056,1,8,0:0:0:0:
159,170,188372,1,0,0:0:0:0:
156,169,188688,1,4,0:0:0:0:
148,165,189320,1,8,0:0:0:0:
146,167,189635,1,8,0:0:0:0:
148,165,189951,1,4,0:0:0:0:
148,165,190267,1,8,0:0:0:0:
146,167,190478,1,0,0:0:0:0:
146,167,190583,1,0,0:0:0:0:
148,165,190899,1,0,0:0:0:0:
148,165,191214,1,12,0:0:0:0:
148,165,191846,1,0,0:0:0:0:
148,165,192056,1,8,0:0:0:0:
148,165,192162,1,8,0:0:0:0:
148,165,192478,1,12,0:0:0:0:
148,165,192793,1,0,0:0:0:0:
148,165,193004,1,0,0:0:0:0:
148,165,193109,1,0,0:0:0:0:
148,165,193425,1,8,0:0:0:0:
148,165,193741,1,4,0:0:0:0:
148,165,194372,1,8,0:0:0:0:
148,165,194688,1,8,0:0:0:0:
144,155,195004,1,8,0:0:0:0:
149,155,195530,1,0,0:0:0:0:
149,156,195635,1,0,0:0:0:0:
156,157,195951,1,8,0:0:0:0:
152,156,196267,1,0,0:0:0:0:
149,156,196583,1,0,0:0:0:0:
156,157,196899,1,8,0:0:0:0:
152,156,197109,1,8,0:0:0:0:
152,156,197214,1,8,0:0:0:0:
155,158,197530,1,0,0:0:0:0:
152,156,198056,1,8,0:0:0:0:
152,156,198162,1,8,0:0:0:0:
154,149,198478,1,8,0:0:0:0:
168,143,198793,1,0,0:0:0:0:
97,238,199109,1,0,0:0:0:0:
161,155,199425,1,8,0:0:0:0:
161,155,200056,1,0,0:0:0:0:
161,155,200267,1,0,0:0:0:0:
161,155,200372,1,0,0:0:0:0:
161,155,200583,1,8,0:0:0:0:
161,155,200688,1,8,0:0:0:0:
161,155,201004,1,0,0:0:0:0:
161,155,201320,1,8,0:0:0:0:
161,155,202583,1,4,0:0:0:0:
161,155,202793,1,4,0:0:0:0:
161,155,203109,5,8,0:0:0:0:
161,155,203425,1,0,0:0:0:0:
161,155,203530,1,0,0:0:0:0:
182,144,203846,5,12,0:0:0:0:
182,144,204162,1,8,0:0:0:0:
182,144,204478,1,0,0:0:0:0:
182,144,204688,1,8,0:0:0:0:
182,144,204793,1,8,0:0:0:0:
182,144,205109,1,0,0:0:0:0:
182,144,205741,1,8,0:0:0:0:
187,145,206056,1,0,0:0:0:0:
188,146,206267,1,8,0:0:0:0:
179,141,206372,1,8,0:0:0:0:
187,145,207004,1,8,0:0:0:0:
188,146,207214,1,0,0:0:0:0:
190,148,207320,1,0,0:0:0:0:
199,145,207635,1,0,0:0:0:0:
195,137,208267,1,0,0:0:0:0:
193,135,208583,1,8,0:0:0:0:
198,138,208899,1,8,0:0:0:0:
201,140,209530,1,8,0:0:0:0:
198,138,209846,1,0,0:0:0:0:
195,142,210056,1,8,0:0:0:0:
202,150,210162,1,8,0:0:0:0:
206,142,210478,1,8,0:0:0:0:
215,146,210793,1,0,0:0:0:0:
211,148,211109,1,0,0:0:0:0:
193,144,211425,1,8,0:0:0:0:
161,150,212056,1,0,0:0:0:0:
149,157,212372,1,8,0:0:0:0:
136,161,212688,1,0,0:0:0:0:
160,152,213214,1,8,0:0:0:0:
160,152,213320,1,8,0:0:0:0:
164,145,213635,1,0,0:0:0:0:
182,146,213951,1,12,0:0:0:0:
185,155,214583,1,8,0:0:0:0:
186,155,214899,1,8,0:0:0:0:
188,161,215214,1,0,0:0:0:0:
193,159,215846,1,8,0:0:0:0:
181,158,216162,1,0,0:0:0:0:
193,159,216372,1,8,0:0:0:0:
195,153,216478,1,8,0:0:0:0:
186,157,216793,1,8,0:0:0:0:
183,152,217109,1,0,0:0:0:0:
198,152,217741,1,0,0:0:0:0:
201,154,217951,1,0,0:0:0:0:
193,152,218056,1,0,0:0:0:0:
198,152,218372,1,8,0:0:0:0:
189,150,218688,1,0,0:0:0:0:
210,152,219004,1,8,0:0:0:0:
209,155,219635,1,0,0:0:0:0:
210,152,219951,1,0,0:0:0:0:
214,152,220267,1,8,0:0:0:0:
214,148,220583,1,0,0:0:0:0:
210,152,220899,1,8,0:0:0:0:
207,155,221109,1,8,0:0:0:0:
205,149,221214,1,8,0:0:0:0:
188,152,221530,1,0,0:0:0:0:
181,150,222056,1,8,0:0:0:0:
179,150,222372,1,0,0:0:0:0:
179,150,222478,1,0,0:0:0:0:
187,152,222793,1,4,0:0:0:0:
288,160,224056,5,8,0:0:0:0:
288,160,224688,1,8,0:0:0:0:
208,161,225004,1,0,0:0:0:0:
288,160,225320,1,8,0:0:0:0:
200,161,225951,1,0,0:0:0:0:
288,160,226267,1,8,0:0:0:0:
200,161,226478,1,0,0:0:0:0:
200,161,226583,1,0,0:0:0:0:
288,160,227214,1,8,0:0:0:0:
195,163,227846,1,0,0:0:0:0:
288,160,228056,1,8,0:0:0:0:
195,163,228372,1,0,0:0:0:0:
195,163,228478,1,0,0:0:0:0:
195,163,228793,1,0,0:0:0:0:
290,163,229109,1,8,0:0:0:0:
290,163,229741,1,8,0:0:0:0:
170,168,230056,1,0,0:0:0:0:
170,168,230372,1,0,0:0:0:0:
170,168,231004,1,0,0:0:0:0:
281,171,231320,1,8,0:0:0:0:
281,171,231530,1,8,0:0:0:0:
281,171,231635,1,8,0:0:0:0:
288,160,232267,5,8,0:0:0:0:
224,160,232899,1,0,0:0:0:0:
288,160,233214,1,0,0:0:0:0:
224,160,233530,5,8,0:0:0:0:
224,160,233741,1,8,0:0:0:0:
224,160,233846,1,8,0:0:0:0:
166,167,234162,5,4,0:0:0:0:
166,167,234478,1,0,0:0:0:0:
171,167,234793,1,8,0:0:0:0:
166,167,235004,1,0,0:0:0:0:
166,167,235109,1,0,0:0:0:0:
166,167,235425,1,8,0:0:0:0:
167,162,235741,1,8,0:0:0:0:
169,158,236056,1,0,0:0:0:0:
180,157,236372,1,8,0:0:0:0:
182,156,236688,1,0,0:0:0:0:
186,159,237320,1,0,0:0:0:0:
189,164,237530,1,8,0:0:0:0:
189,164,237635,1,8,0:0:0:0:
191,161,237951,1,8,0:0:0:0:
191,165,238267,1,0,0:0:0:0:
189,164,238583,1,8,0:0:0:0:
191,161,238793,1,0,0:0:0:0:
191,161,238899,1,0,0:0:0:0:
187,152,239214,1,12,0:0:0:0:
181,155,239846,1,0,0:0:0:0:
178,158,240162,1,8,0:0:0:0:
173,157,240688,1,0,0:0:0:0:
173,157,240793,1,0,0:0:0:0:
178,158,241109,1,8,0:0:0:0:
173,157,241425,1,8,0:0:0:0:
177,160,241741,1,0,0:0:0:0:
177,164,242372,1,8,0:0:0:0:
177,160,242688,1,0,0:0:0:0:
177,164,243004,1,8,0:0:0:0:
172,169,243214,1,8,0:0:0:0:
177,164,243320,1,8,0:0:0:0:
175,167,243635,1,0,0:0:0:0:
173,169,243951,1,8,0:0:0:0:
171,166,244162,1,0,0:0:0:0:
171,166,244267,1,0,0:0:0:0:
173,169,244793,1,8,0:0:0:0:
171,166,245214,1,0,0:0:0:0:
173,169,245425,1,8,0:0:0:0:
175,172,245846,1,8,0:0:0:0:
175,172,246056,1,0,0:0:0:0:
175,172,246162,1,0,0:0:0:0:
173,169,246372,1,8,0:0:0:0:
175,172,246478,1,8,0:0:0:0:
181,170,246793,1,0,0:0:0:0:
180,170,247320,1,8,0:0:0:0:
181,170,247741,1,0,0:0:0:0:
180,170,248056,1,8,0:0:0:0:
180,170,248267,1,0,0:0:0:0:
181,170,248372,1,0,0:0:0:0:
181,170,248688,1,8,0:0:0:0:
180,170,249004,1,0,0:0:0:0:
180,170,249214,1,8,0:0:0:0:
181,170,249320,1,8,0:0:0:0:
146,149,250583,1,4,0:0:0:0:
288,160,250899,5,8,0:0:0:0:
224,160,251109,1,0,0:0:0:0:
224,160,251214,1,0,0:0:0:0:
288,160,251530,1,0,0:0:0:0:
224,160,251846,1,8,0:0:0:0:
224,160,252162,1,8,0:0:0:0:
224,160,252478,1,0,0:0:0:0:
288,160,252793,1,0,0:0:0:0:
224,160,253004,1,8,0:0:0:0:
288,160,253320,1,0,0:0:0:0:
288,160,253425,1,0,0:0:0:0:
288,160,253635,1,8,0:0:0:0:
288,160,253741,1,8,0:0:0:0:
224,160,254056,1,8,0:0:0:0:
288,160,254372,1,4,0:0:0:0:
224,160,255004,1,0,0:0:0:0:
288,160,255214,1,8,0:0:0:0:
288,160,255320,1,8,0:0:0:0:
224,160,255635,1,12,0:0:0:0:
288,160,255951,1,0,0:0:0:0:
288,160,256162,1,0,0:0:0:0:
288,160,256267,1,0,0:0:0:0:
224,160,256583,1,8,0:0:0:0:
288,160,256899,1,4,0:0:0:0:
224,160,257530,1,0,0:0:0:0:
288,160,257741,1,8,0:0:0:0:
288,160,257846,1,8,0:0:0:0:
288,160,258162,1,4,0:0:0:0:
224,160,258478,1,8,0:0:0:0:
288,160,258688,1,0,0:0:0:0:
288,160,258793,1,0,0:0:0:0:
224,160,259109,1,0,0:0:0:0:
288,224,259425,1,12,0:0:0:0:
224,160,260056,1,0,0:0:0:0:
288,160,260372,1,8,0:0:0:0:
224,160,260688,1,0,0:0:0:0:
288,160,261214,1,8,0:0:0:0:
288,160,261320,1,8,0:0:0:0:
224,160,261635,1,8,0:0:0:0:
288,160,261951,1,0,0:0:0:0:
224,160,262267,1,8,0:0:0:0:
224,160,262478,1,0,0:0:0:0:
224,160,262583,1,0,0:0:0:0:
288,160,262899,1,0,0:0:0:0:
224,160,263214,1,8,0:0:0:0:
288,160,263741,1,0,0:0:0:0:
288,160,263846,1,0,0:0:0:0:
224,160,264162,1,8,0:0:0:0:
288,160,264478,1,4,0:0:0:0:
288,160,265109,1,8,0:0:0:0:
224,160,265320,1,0,0:0:0:0:
224,160,265425,1,0,0:0:0:0:
288,160,265741,1,4,0:0:0:0:
288,160,266056,1,8,0:0:0:0:
224,160,266267,1,8,0:0:0:0:
224,160,266372,1,8,0:0:0:0:
288,160,266688,1,0,0:0:0:0:
288,160,267004,1,12,0:0:0:0:
159,163,267530,1,8,0:0:0:0:
158,161,267846,1,8,0:0:0:0:
158,161,267951,1,8,0:0:0:0:
159,163,268162,1,0,0:0:0:0:
159,163,268267,1,0,0:0:0:0:
159,163,268478,1,8,0:0:0:0:
158,161,268793,1,0,0:0:0:0:
158,161,268899,1,0,0:0:0:0:
159,163,269109,1,8,0:0:0:0:
159,163,269214,1,8,0:0:0:0:
152,140,269530,5,4,0:0:0:0:
152,140,269846,1,8,0:0:0:0:
152,140,270162,1,0,0:0:0:0:
152,140,270478,1,8,0:0:0:0:
152,140,270688,1,8,0:0:0:0:
152,140,271109,1,0,0:0:0:0:
152,140,271320,1,8,0:0:0:0:
152,140,271425,1,8,0:0:0:0:
152,140,271741,1,8,0:0:0:0:
166,150,272056,1,0,0:0:0:0:
162,148,272372,1,0,0:0:0:0:
151,150,272688,1,8,0:0:0:0:
156,158,273004,1,8,0:0:0:0:
157,159,273214,1,0,0:0:0:0:
155,160,273530,1,8,0:0:0:0:
158,162,273635,1,8,0:0:0:0:
157,159,273846,1,0,0:0:0:0:
157,159,273951,1,0,0:0:0:0:
158,162,274267,1,8,0:0:0:0:
165,156,274583,1,4,0:0:0:0:
161,151,275214,1,0,0:0:0:0:
165,156,275425,1,0,0:0:0:0:
165,156,275530,1,0,0:0:0:0:
162,157,275846,1,12,0:0:0:0:
160,158,276162,1,0,0:0:0:0:
156,159,276372,1,8,0:0:0:0:
156,159,276478,1,8,0:0:0:0:
152,159,276793,1,8,0:0:0:0:
165,156,277109,1,4,0:0:0:0:
168,163,277741,1,8,0:0:0:0:
167,166,277951,1,8,0:0:0:0:
167,166,278056,1,8,0:0:0:0:
164,168,278372,1,4,0:0:0:0:
168,163,278688,1,8,0:0:0:0:
162,161,278899,1,0,0:0:0:0:
162,161,279004,1,0,0:0:0:0:
163,158,279320,1,8,0:0:0:0:
165,156,279635,1,4,0:0:0:0:
163,158,280267,1,8,0:0:0:0:
165,156,280583,1,0,0:0:0:0:
163,158,280899,1,8,0:0:0:0:
165,156,281425,1,8,0:0:0:0:
165,156,281530,1,8,0:0:0:0:
163,158,281846,1,0,0:0:0:0:
165,156,282162,1,0,0:0:0:0:
165,156,282478,1,8,0:0:0:0:
163,158,282793,1,0,0:0:0:0:
165,156,283004,1,0,0:0:0:0:
171,159,283109,1,0,0:0:0:0:
170,154,283425,1,8,0:0:0:0:
165,156,283951,1,0,0:0:0:0:
171,159,284056,1,0,0:0:0:0:
170,154,284372,1,8,0:0:0:0:
164,156,284688,1,0,0:0:0:0:
161,157,285004,1,0,0:0:0:0:
170,154,285320,1,8,0:0:0:0:
173,153,285951,1,0,0:0:0:0:
170,154,286162,1,8,0:0:0:0:
170,154,286267,1,8,0:0:0:0:
166,151,286478,1,0,0:0:0:0:
173,153,286583,1,0,0:0:0:0:
173,153,286899,1,0,0:0:0:0:
204,150,287214,1,8,0:0:0:0:
204,150,287846,1,8,0:0:0:0:
204,150,288478,1,4,0:0:0:0:
204,150,288688,1,4,0:0:0:0:
204,150,289004,1,8,0:0:0:0:
197,148,289320,1,8,0:0:0:0:
197,148,289425,1,8,0:0:0:0:
197,147,289741,1,4,0:0:0:0:
263,152,290372,1,8,0:0:0:0:
197,147,290583,1,0,0:0:0:0:
197,147,290688,1,0,0:0:0:0:
263,152,291004,1,8,0:0:0:0:
197,147,291320,1,0,0:0:0:0:
263,152,291635,1,8,0:0:0:0:
263,152,291846,1,8,0:0:0:0:
263,152,291951,1,8,0:0:0:0:
190,147,292267,1,0,0:0:0:0:
190,147,292899,1,0,0:0:0:0:
261,150,293214,1,0,0:0:0:0:
190,147,293530,1,8,0:0:0:0:
261,150,293741,1,0,0:0:0:0:
261,150,293846,1,0,0:0:0:0:
190,147,294162,1,8,0:0:0:0:
261,150,294478,1,8,0:0:0:0:
190,147,294793,1,4,0:0:0:0:
261,150,295425,1,0,0:0:0:0:
195,146,295635,1,8,0:0:0:0:
195,146,295741,1,8,0:0:0:0:
195,146,296056,1,8,0:0:0:0:
252,151,296688,1,0,0:0:0:0:
252,151,297004,1,0,0:0:0:0:
179,147,297320,1,8,0:0:0:0:
102,136,297951,1,0,0:0:0:0:
103,133,298162,1,8,0:0:0:0:
106,138,298267,1,8,0:0:0:0:
102,136,298583,1,0,0:0:0:0:
102,136,298899,1,8,0:0:0:0:
103,133,299109,1,0,0:0:0:0:
106,138,299214,1,0,0:0:0:0:
102,136,299530,1,0,0:0:0:0:
96,167,299846,1,12,0:0:0:0:
96,167,300478,1,8,0:0:0:0:
96,167,300688,1,0,0:0:0:0:
96,167,300793,1,0,0:0:0:0:
96,167,301109,1,8,0:0:0:0:
96,167,301425,1,0,0:0:0:0:
88,158,301741,1,0,0:0:0:0:
92,161,301951,1,8,0:0:0:0:
90,157,302056,1,8,0:0:0:0:
80,140,302372,1,8,0:0:0:0:
89,138,303004,1,8,0:0:0:0:
91,133,303320,1,0,0:0:0:0:
89,138,303635,1,8,0:0:0:0:
89,138,303951,1,8,0:0:0:0:
90,152,304267,1,0,0:0:0:0:
90,152,304478,1,0,0:0:0:0:
90,152,304583,1,0,0:0:0:0:
106,177,304899,1,12,0:0:0:0:
106,177,305530,1,8,0:0:0:0:
106,177,305846,1,0,0:0:0:0:
101,180,306162,1,8,0:0:0:0:
106,177,306793,1,0,0:0:0:0:
101,180,307109,1,8,0:0:0:0:
106,177,307425,1,8,0:0:0:0:
106,177,307741,1,0,0:0:0:0:
105,173,307951,1,8,0:0:0:0:
105,173,308056,1,8,0:0:0:0:
111,164,308267,1,0,0:0:0:0:
111,164,308372,1,0,0:0:0:0:
116,152,308688,1,4,0:0:0:0:
114,152,309320,1,8,0:0:0:0:
114,152,309951,1,0,0:0:0:0:
114,152,310162,1,8,0:0:0:0:
114,152,310478,1,0,0:0:0:0:
114,152,310583,1,0,0:0:0:0:
114,152,310793,1,8,0:0:0:0:
114,152,310899,1,8,0:0:0:0:
114,152,311214,1,8,0:0:0:0:
114,152,311530,1,4,0:0:0:0:
114,152,311741,1,12,0:0:0:0:
256,192,311951,12,0,316267,0:0:0:0:
