osu file format v14

[General]
AudioFilename: audio.mp3
AudioLeadIn: 0
PreviewTime: 56395
Countdown: 0
SampleSet: Normal
StackLeniency: 0.7
Mode: 1
LetterboxInBreaks: 0
WidescreenStoryboard: 0

[Editor]
DistanceSpacing: 0.95
BeatDivisor: 3
GridSize: 32
TimelineZoom: 1

[Metadata]
Title:Koi, Hitokuchi.
TitleUnicode:恋、ひとくち。
Artist:Yuizuki Sora
ArtistUnicode:結月そら
Creator:Faputa
Version:Futsuu
Source:恋ニ、甘味ヲソエテ
Tags:Sekai Project galgame opening 宮坂なこ 宮坂みゆ Miyasaka Nako Miyu Love's Sweet Garnish Koi ni, Kanmi wo Soete CANVAS+GARDEN visual novel VN AVG Adventure eroge video game 和風 wafuu japanese [Belajar-Osu] Tyistiana Nardoxyribonucleic ][_-GH-_][ Roger
BeatmapID:2062355
BeatmapSetID:985795

[Difficulty]
HPDrainRate:7
CircleSize:2
OverallDifficulty:4
ApproachRate:10
SliderMultiplier:1.4
SliderTickRate:3

[Events]
//Background and Video events
0,0,"LLG.jpg",0,50
//Break Periods
//Storyboard Layer 0 (Background)
//Storyboard Layer 1 (Fail)
//Storyboard Layer 2 (Pass)
//Storyboard Layer 3 (Foreground)
//Storyboard Layer 4 (Overlay)
//Storyboard Sound Samples

[TimingPoints]
290,315.789473684211,4,1,0,70,1,0
1447,-100,4,1,0,90,0,0
11553,-100,4,1,0,70,0,0
31868,-100,4,1,0,80,0,0
57026,-100,4,1,0,100,0,0
57132,-100,4,1,0,100,0,1
74816,-100,4,1,0,100,0,0
77342,-100,4,1,0,100,0,1
97553,-100,4,1,0,100,0,0

[HitObjects]
256,192,290,5,8,0:0:0:0:
256,192,921,1,0,0:0:0:0:
256,192,1237,1,0,0:0:0:0:
256,192,1553,1,12,0:0:0:0:
256,192,1868,1,0,0:0:0:0:
256,192,2500,1,0,0:0:0:0:
256,192,2816,1,8,0:0:0:0:
256,192,3132,1,8,0:0:0:0:
256,192,3447,1,0,0:0:0:0:
256,192,3763,1,8,0:0:0:0:
256,192,4079,1,8,0:0:0:0:
256,192,4395,1,0,0:0:0:0:
256,192,5026,1,0,0:0:0:0:
256,192,5342,1,8,0:0:0:0:
256,192,5658,1,8,0:0:0:0:
256,192,5974,1,0,0:0:0:0:
256,192,6290,1,0,0:0:0:0:
256,192,6605,1,8,0:0:0:0:
256,192,7237,1,0,0:0:0:0:
256,192,7868,1,8,0:0:0:0:
256,192,8500,1,8,0:0:0:0:
256,192,8816,1,8,0:0:0:0:
256,192,9132,1,0,0:0:0:0:
256,192,9447,1,8,0:0:0:0:
256,192,10079,1,8,0:0:0:0:
256,192,10395,1,4,0:0:0:0:
256,192,11658,1,4,0:0:0:0:
256,192,11974,1,8,0:0:0:0:
256,192,12605,1,8,0:0:0:0:
256,192,12921,1,8,0:0:0:0:
256,192,13237,1,0,0:0:0:0:
256,192,13553,1,8,0:0:0:0:
256,192,14184,1,8,0:0:0:0:
256,192,14816,1,0,0:0:0:0:
256,192,15447,1,8,0:0:0:0:
256,192,16079,1,0,0:0:0:0:
256,192,16395,1,0,0:0:0:0:
256,192,16711,1,8,0:0:0:0:
256,192,17342,1,0,0:0:0:0:
256,192,17974,1,8,0:0:0:0:
256,192,18605,1,0,0:0:0:0:
256,192,19237,1,8,0:0:0:0:
256,192,19553,1,0,0:0:0:0:
256,192,19868,1,8,0:0:0:0:
256,192,20500,1,8,0:0:0:0:
256,192,20816,1,8,0:0:0:0:
256,192,21132,1,8,0:0:0:0:
256,192,21447,1,0,0:0:0:0:
256,192,21763,1,8,0:0:0:0:
256,192,22711,1,0,0:0:0:0:
256,192,23026,1,8,0:0:0:0:
256,192,23658,1,8,0:0:0:0:
256,192,24290,1,0,0:0:0:0:
256,192,24921,1,8,0:0:0:0:
256,192,25553,1,0,0:0:0:0:
256,192,26184,1,8,0:0:0:0:
256,192,26500,1,0,0:0:0:0:
256,192,26816,1,8,0:0:0:0:
256,192,27447,1,0,0:0:0:0:
256,192,28079,1,8,0:0:0:0:
256,192,28395,1,8,0:0:0:0:
256,192,28711,1,0,0:0:0:0:
256,192,29026,1,0,0:0:0:0:
256,192,29342,1,8,0:0:0:0:
256,192,29658,1,0,0:0:0:0:
256,192,30605,1,8,0:0:0:0:
256,192,30816,1,0,0:0:0:0:
256,192,31237,1,8,0:0:0:0:
256,192,31553,1,0,0:0:0:0:
256,192,31868,1,12,0:0:0:0:
256,192,32816,1,8,0:0:0:0:
256,192,33132,1,0,0:0:0:0:
256,192,33763,1,0,0:0:0:0:
256,192,34079,1,8,0:0:0:0:
256,192,34395,1,0,0:0:0:0:
256,192,35026,1,8,0:0:0:0:
256,192,35658,1,8,0:0:0:0:
256,192,36290,1,0,0:0:0:0:
256,192,36605,1,8,0:0:0:0:
256,192,36921,1,0,0:0:0:0:
256,192,37553,1,8,0:0:0:0:
256,192,38184,1,0,0:0:0:0:
256,192,38816,1,8,0:0:0:0:
256,192,39132,1,8,0:0:0:0:
256,192,39447,1,0,0:0:0:0:
256,192,39763,1,8,0:0:0:0:
256,192,40395,1,8,0:0:0:0:
256,192,40711,1,0,0:0:0:0:
256,192,41342,1,8,0:0:0:0:
256,192,41658,1,0,0:0:0:0:
256,192,41974,1,12,0:0:0:0:
256,192,42921,1,8,0:0:0:0:
256,192,43237,1,0,0:0:0:0:
256,192,43868,1,8,0:0:0:0:
256,192,44184,1,0,0:0:0:0:
256,192,44500,1,8,0:0:0:0:
256,192,45132,1,8,0:0:0:0:
256,192,45763,1,0,0:0:0:0:
256,192,46395,1,8,0:0:0:0:
256,192,46711,1,8,0:0:0:0:
256,192,47026,1,4,0:0:0:0:
256,192,47342,1,8,0:0:0:0:
256,192,47974,1,8,0:0:0:0:
256,192,48290,1,0,0:0:0:0:
256,192,48921,1,8,0:0:0:0:
256,192,49237,1,0,0:0:0:0:
256,192,49553,1,12,0:0:0:0:
256,192,50184,1,0,0:0:0:0:
256,192,50500,1,0,0:0:0:0:
256,192,50816,1,8,0:0:0:0:
256,192,51447,1,0,0:0:0:0:
256,192,51763,1,8,0:0:0:0:
256,192,52079,1,0,0:0:0:0:
256,192,52395,1,8,0:0:0:0:
256,192,53026,1,0,0:0:0:0:
256,192,53658,1,8,0:0:0:0:
256,192,53974,1,0,0:0:0:0:
256,192,54290,1,0,0:0:0:0:
256,192,54605,1,8,0:0:0:0:
256,192,54921,1,8,0:0:0:0:
256,192,55237,1,8,0:0:0:0:
256,192,55553,1,0,0:0:0:0:
256,192,55763,1,8,0:0:0:0:
256,192,57132,1,4,0:0:0:0:
256,192,57763,1,8,0:0:0:0:
256,192,58079,1,8,0:0:0:0:
256,192,58395,1,0,0:0:0:0:
256,192,58711,1,8,0:0:0:0:
256,192,59026,1,8,0:0:0:0:
256,192,59658,1,8,0:0:0:0:
256,192,59974,1,8,0:0:0:0:
256,192,60290,1,0,0:0:0:0:
256,192,60605,1,8,0:0:0:0:
256,192,60921,1,0,0:0:0:0:
256,192,61868,1,8,0:0:0:0:
256,192,62184,1,0,0:0:0:0:
256,192,62816,1,8,0:0:0:0:
256,192,63132,1,0,0:0:0:0:
256,192,63447,1,8,0:0:0:0:
256,192,64079,1,0,0:0:0:0:
256,192,64395,1,0,0:0:0:0:
256,192,64711,1,8,0:0:0:0:
256,192,65342,1,8,0:0:0:0:
256,192,65658,1,0,0:0:0:0:
256,192,65974,1,8,0:0:0:0:
256,192,66290,1,8,0:0:0:0:
256,192,66605,1,8,0:0:0:0:
256,192,66921,1,0,0:0:0:0:
256,192,67237,1,12,0:0:0:0:
256,192,67868,1,0,0:0:0:0:
256,192,68500,1,8,0:0:0:0:
256,192,69132,1,0,0:0:0:0:
256,192,69447,1,8,0:0:0:0:
256,192,69763,1,0,0:0:0:0:
256,192,70079,1,0,0:0:0:0:
256,192,70395,1,8,0:0:0:0:
256,192,71026,1,8,0:0:0:0:
256,192,71658,1,0,0:0:0:0:
256,192,71974,1,0,0:0:0:0:
256,192,72290,1,8,0:0:0:0:
256,192,72921,1,8,0:0:0:0:
256,192,73553,1,0,0:0:0:0:
256,192,73868,1,0,0:0:0:0:
256,192,74184,1,8,0:0:0:0:
256,192,74500,1,8,0:0:0:0:
256,192,74816,1,0,0:0:0:0:
256,192,75132,1,8,0:0:0:0:
256,192,76079,1,8,0:0:0:0:
256,192,76711,1,0,0:0:0:0:
256,192,77026,1,8,0:0:0:0:
256,192,77342,1,4,0:0:0:0:
256,192,77974,1,8,0:0:0:0:
256,192,78290,1,8,0:0:0:0:
256,192,78605,1,0,0:0:0:0:
256,192,78921,1,8,0:0:0:0:
256,192,79237,1,8,0:0:0:0:
256,192,79868,1,8,0:0:0:0:
256,192,80184,1,8,0:0:0:0:
256,192,80500,1,0,0:0:0:0:
256,192,80816,1,8,0:0:0:0:
256,192,81132,1,0,0:0:0:0:
256,192,82079,1,8,0:0:0:0:
256,192,82395,1,0,0:0:0:0:
256,192,83026,1,8,0:0:0:0:
256,192,83342,1,0,0:0:0:0:
256,192,83658,1,8,0:0:0:0:
256,192,84290,1,0,0:0:0:0:
256,192,84605,1,0,0:0:0:0:
256,192,84921,1,8,0:0:0:0:
256,192,85553,1,0,0:0:0:0:
256,192,85868,1,0,0:0:0:0:
256,192,86184,1,8,0:0:0:0:
256,192,86500,1,8,0:0:0:0:
256,192,86816,1,8,0:0:0:0:
256,192,87132,1,0,0:0:0:0:
256,192,87447,1,12,0:0:0:0:
256,192,88079,1,0,0:0:0:0:
256,192,88711,1,8,0:0:0:0:
256,192,89342,1,0,0:0:0:0:
256,192,89658,1,8,0:0:0:0:
256,192,89974,1,0,0:0:0:0:
256,192,90290,1,0,0:0:0:0:
256,192,90605,1,8,0:0:0:0:
256,192,90921,1,0,0:0:0:0:
256,192,91237,1,8,0:0:0:0:
256,192,91868,1,8,0:0:0:0:
256,192,92184,1,0,0:0:0:0:
256,192,92500,1,8,0:0:0:0:
256,192,93132,1,8,0:0:0:0:
256,192,93763,1,0,0:0:0:0:
256,192,94079,1,0,0:0:0:0:
256,192,94395,1,8,0:0:0:0:
256,192,94711,1,8,0:0:0:0:
256,192,95026,1,4,0:0:0:0:
256,192,96290,1,8,0:0:0:0:
256,192,96921,1,8,0:0:0:0:
256,192,97553,1,0,0:0:0:0:
256,192,98816,1,0,0:0:0:0:
256,192,99132,1,8,0:0:0:0:
256,192,99342,1,12,0:0:0:0:
