osu file format v14

[General]
AudioFilename: Kimi to watashi no hitorigoto.mp3
AudioLeadIn: 0
PreviewTime: -1
Countdown: 0
SampleSet: Normal
StackLeniency: 0.9
Mode: 0
LetterboxInBreaks: 1
WidescreenStoryboard: 0

[Editor]
DistanceSpacing: 2
BeatDivisor: 4
GridSize: 4
TimelineZoom: 2.1

[Metadata]
Title:Kimi to watashi no hitorigoto
TitleUnicode:Kimi to watashi no hitorigoto
Artist:Yuikonnu/Ayaponzu
ArtistUnicode:Yuikonnu/Ayaponzu
Creator:Neab
Version:Extra
Source:
Tags:
BeatmapID:942701
BeatmapSetID:437860

[Difficulty]
HPDrainRate:6
CircleSize:4
OverallDifficulty:8
ApproachRate:9.2
SliderMultiplier:1.9
SliderTickRate:2

[Events]
//Background and Video events
0,0,"bg.jpg",0,0
//Break Periods
2,12356,20744
2,82304,89902
2,174041,178323
//Storyboard Layer 0 (Background)
//Storyboard Layer 1 (Fail)
//Storyboard Layer 2 (Pass)
//Storyboard Layer 3 (Foreground)
//Storyboard Sound Samples

[TimingPoints]
788,315.789473684211,4,1,0,100,1,0
4103,-133.333333333333,4,1,0,100,0,0
4261,-100,4,1,0,100,0,0
9156,-133.333333333333,4,1,0,100,0,0
9314,-100,4,1,0,100,0,0
26747,-100,4,1,0,100,0,0
45630,-133.333333333333,4,1,0,100,0,0
45788,-100,4,1,0,100,0,0
48630,-133.333333333333,4,1,0,100,0,0
48788,-100,4,1,0,100,0,0
52578,-100,4,1,0,100,0,1
60314,-200,4,1,0,100,0,1
61261,-100,4,1,0,100,0,1
67736,-100,4,1,0,100,0,0
107524,-133.333333333333,4,1,0,100,0,0
107682,-100,4,1,0,100,0,0
114473,-100,4,1,0,100,0,1
122209,-200,4,1,0,100,0,1
122682,-100,4,1,0,100,0,1
129630,-100,4,1,0,100,0,0
156156,-200,4,1,0,100,0,0
157024,-100,4,1,0,100,0,0
157419,-200,4,1,0,100,0,0
158288,-100,4,1,0,100,0,0
162473,-100,4,1,0,100,0,0
167051,-200,4,1,0,100,0,0
167453,-100,4,1,0,100,0,0
181419,-200,4,1,0,100,0,0
182524,-100,4,1,0,100,0,0
183473,-100,4,1,0,100,0,1
217419,-100,4,1,0,100,0,0

[HitObjects]
80,56,630,6,0,B|132:48|132:48|176:80,1,95
112,260,946,1,0,0:0:0:0:
112,260,1025,1,0,0:0:0:0:
112,260,1104,1,0,0:0:0:0:
260,164,1261,6,0,B|300:200|300:200|368:196,1,95
416,48,1577,1,0,0:0:0:0:
416,48,1656,1,0,0:0:0:0:
416,48,1735,1,0,0:0:0:0:
476,180,1893,6,0,L|480:276,1,95
360,324,2209,1,0,0:0:0:0:
368,332,2288,1,0,0:0:0:0:
368,332,2367,2,0,B|328:296|328:296|300:336|300:336|272:316|228:288,2,190
424,80,3156,5,0,0:0:0:0:
296,152,3314,1,0,0:0:0:0:
200,56,3472,1,0,0:0:0:0:
200,56,3551,1,0,0:0:0:0:
200,56,3630,1,0,0:0:0:0:
60,196,3788,5,0,0:0:0:0:
188,288,3945,1,0,0:0:0:0:
328,268,4103,2,0,L|376:268,2,31.6666666666667
136,152,4419,5,0,0:0:0:0:
292,152,4577,1,0,0:0:0:0:
124,316,4735,1,0,0:0:0:0:
124,316,4814,1,0,0:0:0:0:
124,316,4893,2,0,B|168:332|168:332|192:292|192:292|220:312|276:344,2,190
200,43,5683,6,0,B|172:88|172:88|200:144,1,95
412,92,5999,1,0,0:0:0:0:
432,124,6077,1,0,0:0:0:0:
444,160,6156,1,0,0:0:0:0:
296,208,6314,6,0,B|324:256|324:256|296:308,1,95
96,304,6630,1,0,0:0:0:0:
80,276,6708,1,0,0:0:0:0:
72,240,6787,1,0,0:0:0:0:
80,136,6946,6,0,L|177:137,1,95
304,40,7261,1,0,0:0:0:0:
340,40,7340,1,0,0:0:0:0:
372,52,7419,2,0,B|408:136|424:136|424:136|416:140|416:140|444:216,2,190
180,140,8209,6,0,B|132:164|132:164|112:216,1,95
344,176,8525,1,0,0:0:0:0:
344,176,8603,1,0,0:0:0:0:
344,176,8682,1,0,0:0:0:0:
188,336,8840,6,0,B|244:336|244:336|268:268,1,95
80,144,9156,2,0,L|48:96,2,31.6666666666667
344,44,9472,6,0,L|269:113,1,95
288,320,9788,1,0,0:0:0:0:
288,320,9867,1,0,0:0:0:0:
288,320,9945,2,0,B|324:236|340:236|340:236|332:232|332:232|360:156,2,190
256,192,10893,12,0,12156,0:0:0:0:
92,188,21314,6,0,B|112:280|112:280|212:304,1,190
328,324,21788,1,0,0:0:0:0:
464,224,21946,1,0,0:0:0:0:
388,88,22104,2,0,B|368:40|368:40|312:32,1,95
200,24,22419,5,0,0:0:0:0:
252,204,22577,1,0,0:0:0:0:
64,88,22735,1,0,0:0:0:0:
96,212,22893,2,0,B|84:260|84:260|136:312,1,95
296,308,23209,1,0,0:0:0:0:
184,144,23367,5,0,0:0:0:0:
296,308,23525,1,0,0:0:0:0:
380,144,23683,1,0,0:0:0:0:
296,308,23841,1,0,0:0:0:0:
448,308,23999,1,0,0:0:0:0:
464,172,24156,2,0,P|440:92|416:64,1,95
360,248,24472,2,0,B|348:194|348:194|308:156,1,95
120,44,24788,5,0,0:0:0:0:
96,176,24946,1,0,0:0:0:0:
168,304,25103,2,0,B|206:329|206:329|246:301,1,95
96,176,25419,1,0,0:0:0:0:
168,40,25577,1,0,0:0:0:0:
280,160,25735,2,0,L|312:272,1,95
416,160,26051,6,0,P|384:68|300:28,2,190
388,296,26841,5,0,0:0:0:0:
292,152,26999,1,0,0:0:0:0:
208,304,27156,2,0,B|156:304|156:304|108:248,1,95
80,136,27472,1,0,0:0:0:0:
184,28,27630,2,0,L|260:108,2,95
408,160,28103,1,0,0:0:0:0:
408,160,28182,1,0,0:0:0:0:
408,160,28261,1,0,0:0:0:0:
256,192,28419,5,0,0:0:0:0:
164,292,28577,1,0,0:0:0:0:
256,76,28735,1,0,0:0:0:0:
348,292,28893,1,0,0:0:0:0:
140,172,29051,1,0,0:0:0:0:
372,172,29209,1,0,0:0:0:0:
256,328,29367,1,0,0:0:0:0:
176,232,29524,1,0,0:0:0:0:
176,232,29683,6,0,P|272:212|344:152,2,190
472,336,30630,2,0,L|396:264,1,95
312,52,30946,1,0,0:0:0:0:
312,52,31025,1,0,0:0:0:0:
312,52,31104,1,0,0:0:0:0:
448,220,31420,6,0,P|456:128|376:148,1,190
216,40,31894,1,0,0:0:0:0:
72,168,32052,1,0,0:0:0:0:
204,272,32210,2,0,B|240:308|240:308|296:312,1,95
452,328,32524,1,0,0:0:0:0:
264,128,32683,1,0,0:0:0:0:
452,328,32841,1,0,0:0:0:0:
468,144,32999,2,0,B|456:92|456:92|416:52,1,95
344,44,33314,5,0,0:0:0:0:
356,220,33472,2,0,L|296:136,1,95
192,72,33789,1,0,0:0:0:0:
260,276,33947,1,0,0:0:0:0:
192,72,34105,1,0,0:0:0:0:
68,160,34262,2,0,B|44:208|44:208|40:288,1,95
192,72,34577,1,0,0:0:0:0:
224,220,34735,2,0,L|264:328,1,95
384,272,35052,5,0,0:0:0:0:
352,136,35209,2,0,B|380:96|380:96|432:96,1,95
456,312,35524,1,0,0:0:0:0:
352,136,35682,1,0,0:0:0:0:
210,317,35840,1,0,0:0:0:0:
160,32,35999,1,0,0:0:0:0:
56,196,36157,6,0,P|60:256|172:304,2,190
64,48,36947,1,0,0:0:0:0:
140,200,37105,1,0,0:0:0:0:
280,104,37262,2,0,B|332:112|332:112|380:148,1,95
440,96,37577,1,0,0:0:0:0:
344,272,37736,2,0,L|420:352,2,95
352,188,38209,1,0,0:0:0:0:
280,32,38366,1,0,0:0:0:0:
196,296,38524,5,0,0:0:0:0:
196,296,38603,1,0,0:0:0:0:
196,296,38683,2,0,P|132:268|84:152,1,190
83,163,39156,5,0,0:0:0:0:
184,56,39314,2,0,P|248:84|332:176,1,190
329,170,39788,1,0,0:0:0:0:
452,324,39946,6,0,B|480:280|480:280|492:196,1,95
329,170,40261,1,0,0:0:0:0:
464,88,40419,1,0,0:0:0:0:
348,40,40577,2,0,B|328:92|328:92|256:120,1,95
148,32,40893,5,0,0:0:0:0:
111,62,40971,1,0,0:0:0:0:
86,102,41050,1,0,0:0:0:0:
76,148,41129,1,0,0:0:0:0:
80,192,41209,2,0,P|104:240|192:352,1,190
356,308,41682,1,0,0:0:0:0:
420,132,41841,1,0,0:0:0:0:
96,136,42156,5,0,0:0:0:0:
168,36,42314,1,0,0:0:0:0:
224,144,42472,1,0,0:0:0:0:
48,36,42630,1,0,0:0:0:0:
272,40,42788,5,0,0:0:0:0:
164,224,42946,1,0,0:0:0:0:
384,96,43104,1,0,0:0:0:0:
224,356,43262,1,0,0:0:0:0:
88,96,43420,1,0,0:0:0:0:
340,248,43577,1,0,0:0:0:0:
468,252,43735,6,0,P|436:296|312:348,1,190
314,347,44209,1,0,0:0:0:0:
164,224,44367,1,0,0:0:0:0:
416,136,44683,5,0,0:0:0:0:
344,36,44841,1,0,0:0:0:0:
288,144,44999,1,0,0:0:0:0:
464,36,45157,1,0,0:0:0:0:
240,40,45315,5,0,0:0:0:0:
348,224,45473,1,0,0:0:0:0:
472,164,45630,2,0,P|436:228|420:248,1,71.2500027179719
408,256,45866,1,0,0:0:0:0:
371,286,45944,1,0,0:0:0:0:
329,307,46023,1,0,0:0:0:0:
283,319,46102,1,0,0:0:0:0:
235,320,46181,1,0,0:0:0:0:
188,312,46262,6,0,B|124:288|76:232|64:148,1,190
60,40,46735,1,0,0:0:0:0:
57,173,46893,1,0,0:0:0:0:
208,52,47051,1,0,0:0:0:0:
208,52,47209,6,0,L|252:172,1,95
300,52,47524,1,0,0:0:0:0:
300,52,47683,2,0,L|344:152,1,95
224,248,47998,1,0,0:0:0:0:
224,248,48156,2,0,L|328:304,1,95
380,328,48472,1,0,0:0:0:0:
380,328,48630,2,0,L|416:332,2,31.6666666666667
68,96,48945,5,0,0:0:0:0:
208,316,49103,1,0,0:0:0:0:
332,64,49261,1,0,0:0:0:0:
60,272,49419,1,0,0:0:0:0:
388,220,49577,1,0,0:0:0:0:
228,352,49735,5,0,0:0:0:0:
320,92,49893,1,0,0:0:0:0:
188,56,50051,6,0,P|144:136|120:248,1,190
124,328,50524,1,0,0:0:0:0:
224,316,50683,2,0,P|316:280|404:204,1,190
386,223,51156,1,0,0:0:0:0:
256,52,51314,5,0,0:0:0:0:
160,312,51472,1,0,0:0:0:0:
400,160,51630,1,0,0:0:0:0:
112,160,51788,1,0,0:0:0:0:
352,312,51946,1,0,0:0:0:0:
165,50,52577,6,0,P|96:112|92:116,1,95
96,116,52814,1,0,0:0:0:0:
92,120,52893,1,0,0:0:0:0:
48,316,53051,1,0,0:0:0:0:
204,204,53209,6,0,P|268:136|272:132,1,95
270,135,53446,1,0,0:0:0:0:
274,131,53525,1,0,0:0:0:0:
344,304,53683,1,0,0:0:0:0:
403,137,53840,5,0,0:0:0:0:
389,113,53919,1,0,0:0:0:0:
372,92,53998,1,0,0:0:0:0:
352,72,54077,1,0,0:0:0:0:
331,55,54156,1,0,0:0:0:0:
240,34,54314,2,0,B|180:28|180:28|120:40,1,95
112,148,54630,5,0,0:0:0:0:
256,128,54788,1,0,0:0:0:0:
110,301,54946,1,0,0:0:0:0:
110,301,55025,1,0,0:0:0:0:
110,301,55104,1,0,0:0:0:0:
400,148,55262,5,0,0:0:0:0:
256,128,55420,1,0,0:0:0:0:
402,301,55578,1,0,0:0:0:0:
402,301,55657,1,0,0:0:0:0:
402,301,55736,1,0,0:0:0:0:
248,180,55893,5,0,0:0:0:0:
168,28,56051,1,0,0:0:0:0:
40,128,56209,1,0,0:0:0:0:
109,247,56367,1,0,0:0:0:0:
123,271,56446,1,0,0:0:0:0:
140,292,56525,1,0,0:0:0:0:
160,312,56604,1,0,0:0:0:0:
181,329,56683,1,0,0:0:0:0:
296,336,56841,6,0,P|324:335|392:324,1,95
208,184,57156,1,0,0:0:0:0:
87,192,57314,1,0,0:0:0:0:
340,184,57472,1,0,0:0:0:0:
87,192,57630,6,0,P|56:84|56:72,1,95
87,192,57945,1,0,0:0:0:0:
102,34,58104,1,0,0:0:0:0:
184,120,58262,1,0,0:0:0:0:
448,208,58419,1,0,0:0:0:0:
380,328,58577,5,0,0:0:0:0:
244,332,58735,1,0,0:0:0:0:
380,328,58893,1,0,0:0:0:0:
244,332,59051,2,0,P|255:293|292:224,1,95
416,252,59366,1,0,0:0:0:0:
416,128,59525,2,0,B|392:72|392:72|344:40,1,95
224,32,59840,5,0,0:0:0:0:
308,132,59999,1,0,0:0:0:0:
308,132,60156,1,0,0:0:0:0:
104,108,60314,2,0,L|156:128,1,47.5
108,248,60630,2,0,L|160:224,1,47.5
212,324,60945,5,0,0:0:0:0:
432,284,61103,1,0,0:0:0:0:
88,120,61261,1,0,0:0:0:0:
425,65,61577,1,0,0:0:0:0:
88,320,61893,1,0,0:0:0:0:
428,224,62209,5,0,0:0:0:0:
428,224,62367,1,0,0:0:0:0:
376,120,62525,1,0,0:0:0:0:
376,120,62604,1,0,0:0:0:0:
376,120,62683,2,0,L|344:88|304:52,1,95
292,44,62920,1,0,0:0:0:0:
292,44,62999,1,0,0:0:0:0:
272,176,63157,1,0,0:0:0:0:
160,24,63314,6,0,P|141:44|88:100,1,95
88,104,63552,1,0,0:0:0:0:
84,108,63631,1,0,0:0:0:0:
192,172,63789,1,0,0:0:0:0:
109,247,63946,5,0,0:0:0:0:
123,271,64025,1,0,0:0:0:0:
140,292,64104,1,0,0:0:0:0:
160,312,64183,1,0,0:0:0:0:
181,329,64262,1,0,0:0:0:0:
272,350,64420,6,0,P|312:352|372:336,1,95
400,236,64736,5,0,0:0:0:0:
256,256,64894,1,0,0:0:0:0:
400,80,65051,2,0,L|436:44,1,47.5
400,80,65209,1,0,0:0:0:0:
112,236,65368,5,0,0:0:0:0:
256,256,65526,1,0,0:0:0:0:
112,80,65682,2,0,L|76:44,1,47.5
112,80,65840,1,0,0:0:0:0:
264,168,65999,5,0,0:0:0:0:
336,344,66157,1,0,0:0:0:0:
472,264,66315,1,0,0:0:0:0:
403,137,66473,1,0,0:0:0:0:
389,113,66552,1,0,0:0:0:0:
372,92,66631,1,0,0:0:0:0:
352,72,66710,1,0,0:0:0:0:
331,55,66789,1,0,0:0:0:0:
188,44,66947,6,0,B|136:36|136:36|67:61,1,95
304,184,67261,1,0,0:0:0:0:
425,192,67420,1,0,0:0:0:0:
172,184,67577,1,0,0:0:0:0:
425,192,67736,6,0,P|416:268|388:312,1,95
336,340,68051,1,0,0:0:0:0:
256,204,68210,1,0,0:0:0:0:
160,324,68368,1,0,0:0:0:0:
256,204,68524,1,0,0:0:0:0:
112,124,68683,5,0,0:0:0:0:
256,204,68841,1,0,0:0:0:0:
352,88,68998,1,0,0:0:0:0:
404,252,69157,2,0,B|384:296|384:296|324:332,1,95
256,204,69472,1,0,0:0:0:0:
84,164,69631,2,0,B|88:220|88:220|136:272,1,95
240,328,69945,1,0,0:0:0:0:
304,112,70103,1,0,0:0:0:0:
480,240,70261,6,0,B|320:232|320:140|320:304|276:256,1,190
176,264,70735,1,0,0:0:0:0:
328,72,70893,1,0,0:0:0:0:
56,192,71051,2,0,L|84:92,1,95
148,44,71367,2,0,P|228:24|340:32,1,190
436,140,71841,1,0,0:0:0:0:
144,272,71999,1,0,0:0:0:0:
368,348,72156,5,0,0:0:0:0:
336,312,72234,1,0,0:0:0:0:
316,270,72313,1,0,0:0:0:0:
309,223,72392,1,0,0:0:0:0:
317,176,72471,1,0,0:0:0:0:
338,133,72550,1,0,0:0:0:0:
370,99,72629,1,0,0:0:0:0:
411,76,72708,1,0,0:0:0:0:
371,47,72788,5,0,0:0:0:0:
327,28,72866,1,0,0:0:0:0:
280,21,72945,1,0,0:0:0:0:
233,29,73024,1,0,0:0:0:0:
200,44,73103,2,0,L|136:80,3,47.5
158,67,73419,5,0,0:0:0:0:
202,83,73497,1,0,0:0:0:0:
243,107,73576,1,0,0:0:0:0:
278,139,73655,1,0,0:0:0:0:
312,172,73735,2,0,L|252:216,3,47.5
336,204,74051,5,0,0:0:0:0:
315,246,74129,1,0,0:0:0:0:
284,282,74208,1,0,0:0:0:0:
245,309,74287,1,0,0:0:0:0:
201,325,74366,1,0,0:0:0:0:
200,280,74445,1,0,0:0:0:0:
200,232,74523,1,0,0:0:0:0:
186,187,74602,1,0,0:0:0:0:
159,148,74681,1,0,0:0:0:0:
84,32,74840,6,0,L|204:72,1,95
204,72,75077,1,0,0:0:0:0:
204,72,75156,1,0,0:0:0:0:
204,72,75235,1,0,0:0:0:0:
204,72,75314,2,0,L|256:156,1,95
332,72,75630,6,0,L|392:180,1,95
336,308,75945,1,0,0:0:0:0:
112,224,76103,1,0,0:0:0:0:
112,224,76182,1,0,0:0:0:0:
112,224,76261,1,0,0:0:0:0:
80,112,76419,6,0,L|24:28,1,95
232,256,76735,2,0,L|180:360,1,95
96,64,77051,2,0,P|100:112|124:168,1,95
232,256,77366,5,0,0:0:0:0:
264,40,77525,1,0,0:0:0:0:
128,184,77683,1,0,0:0:0:0:
376,116,77840,2,0,P|408:184|408:236,1,95
136,268,78156,2,0,P|104:200|104:148,1,95
248,340,78472,5,0,0:0:0:0:
464,344,78630,1,0,0:0:0:0:
248,168,78788,1,0,0:0:0:0:
52,332,78946,1,0,0:0:0:0:
120,152,79103,6,0,P|160:80|196:64,1,95
376,76,79419,1,0,0:0:0:0:
120,152,79577,1,0,0:0:0:0:
376,76,79735,1,0,0:0:0:0:
40,40,79893,1,0,0:0:0:0:
120,264,80051,5,0,0:0:0:0:
160,240,80129,1,0,0:0:0:0:
201,216,80208,1,0,0:0:0:0:
242,192,80287,1,0,0:0:0:0:
283,168,80366,1,0,0:0:0:0:
364,112,80525,1,0,0:0:0:0:
256,312,80841,1,0,0:0:0:0:
80,252,81156,5,0,0:0:0:0:
252,252,81314,1,0,0:0:0:0:
432,252,81472,1,0,0:0:0:0:
364,112,81788,5,0,0:0:0:0:
148,112,81946,1,0,0:0:0:0:
256,312,82104,1,0,0:0:0:0:
256,76,90472,5,0,0:0:0:0:
164,292,90630,1,0,0:0:0:0:
372,172,90788,1,0,0:0:0:0:
140,172,90945,1,0,0:0:0:0:
348,292,91104,1,0,0:0:0:0:
348,292,91262,1,0,0:0:0:0:
368,75,91577,5,0,0:0:0:0:
104,104,91893,1,0,0:0:0:0:
408,280,92209,1,0,0:0:0:0:
144,308,92525,1,0,0:0:0:0:
256,192,92683,1,0,0:0:0:0:
256,192,92841,2,0,L|304:192,2,47.5
132,24,93314,6,0,P|80:76|96:212,1,190
160,312,93788,1,0,0:0:0:0:
248,156,93946,1,0,0:0:0:0:
336,320,94104,2,0,B|380:284|380:284|400:212,1,95
424,344,94419,1,0,0:0:0:0:
248,156,94577,1,0,0:0:0:0:
476,188,94735,1,0,0:0:0:0:
428,44,94893,2,0,P|364:24|244:52,1,190
96,28,95367,5,0,0:0:0:0:
232,160,95525,1,0,0:0:0:0:
52,260,95683,1,0,0:0:0:0:
220,352,95841,1,0,0:0:0:0:
232,160,95999,1,0,0:0:0:0:
28,104,96156,2,0,B|32:160|32:160|72:232,1,95
264,180,96472,1,0,0:0:0:0:
176,336,96630,1,0,0:0:0:0:
264,180,96788,1,0,0:0:0:0:
400,332,96946,5,0,0:0:0:0:
400,332,97104,2,0,P|412:264|400:140,2,190
284,88,97893,1,0,0:0:0:0:
284,88,98051,2,0,P|236:100|92:152,2,190
460,224,98841,5,0,0:0:0:0:
300,340,98999,1,0,0:0:0:0:
128,280,99156,2,0,B|84:240|84:240|68:164,1,95
300,340,99472,1,0,0:0:0:0:
232,128,99630,2,0,L|344:72,1,95
432,40,99945,1,0,0:0:0:0:
364,224,100103,1,0,0:0:0:0:
432,40,100261,1,0,0:0:0:0:
180,236,100419,1,0,0:0:0:0:
412,196,100577,6,0,P|384:260|260:320,1,190
180,236,101051,1,0,0:0:0:0:
80,160,101209,6,0,P|108:96|232:36,1,190
344,44,101682,1,0,0:0:0:0:
372,172,101840,6,0,B|320:148|320:148|260:164,1,95
184,220,102156,1,0,0:0:0:0:
212,328,102314,2,0,B|260:352|260:352|336:336,1,95
380,244,102630,1,0,0:0:0:0:
224,168,102788,5,0,0:0:0:0:
177,162,102866,1,0,0:0:0:0:
136,138,102945,1,0,0:0:0:0:
109,100,103024,1,0,0:0:0:0:
100,64,103103,2,0,P|164:36|216:64,1,95
320,216,103419,5,0,0:0:0:0:
185,41,103577,1,0,0:0:0:0:
128,316,103735,1,0,0:0:0:0:
416,248,104051,5,0,0:0:0:0:
344,348,104209,1,0,0:0:0:0:
288,240,104367,1,0,0:0:0:0:
464,348,104525,1,0,0:0:0:0:
240,344,104683,5,0,0:0:0:0:
348,160,104841,1,0,0:0:0:0:
128,288,104999,1,0,0:0:0:0:
288,28,105157,1,0,0:0:0:0:
424,288,105315,1,0,0:0:0:0:
172,136,105472,1,0,0:0:0:0:
44,132,105630,6,0,P|76:88|200:36,1,190
198,37,106104,1,0,0:0:0:0:
348,160,106262,1,0,0:0:0:0:
96,248,106577,5,0,0:0:0:0:
168,348,106735,1,0,0:0:0:0:
224,240,106893,1,0,0:0:0:0:
48,348,107051,1,0,0:0:0:0:
272,344,107209,5,0,0:0:0:0:
164,160,107367,1,0,0:0:0:0:
75,64,107524,2,0,P|83:124|91:156,1,71.2500027179719
85,135,107761,5,0,0:0:0:0:
128,116,107839,1,0,0:0:0:0:
172,97,107918,1,0,0:0:0:0:
216,78,107997,1,0,0:0:0:0:
259,60,108076,1,0,0:0:0:0:
292,48,108156,2,0,B|368:36|436:48|508:64,1,190
456,220,108630,5,0,0:0:0:0:
304,344,108788,1,0,0:0:0:0:
276,140,108946,1,0,0:0:0:0:
412,320,109104,1,0,0:0:0:0:
180,312,109262,6,0,B|140:268|140:268|124:192,1,95
40,188,109577,1,0,0:0:0:0:
216,148,109735,2,0,L|128:60,1,95
308,48,110051,2,0,L|380:160,1,95
244,276,110366,1,0,0:0:0:0:
428,208,110524,5,0,0:0:0:0:
428,208,110603,1,0,0:0:0:0:
428,208,110682,1,0,0:0:0:0:
140,80,110840,6,0,B|108:128|108:128|100:200,1,95
371,304,111156,2,0,B|400:264|400:264|411:219,1,95
436,48,111472,1,0,0:0:0:0:
260,120,111630,1,0,0:0:0:0:
232,324,111788,1,0,0:0:0:0:
92,224,111946,6,0,P|56:176|76:40,1,190
160,128,112419,1,0,0:0:0:0:
252,56,112578,2,0,P|328:72|444:152,1,190
422,130,113051,1,0,0:0:0:0:
256,332,113209,5,0,0:0:0:0:
160,72,113367,1,0,0:0:0:0:
400,224,113525,1,0,0:0:0:0:
112,224,113683,1,0,0:0:0:0:
352,72,113841,1,0,0:0:0:0:
469,114,113999,5,0,0:0:0:0:
458,144,114077,1,0,0:0:0:0:
448,174,114156,1,0,0:0:0:0:
437,205,114235,1,0,0:0:0:0:
427,235,114314,1,0,0:0:0:0:
416,265,114393,1,0,0:0:0:0:
416,265,114472,6,0,P|397:285|352:340,1,95
359,331,114709,1,0,0:0:0:0:
354,337,114788,1,0,0:0:0:0:
204,312,114946,1,0,0:0:0:0:
344,104,115104,6,0,P|293:164|275:184,1,95
268,192,115341,1,0,0:0:0:0:
264,196,115420,1,0,0:0:0:0:
112,72,115578,1,0,0:0:0:0:
100,228,115735,2,0,L|164:180,1,47.5
152,272,115893,2,0,L|100:312,1,47.5
212,308,116051,1,0,0:0:0:0:
416,328,116209,2,0,B|463:304|463:304|488:256,1,95
272,184,116525,5,0,0:0:0:0:
240,332,116683,1,0,0:0:0:0:
408,88,116840,2,0,L|444:56,2,47.5
112,236,117157,5,0,0:0:0:0:
256,256,117315,1,0,0:0:0:0:
104,88,117472,2,0,L|68:56,2,47.5
484,180,117788,5,0,0:0:0:0:
360,336,117946,1,0,0:0:0:0:
440,272,118104,1,0,0:0:0:0:
392,132,118261,2,0,L|444:124,1,47.5
336,92,118419,2,0,L|280:104,1,47.5
396,64,118577,1,0,0:0:0:0:
240,34,118736,6,0,P|213:35|132:84,1,95
84,196,119051,1,0,0:0:0:0:
220,192,119209,1,0,0:0:0:0:
84,196,119367,1,0,0:0:0:0:
360,192,119525,6,0,P|353:247|316:313,1,95
148,188,119840,1,0,0:0:0:0:
100,336,119999,1,0,0:0:0:0:
268,196,120157,1,0,0:0:0:0:
172,48,120314,1,0,0:0:0:0:
172,48,120393,1,0,0:0:0:0:
172,48,120472,5,0,0:0:0:0:
308,60,120630,2,0,P|376:80|416:120,1,95
432,264,120946,6,0,P|425:291|372:336,1,95
232,196,121261,2,0,P|184:268|180:300,1,95
88,184,121577,1,0,0:0:0:0:
88,184,121656,1,0,0:0:0:0:
88,184,121735,1,0,0:0:0:0:
228,316,121893,5,0,0:0:0:0:
228,316,122051,1,0,0:0:0:0:
376,64,122209,2,0,L|328:112,1,47.5
192,120,122525,2,0,L|140:100,1,47.5
56,120,122840,5,0,0:0:0:0:
320,344,122998,1,0,0:0:0:0:
356,60,123156,1,0,0:0:0:0:
87,319,123472,1,0,0:0:0:0:
452,264,123788,1,0,0:0:0:0:
188,36,124104,5,0,0:0:0:0:
188,36,124262,1,0,0:0:0:0:
92,104,124420,5,0,0:0:0:0:
92,104,124499,1,0,0:0:0:0:
92,104,124578,2,0,L|128:140|164:176,1,95
159,171,124815,1,0,0:0:0:0:
159,171,124894,1,0,0:0:0:0:
124,332,125052,1,0,0:0:0:0:
320,332,125209,6,0,P|316:268|320:204,1,95
316,237,125447,1,0,0:0:0:0:
320,233,125526,1,0,0:0:0:0:
468,308,125684,1,0,0:0:0:0:
388,140,125840,2,0,L|388:192,1,47.5
328,100,125998,2,0,L|264:100,1,47.5
392,72,126156,1,0,0:0:0:0:
240,34,126315,2,0,P|212:35|120:36,1,95
112,148,126631,5,0,0:0:0:0:
256,128,126789,1,0,0:0:0:0:
256,304,126947,1,0,0:0:0:0:
256,304,127026,1,0,0:0:0:0:
256,304,127105,1,0,0:0:0:0:
400,148,127263,5,0,0:0:0:0:
256,128,127421,1,0,0:0:0:0:
256,304,127577,2,0,L|256:356,2,47.5
220,200,127894,5,0,0:0:0:0:
124,28,128052,1,0,0:0:0:0:
28,164,128210,1,0,0:0:0:0:
120,256,128366,2,0,L|68:256,1,47.5
164,312,128524,2,0,L|208:264,1,47.5
96,324,128682,1,0,0:0:0:0:
324,348,128842,6,0,P|351:347|428:344,1,95
425,192,129157,1,0,0:0:0:0:
276,188,129315,1,0,0:0:0:0:
425,192,129473,1,0,0:0:0:0:
136,188,129631,6,0,P|143:133|181:64,1,95
284,152,129945,1,0,0:0:0:0:
109,100,130105,1,0,0:0:0:0:
420,252,130263,1,0,0:0:0:0:
109,100,130419,1,0,0:0:0:0:
132,272,130578,5,0,0:0:0:0:
300,344,130736,1,0,0:0:0:0:
472,320,130893,2,0,B|436:276|436:276|384:248,1,95
292,176,131209,1,0,0:0:0:0:
300,344,131366,1,0,0:0:0:0:
408,72,131526,2,0,P|360:44|217:44,1,190
96,164,131998,1,0,0:0:0:0:
68,328,132156,6,0,B|228:320|228:228|228:392|248:320,1,190
308,296,132630,1,0,0:0:0:0:
132,92,132788,1,0,0:0:0:0:
248,260,132945,1,0,0:0:0:0:
452,216,133104,1,0,0:0:0:0:
408,331,133262,6,0,P|355:348|212:348,1,190
92,224,133736,1,0,0:0:0:0:
368,112,133894,1,0,0:0:0:0:
92,104,134051,5,0,0:0:0:0:
134,82,134129,1,0,0:0:0:0:
179,67,134208,1,0,0:0:0:0:
226,59,134287,1,0,0:0:0:0:
276,68,134366,1,0,0:0:0:0:
276,68,134445,1,0,0:0:0:0:
276,68,134524,1,0,0:0:0:0:
276,68,134603,1,0,0:0:0:0:
280,72,134682,2,0,P|236:144|228:260,1,190
104,332,135156,5,0,0:0:0:0:
348,144,135314,2,0,P|383:248|468:300,1,190
332,352,135788,1,0,0:0:0:0:
448,52,135945,2,0,P|428:144|348:208,1,190
357,204,136419,1,0,0:0:0:0:
64,52,136577,2,0,P|84:144|160:208,1,190
153,205,136972,5,0,0:0:0:0:
153,205,137051,1,0,0:0:0:0:
153,205,137130,1,0,0:0:0:0:
153,205,137209,6,0,P|168:116|192:84,1,95
332,72,137525,2,0,L|392:180,1,95
336,308,137840,1,0,0:0:0:0:
112,224,137998,5,0,0:0:0:0:
112,224,138077,1,0,0:0:0:0:
112,224,138156,1,0,0:0:0:0:
80,112,138314,2,0,L|24:28,1,95
232,256,138630,2,0,L|180:360,1,95
420,216,138946,6,0,B|440:168|440:168|429:104,1,95
344,344,139261,1,0,0:0:0:0:
260,80,139420,1,0,0:0:0:0:
276,228,139578,1,0,0:0:0:0:
160,328,139736,6,0,P|77:263|64:160,1,190
312,84,140209,1,0,0:0:0:0:
180,232,140366,1,0,0:0:0:0:
136,44,140525,5,0,0:0:0:0:
328,156,140683,1,0,0:0:0:0:
56,152,140841,1,0,0:0:0:0:
208,120,140999,6,0,P|256:64|395:51,1,190
208,120,141472,1,0,0:0:0:0:
452,64,141630,1,0,0:0:0:0:
208,120,141788,1,0,0:0:0:0:
421,184,141946,5,0,0:0:0:0:
421,212,142024,1,0,0:0:0:0:
411,237,142103,1,0,0:0:0:0:
393,258,142182,1,0,0:0:0:0:
371,275,142262,2,0,L|332:308,3,47.5
305,263,142577,2,0,L|240:208,1,47.5
282,307,142735,2,0,L|244:344,1,47.5
244,265,142893,6,0,L|196:232,3,47.5
204,314,143209,2,0,L|164:352,3,47.5
171,266,143525,2,0,L|124:236,3,47.5
137,319,143841,2,0,L|104:360,1,47.5
85,316,143999,2,0,L|48:356,1,47.5
68,260,144156,6,0,L|21:259,3,47.5
72,204,144472,2,0,L|120:204,3,47.5
68,152,144788,2,0,L|20:152,3,47.5
79,98,145104,2,0,L|40:72,1,47.5
115,58,145262,2,0,L|68:28,1,47.5
156,32,145420,6,0,L|156:96,3,47.5
211,31,145735,2,0,L|212:92,3,47.5
266,29,146051,2,0,L|268:92,1,47.5
317,28,146209,2,0,L|316:84,1,47.5
368,29,146367,2,0,L|368:88,1,47.5
417,29,146525,2,0,L|416:96,1,47.5
466,32,146683,5,0,0:0:0:0:
472,50,146762,1,0,0:0:0:0:
477,68,146841,1,0,0:0:0:0:
481,87,146920,5,0,0:0:0:0:
484,106,146999,1,0,0:0:0:0:
486,124,147078,1,0,0:0:0:0:
487,143,147157,1,0,0:0:0:0:
486,162,147236,1,0,0:0:0:0:
485,181,147315,1,0,0:0:0:0:
256,352,147788,5,0,0:0:0:0:
236,334,147867,1,0,0:0:0:0:
220,312,147945,1,0,0:0:0:0:
52,300,148104,1,0,0:0:0:0:
40,140,148262,1,0,0:0:0:0:
160,44,148420,2,0,P|152:120|224:208,1,190
288,72,148893,5,0,0:0:0:0:
444,40,149051,1,0,0:0:0:0:
316,224,149209,1,0,0:0:0:0:
468,148,149367,2,0,P|472:228|400:308,1,190
256,320,149841,5,0,0:0:0:0:
324,320,149999,1,0,0:0:0:0:
256,252,150156,1,0,0:0:0:0:
392,320,150314,1,0,0:0:0:0:
256,184,150472,1,0,0:0:0:0:
460,320,150630,1,0,0:0:0:0:
256,116,150788,1,0,0:0:0:0:
256,32,150946,5,0,0:0:0:0:
188,32,151104,1,0,0:0:0:0:
256,96,151262,1,0,0:0:0:0:
120,32,151420,1,0,0:0:0:0:
256,164,151577,1,0,0:0:0:0:
52,32,151735,1,0,0:0:0:0:
256,232,151893,1,0,0:0:0:0:
52,232,152051,1,0,0:0:0:0:
56,236,152209,1,0,0:0:0:0:
141,109,152367,6,0,L|180:68,3,47.5
208,120,152682,2,0,L|248:152,1,47.5
230,77,152840,2,0,L|272:36,1,47.5
268,120,152998,6,0,L|316:148,3,47.5
308,70,153314,2,0,L|340:36,3,47.5
341,118,153630,2,0,L|388:144,3,47.5
375,65,153946,2,0,L|408:32,1,47.5
427,68,154104,2,0,L|460:32,1,47.5
457,119,154261,6,0,L|504:120,3,47.5
456,176,154577,2,0,L|404:176,3,47.5
456,232,154893,2,0,L|504:232,3,47.5
433,286,155209,2,0,L|480:316,1,47.5
397,326,155367,2,0,L|440:352,1,47.5
354,351,155525,6,0,L|352:296,3,47.5
301,353,155840,2,0,L|300:296,3,47.5
252,356,156156,1,0,0:0:0:0:
229,349,156234,1,0,0:0:0:0:
206,341,156313,1,0,0:0:0:0:
185,330,156392,1,0,0:0:0:0:
166,317,156471,1,0,0:0:0:0:
148,301,156550,1,0,0:0:0:0:
131,284,156629,1,0,0:0:0:0:
117,265,156708,1,0,0:0:0:0:
104,245,156787,1,0,0:0:0:0:
94,223,156866,1,0,0:0:0:0:
87,201,156945,1,0,0:0:0:0:
82,178,157024,1,0,0:0:0:0:
72,152,157104,2,0,L|20:152,1,47.5
64,124,157262,2,0,L|16:124,1,47.5
64,96,157419,1,0,0:0:0:0:
85,84,157497,1,0,0:0:0:0:
106,74,157576,1,0,0:0:0:0:
128,66,157655,1,0,0:0:0:0:
151,58,157734,1,0,0:0:0:0:
173,51,157813,1,0,0:0:0:0:
196,45,157892,1,0,0:0:0:0:
220,41,157971,1,0,0:0:0:0:
243,38,158050,1,0,0:0:0:0:
267,36,158129,1,0,0:0:0:0:
291,35,158208,1,0,0:0:0:0:
314,35,158287,1,0,0:0:0:0:
344,40,158366,2,0,P|380:52|408:72,3,47.5
472,148,158683,5,0,0:0:0:0:
408,288,158841,1,0,0:0:0:0:
304,152,158999,1,0,0:0:0:0:
228,300,159156,1,0,0:0:0:0:
48,124,159314,5,0,0:0:0:0:
104,288,159472,1,0,0:0:0:0:
208,152,159630,1,0,0:0:0:0:
284,300,159788,1,0,0:0:0:0:
228,48,159946,6,0,L|280:48,1,47.5
368,212,160183,1,0,0:0:0:0:
144,212,160420,1,0,0:0:0:0:
132,60,160735,5,0,0:0:0:0:
256,232,160893,1,0,0:0:0:0:
380,60,161051,1,0,0:0:0:0:
380,60,161367,5,0,0:0:0:0:
256,232,161525,1,0,0:0:0:0:
132,60,161683,1,0,0:0:0:0:
144,176,161841,5,0,0:0:0:0:
171,176,161919,1,0,0:0:0:0:
199,176,161998,1,0,0:0:0:0:
226,176,162077,1,0,0:0:0:0:
254,176,162156,1,0,0:0:0:0:
281,176,162235,1,0,0:0:0:0:
309,176,162314,1,0,0:0:0:0:
336,176,162393,1,0,0:0:0:0:
364,176,162472,1,0,0:0:0:0:
96,136,163419,5,0,0:0:0:0:
168,36,163577,1,0,0:0:0:0:
224,144,163735,1,0,0:0:0:0:
48,36,163893,1,0,0:0:0:0:
272,40,164051,5,0,0:0:0:0:
164,224,164209,1,0,0:0:0:0:
384,96,164367,1,0,0:0:0:0:
224,356,164525,1,0,0:0:0:0:
88,96,164683,1,0,0:0:0:0:
340,248,164840,5,0,0:0:0:0:
340,248,164919,1,0,0:0:0:0:
340,248,164998,1,0,0:0:0:0:
96,248,165946,5,0,0:0:0:0:
168,348,166104,1,0,0:0:0:0:
224,240,166262,1,0,0:0:0:0:
48,348,166420,1,0,0:0:0:0:
272,344,166578,5,0,0:0:0:0:
164,160,166736,1,0,0:0:0:0:
52,136,166893,2,0,P|88:88|144:56,1,95
136,60,167129,1,0,0:0:0:0:
160,55,167208,1,0,0:0:0:0:
183,54,167287,1,0,0:0:0:0:
207,56,167366,1,0,0:0:0:0:
230,60,167445,1,0,0:0:0:0:
250,67,167525,6,0,P|342:115|418:219,1,190
412,344,167998,1,0,0:0:0:0:
304,168,168156,1,0,0:0:0:0:
412,344,168314,1,0,0:0:0:0:
304,332,168472,6,0,L|264:240,1,95
266,244,168788,1,0,0:0:0:0:
212,332,168946,2,0,L|176:240,1,95
177,243,169261,1,0,0:0:0:0:
116,332,169419,2,0,L|64:208,1,95
64,144,169735,1,0,0:0:0:0:
64,144,169893,2,0,L|48:92,2,47.5
372,48,170209,6,0,L|264:88,1,95
336,308,170524,2,0,L|264:220,1,95
48,268,170840,2,0,L|116:188,1,95
228,344,171156,5,0,0:0:0:0:
368,256,171314,2,0,P|404:208|404:72,1,190
280,144,171788,1,0,0:0:0:0:
144,128,171946,2,0,P|108:176|136:312,1,190
256,188,172419,1,0,0:0:0:0:
256,332,172577,5,0,0:0:0:0:
352,72,172735,1,0,0:0:0:0:
112,224,172893,1,0,0:0:0:0:
400,224,173051,1,0,0:0:0:0:
160,72,173209,1,0,0:0:0:0:
256,192,173841,5,0,0:0:0:0:
176,272,178893,5,0,0:0:0:0:
176,112,179209,1,0,0:0:0:0:
336,112,179525,1,0,0:0:0:0:
336,272,179841,1,0,0:0:0:0:
176,192,180156,5,0,0:0:0:0:
256,112,180472,1,0,0:0:0:0:
336,192,180788,1,0,0:0:0:0:
256,272,181104,1,0,0:0:0:0:
80,256,181419,6,0,L|136:216,1,47.5
432,128,181735,2,0,L|393:155,1,47.5
188,56,182051,2,0,L|217:93,1,47.5
324,328,182366,2,0,L|294:290,1,47.5
256,56,182841,1,0,0:0:0:0:
96,188,183156,1,0,0:0:0:0:
160,288,183472,5,0,0:0:0:0:
160,288,183551,1,0,0:0:0:0:
160,288,183630,1,0,0:0:0:0:
160,288,183709,1,0,0:0:0:0:
160,288,183788,1,0,0:0:0:0:
160,288,183867,1,0,0:0:0:0:
160,288,183946,6,0,L|212:320|244:336,1,95
242,335,184183,1,0,0:0:0:0:
242,335,184262,1,0,0:0:0:0:
264,192,184420,1,0,0:0:0:0:
384,352,184577,6,0,P|403:332|448:280,1,95
447,281,184815,1,0,0:0:0:0:
451,277,184894,1,0,0:0:0:0:
312,268,185052,1,0,0:0:0:0:
403,137,185209,5,0,0:0:0:0:
389,113,185288,1,0,0:0:0:0:
372,92,185367,1,0,0:0:0:0:
352,72,185446,1,0,0:0:0:0:
331,55,185525,1,0,0:0:0:0:
240,34,185683,2,0,P|202:39|128:56,1,95
112,148,185999,5,0,0:0:0:0:
256,128,186157,1,0,0:0:0:0:
110,301,186315,1,0,0:0:0:0:
110,301,186394,1,0,0:0:0:0:
110,301,186473,1,0,0:0:0:0:
400,148,186631,5,0,0:0:0:0:
256,128,186789,1,0,0:0:0:0:
404,308,186945,2,0,L|444:340,2,47.5
84,16,187262,5,0,0:0:0:0:
176,200,187420,1,0,0:0:0:0:
28,144,187578,1,0,0:0:0:0:
104,268,187735,2,0,L|64:228,1,47.5
156,316,187893,2,0,L|192:352,1,47.5
88,336,188051,1,0,0:0:0:0:
271,349,188210,6,0,P|299:348|372:324,1,95
425,192,188525,1,0,0:0:0:0:
87,192,188683,1,0,0:0:0:0:
425,192,188841,1,0,0:0:0:0:
87,192,188999,6,0,P|96:124|136:88,1,95
260,168,189314,1,0,0:0:0:0:
340,44,189473,1,0,0:0:0:0:
260,168,189631,1,0,0:0:0:0:
132,140,189788,1,0,0:0:0:0:
84,304,189945,2,0,L|192:304,1,95
260,168,190261,1,0,0:0:0:0:
408,280,190420,2,0,B|440:240|440:240|452:180,1,95
260,168,190735,1,0,0:0:0:0:
407,56,190894,2,0,B|352:28|352:28|280:28,1,95
260,168,191209,1,0,0:0:0:0:
124,132,191366,1,0,0:0:0:0:
104,332,191525,6,0,P|184:352|331:327,1,190
152,72,191998,1,0,0:0:0:0:
104,332,192156,1,0,0:0:0:0:
380,88,192314,1,0,0:0:0:0:
256,148,192472,1,0,0:0:0:0:
428,248,192630,2,0,P|348:268|224:248,1,190
428,248,193104,1,0,0:0:0:0:
256,148,193262,1,0,0:0:0:0:
256,148,193340,1,0,0:0:0:0:
256,148,193419,1,0,0:0:0:0:
128,72,193577,1,0,0:0:0:0:
98,109,193655,1,0,0:0:0:0:
69,146,193734,1,0,0:0:0:0:
90,187,193813,1,0,0:0:0:0:
120,220,193893,2,0,L|156:260,1,47.5
256,192,194051,5,0,0:0:0:0:
192,276,194209,1,0,0:0:0:0:
344,124,194367,1,0,0:0:0:0:
108,124,194525,1,0,0:0:0:0:
384,300,194683,1,0,0:0:0:0:
244,52,194841,1,0,0:0:0:0:
104,316,194999,1,0,0:0:0:0:
420,176,195156,1,0,0:0:0:0:
136,104,195314,5,0,0:0:0:0:
248,312,195472,1,0,0:0:0:0:
304,108,195630,1,0,0:0:0:0:
160,216,195788,1,0,0:0:0:0:
352,268,195946,1,0,0:0:0:0:
280,200,196104,1,0,0:0:0:0:
440,212,196262,5,0,0:0:0:0:
434,238,196340,1,0,0:0:0:0:
424,264,196419,1,0,0:0:0:0:
410,287,196498,1,0,0:0:0:0:
392,308,196577,2,0,L|296:352,3,95
284,172,197209,1,0,0:0:0:0:
148,96,197367,1,0,0:0:0:0:
148,96,197445,1,0,0:0:0:0:
148,96,197524,2,0,L|72:32,3,95
212,192,198156,5,0,0:0:0:0:
300,192,198314,1,0,0:0:0:0:
160,256,198472,1,0,0:0:0:0:
348,256,198630,1,0,0:0:0:0:
96,128,198788,1,0,0:0:0:0:
416,128,198945,1,0,0:0:0:0:
208,56,199103,6,0,B|184:96|184:96|212:144,1,95
376,184,199419,2,0,B|372:140|372:140|328:92,1,95
164,292,199735,2,0,B|204:328|204:328|264:320,1,95
444,116,200051,2,0,B|451:75|451:75|411:39,1,95
112,96,200366,6,0,B|112:156|112:156|172:184,1,95
384,152,200682,2,0,B|364:100|364:100|312:88,1,95
248,240,200998,2,0,B|200:216|200:216|184:152,1,95
80,200,201314,5,0,0:0:0:0:
85,226,201392,1,0,0:0:0:0:
95,252,201471,1,0,0:0:0:0:
109,275,201550,1,0,0:0:0:0:
124,292,201630,1,0,0:0:0:0:
161,316,201708,5,0,0:0:0:0:
207,329,201787,1,0,0:0:0:0:
253,341,201866,1,0,0:0:0:0:
299,354,201945,1,0,0:0:0:0:
341,345,202024,1,0,0:0:0:0:
380,317,202103,1,0,0:0:0:0:
418,290,202182,1,0,0:0:0:0:
457,263,202261,5,0,0:0:0:0:
440,234,202340,1,0,0:0:0:0:
406,201,202419,1,0,0:0:0:0:
380,161,202498,1,0,0:0:0:0:
368,116,202577,1,0,0:0:0:0:
375,69,202656,1,0,0:0:0:0:
384,36,202735,1,0,0:0:0:0:
464,60,202893,5,0,0:0:0:0:
216,80,203051,1,0,0:0:0:0:
376,240,203209,1,0,0:0:0:0:
160,328,203367,1,0,0:0:0:0:
100,124,203525,1,0,0:0:0:0:
312,108,203683,1,0,0:0:0:0:
440,212,203841,5,0,0:0:0:0:
435,238,203919,1,0,0:0:0:0:
425,264,203998,1,0,0:0:0:0:
411,287,204077,1,0,0:0:0:0:
400,304,204157,6,0,L|368:340,1,47.5
280,344,204314,2,0,L|224:296,1,47.5
160,176,204472,2,0,L|200:248,1,47.5
352,156,204630,2,0,L|320:192,1,47.5
92,356,204788,2,0,L|133:302,1,47.5
248,56,204946,2,0,L|248:108,1,47.5
416,336,205103,2,0,L|376:288,1,47.5
44,216,205261,2,0,L|104:180,1,47.5
188,40,205420,5,0,0:0:0:0:
412,124,205578,1,0,0:0:0:0:
352,328,205736,1,0,0:0:0:0:
192,232,205894,1,0,0:0:0:0:
324,40,206051,1,0,0:0:0:0:
100,124,206209,1,0,0:0:0:0:
192,324,206367,5,0,0:0:0:0:
215,309,206445,1,0,0:0:0:0:
238,294,206524,1,0,0:0:0:0:
261,279,206603,1,0,0:0:0:0:
284,264,206683,6,0,L|232:264,1,47.5
372,224,206841,2,0,L|420:224,1,47.5
296,152,206999,2,0,L|249:152,1,47.5
368,88,207156,2,0,L|416:88,1,47.5
300,36,207314,6,0,L|300:88,1,47.5
212,36,207472,2,0,L|212:92,1,47.5
144,88,207630,2,0,L|96:88,1,47.5
216,152,207788,2,0,L|263:152,1,47.5
140,224,207945,2,0,L|92:224,1,47.5
364,288,208104,5,0,0:0:0:0:
256,96,208262,1,0,0:0:0:0:
148,288,208420,1,0,0:0:0:0:
364,96,208577,1,0,0:0:0:0:
148,96,208735,1,0,0:0:0:0:
256,192,208893,5,0,0:0:0:0:
256,192,209051,1,0,0:0:0:0:
256,324,209209,5,0,0:0:0:0:
256,307,209287,5,0,0:0:0:0:
256,291,209366,1,0,0:0:0:0:
256,274,209445,1,0,0:0:0:0:
256,258,209524,1,0,0:0:0:0:
256,241,209603,1,0,0:0:0:0:
256,225,209682,1,0,0:0:0:0:
256,208,209761,1,0,0:0:0:0:
256,192,209840,5,0,0:0:0:0:
256,175,209919,1,0,0:0:0:0:
256,159,209998,1,0,0:0:0:0:
256,142,210077,1,0,0:0:0:0:
256,126,210156,1,0,0:0:0:0:
256,109,210235,1,0,0:0:0:0:
256,93,210314,1,0,0:0:0:0:
256,76,210393,1,0,0:0:0:0:
224,60,210472,6,0,L|184:40,5,31.6666666666667
248,44,210788,2,0,L|232:12,5,31.6666666666667
264,44,211103,2,0,L|280:12,5,31.6666666666667
288,60,211419,2,0,L|328:40,5,31.6666666666667
368,114,211735,5,0,0:0:0:0:
148,112,211894,1,0,0:0:0:0:
256,312,212210,1,0,0:0:0:0:
432,252,212525,5,0,0:0:0:0:
256,252,212682,1,0,0:0:0:0:
80,252,212841,1,0,0:0:0:0:
148,112,213157,5,0,0:0:0:0:
364,112,213315,1,0,0:0:0:0:
256,312,213473,1,0,0:0:0:0:
256,192,213788,12,0,217419,0:0:0:0:
