osu file format v14

[General]
AudioFilename: audio.mp3
AudioLeadIn: 0
PreviewTime: 53564
Countdown: 0
SampleSet: None
StackLeniency: 0.2
Mode: 0
LetterboxInBreaks: 0
WidescreenStoryboard: 1

[Editor]
Bookmarks: 83605
DistanceSpacing: 1
BeatDivisor: 4
GridSize: 4
TimelineZoom: 2.4

[Metadata]
Title:Hoshitachi no melody
TitleUnicode:Hoshitachi no melody
Artist:Yuikonnu
ArtistUnicode:Yuikonnu
Creator:shadow_neko
Version:Zerogue
Source:crossbeats REV.
Tags:CROSS?BEATS CAPCOM Meis Clauson
BeatmapID:1145295
BeatmapSetID:540092

[Difficulty]
HPDrainRate:7
CircleSize:4
OverallDifficulty:9
ApproachRate:9.3
SliderMultiplier:1.7
SliderTickRate:1

[Events]
//Background and Video events
0,0,"beautiful-starry-night-sky-high-quality-wallpaper-4848[1].jpg",0,0
//Break Periods
//Storyboard Layer 0 (Background)
//Storyboard Layer 1 (Fail)
//Storyboard Layer 2 (Pass)
//Storyboard Layer 3 (Foreground)
//Storyboard Sound Samples

[TimingPoints]
529,329.67032967033,4,2,1,50,1,0
858,-99.9999999999999,4,2,1,70,0,0
1600,-99.9999999999999,4,2,1,5,0,0
1682,-99.9999999999999,4,2,1,70,0,0
1930,-99.9999999999999,4,2,1,5,0,0
2012,-99.9999999999999,4,2,1,70,0,0
2259,-99.9999999999999,4,2,1,5,0,0
2342,-99.9999999999999,4,2,1,70,0,0
2919,-99.9999999999999,4,2,1,5,0,0
3001,-99.9999999999999,4,2,1,70,0,0
4237,-99.9999999999999,4,2,1,5,0,0
4320,-99.9999999999999,4,2,1,70,0,0
4567,-99.9999999999999,4,2,1,5,0,0
4649,-99.9999999999999,4,2,1,70,0,0
4897,-99.9999999999999,4,2,1,5,0,0
4979,-99.9999999999999,4,2,1,70,0,0
5226,-99.9999999999999,4,2,1,5,0,0
5309,-99.9999999999999,4,2,1,70,0,0
7287,-90.9090909090909,4,2,1,70,0,0
7946,-83.3333333333333,4,2,1,70,0,0
8276,-83.3333333333333,4,2,1,70,0,0
8441,-100,4,2,1,70,0,0
9265,-76.9230769230769,4,2,1,70,0,0
9924,-83.3333333333333,4,2,1,70,0,0
10583,-90.9090909090909,4,2,1,70,0,0
11243,-100,4,2,1,70,0,0
11408,-125,4,2,1,60,0,0
11655,-125,4,2,1,5,0,0
11737,-125,4,2,1,60,0,0
14292,-125,4,2,1,5,0,0
14375,-125,4,2,1,60,0,0
18083,-125,4,2,1,5,0,0
18166,-125,4,2,1,60,0,0
19567,-125,4,2,1,5,0,0
19649,-125,4,2,1,60,0,0
20308,-125,4,2,1,70,0,0
20474,-111.111111111111,4,2,1,70,0,0
20721,-111.111111111111,4,2,1,5,0,0
20803,-111.111111111111,4,2,1,70,0,0
20968,-111.111111111111,4,2,1,75,0,0
21133,-100,4,2,1,75,0,0
21380,-111.111111111111,4,2,1,5,0,0
21463,-100,4,2,1,75,0,0
21957,-71.4285714285714,4,2,2,70,0,0
22204,-71.4285714285714,4,2,2,5,0,0
22287,-83.3333333333333,4,2,1,70,0,0
23358,-83.3333333333333,4,2,1,5,0,0
23441,-83.3333333333333,4,2,1,70,0,0
32094,-83.3333333333333,4,2,1,35,0,0
32177,-83.3333333333333,4,2,1,70,0,0
32424,-83.3333333333333,4,2,1,35,0,0
32507,-125,4,2,1,60,0,0
36545,-125,4,2,1,5,0,0
36627,-125,4,2,1,60,0,0
38029,-125,4,2,1,5,0,0
38111,-125,4,2,1,60,0,0
39182,-125,4,2,1,5,0,0
39265,-125,4,2,1,60,0,0
39512,-125,4,2,1,5,0,0
39594,-125,4,2,1,60,0,0
39842,-125,4,2,1,5,0,0
39924,-125,4,2,1,60,0,0
40171,-125,4,2,1,5,0,0
40254,-125,4,2,1,60,0,0
42232,-83.3333333333333,4,2,1,60,0,0
42479,-166.666666666667,4,2,1,5,0,0
42561,-50,4,2,1,60,0,0
42809,-50,4,2,1,5,0,0
42891,-83.3333333333333,4,2,1,85,0,0
43056,-83.3333333333334,4,2,1,85,0,0
48578,-83.3333333333334,4,2,1,5,0,0
48660,-83.3333333333334,4,2,1,85,0,0
51215,-83.3333333333334,4,2,1,5,0,0
51298,-83.3333333333334,4,2,1,85,0,0
53111,-50,4,2,1,85,0,0
54924,-86.9565217391304,4,1,1,85,0,1
55089,-86.9565217391304,4,1,1,85,0,1
56078,-74.0740740740741,4,1,1,85,0,1
56325,-74.0740740740741,4,2,1,5,0,1
56408,-74.0740740740741,4,1,1,85,0,1
56737,-66.6666666666667,4,1,2,85,0,1
56902,-86.9565217391304,4,1,1,85,0,1
58715,-80,4,1,1,85,0,1
58963,-74.0740740740741,4,2,1,5,0,1
59045,-80,4,1,1,85,0,1
59375,-71.4285714285714,4,1,2,85,0,1
59540,-86.9565217391304,4,1,1,85,0,1
60941,-86.9565217391304,4,2,1,5,0,1
61023,-66.6666666666667,4,1,1,85,0,1
61270,-66.6666666666667,4,1,1,5,0,1
61353,-66.6666666666667,4,1,1,85,0,1
63990,-74.0740740740741,4,1,2,85,0,1
66627,-68.9655172413793,4,1,1,85,0,1
66875,-74.0740740740741,4,2,1,5,0,1
66957,-74.0740740740741,4,1,1,85,0,1
67287,-66.6666666666667,4,1,2,85,0,1
67452,-86.9565217391304,4,1,1,85,0,1
68935,-74.0740740740741,4,1,1,85,0,1
69265,-74.0740740740741,4,1,1,85,0,1
69512,-74.0740740740741,4,2,1,5,0,1
69594,-66.6666666666667,4,1,1,85,0,1
69924,-66.6666666666667,4,1,2,85,0,1
70089,-86.9565217391304,4,1,1,85,0,1
71490,-86.9565217391304,4,2,1,5,0,1
71572,-66.6666666666667,4,1,1,85,0,1
71820,-66.6666666666667,4,1,1,5,0,1
71902,-66.6666666666667,4,1,1,85,0,1
73386,-86.9565217391304,4,1,1,85,0,1
74540,-74.0740740740741,4,1,2,85,0,1
75034,-74.0740740740741,4,1,1,85,0,1
75199,-66.6666666666667,4,1,1,85,0,1
75529,-80,4,1,1,85,0,1
76023,-100,4,2,1,70,0,0
76188,-100,4,2,1,70,0,0
76765,-100,4,2,1,5,0,0
76847,-100,4,2,1,70,0,0
77094,-100,4,2,1,5,0,0
77177,-90.9090909090909,4,2,1,70,0,0
77507,-83.3333333333333,4,2,1,70,0,0
77836,-76.9230769230769,4,2,1,70,0,0
79402,-76.9230769230769,4,2,1,5,0,0
79485,-76.9230769230769,4,2,1,70,0,0
79732,-76.9230769230769,4,2,1,5,0,0
79814,-76.9230769230769,4,2,1,70,0,0
80061,-76.9230769230769,4,2,1,5,0,0
80144,-76.9230769230769,4,2,1,70,0,0
80391,-76.9230769230769,4,2,1,5,0,0
80474,-76.9230769230769,4,2,1,70,0,0
82452,-71.4285714285714,4,2,1,70,0,0
83111,-66.6666666666667,4,2,1,70,0,0
86655,-200,4,2,2,65,0,0
87232,-200,4,2,2,55,0,0
87891,-200,4,2,2,45,0,0
88550,-200,4,2,2,35,0,0
89210,-200,4,2,2,25,0,0
89869,-200,4,2,2,15,0,0
90529,-200,4,2,2,10,0,0
91847,-200,4,2,2,7,0,0
93166,-100,4,2,1,5,0,0

[Colours]
Combo1 : 255,32,160
Combo2 : 201,170,253
Combo3 : 210,210,210
Combo4 : 135,181,250
Combo5 : 254,44,97
Combo6 : 255,140,181
Combo7 : 150,150,150
Combo8 : 250,171,118

[HitObjects]
80,268,529,5,0,0:0:0:0:
122,282,611,1,0,0:0:0:0:
165,272,693,1,0,0:0:0:0:
196,240,776,1,0,0:0:0:0:
207,197,858,5,0,0:0:0:0:
178,52,1023,1,0,0:0:0:0:
80,268,1188,1,0,0:0:0:0:
214,121,1353,2,0,P|261:142|278:226,1,127.5
284,199,1682,2,0,P|326:153|388:155,1,127.5
354,223,2012,5,0,0:0:0:0:
293,38,2177,1,0,0:0:0:0:
196,240,2342,1,0,0:0:0:0:
381,64,2507,1,0,0:0:0:0:
193,165,2671,2,0,P|255:193|265:267,1,127.5
269,256,3001,1,0,0:0:0:0:
293,38,3166,1,0,0:0:0:0:
119,172,3331,1,0,0:0:0:0:
182,42,3496,5,0,0:0:0:0:
210,308,3660,1,0,0:0:0:0:
310,139,3825,1,0,0:0:0:0:
67,233,3990,2,0,L|193:184,1,127.5
228,216,4320,2,0,P|189:164|195:100,1,127.5
270,142,4649,6,0,P|330:150|381:106,1,127.5
367,128,4979,2,0,P|361:193|399:242,1,127.5
447,167,5309,1,0,0:0:0:0:
438,169,5391,1,0,0:0:0:0:
430,171,5473,1,0,0:0:0:0:
228,216,5638,1,0,0:0:0:0:
342,342,5803,1,0,0:0:0:0:
309,72,5968,6,0,L|255:133,1,42.5
145,254,6133,1,0,0:0:0:0:
430,171,6298,1,0,0:0:0:0:
191,66,6463,1,0,0:0:0:0:
240,340,6627,2,0,L|272:220,1,85
309,72,6957,5,0,0:0:0:0:
98,226,7123,1,0,0:0:0:0:
360,321,7287,2,0,L|265:224,1,93.5000028533936
139,98,7616,5,0,0:0:0:0:
166,357,7781,1,0,0:0:0:0:
380,178,7946,2,0,L|261:210,1,101.999996887207
166,357,8276,1,0,0:0:0:0:
194,130,8441,1,0,0:0:0:0:
272,305,8605,5,0,0:0:0:0:
283,332,8687,1,0,0:0:0:0:
295,359,8769,1,0,0:0:0:0:
272,76,8935,1,0,0:0:0:0:
124,265,9100,1,0,0:0:0:0:
295,359,9265,2,0,L|236:222,1,110.499994941712
194,130,9594,5,0,0:0:0:0:
166,357,9759,1,0,0:0:0:0:
380,178,9924,2,0,L|274:206,1,101.999996887207
194,130,10254,5,0,0:0:0:0:
283,340,10419,1,0,0:0:0:0:
379,78,10583,2,0,L|305:151,1,93.5000028533936
353,241,10913,5,0,0:0:0:0:
264,31,11078,1,0,0:0:0:0:
168,293,11243,2,0,L|254:205,1,85
312,143,11737,6,0,P|296:113|296:79,1,68
227,232,12067,2,0,P|243:202|243:168,1,68
312,321,12397,1,0,0:0:0:0:
328,312,12561,2,0,L|403:271,1,68
312,143,12891,5,0,0:0:0:0:
227,232,13056,1,0,0:0:0:0:
312,321,13221,2,0,L|291:231,1,68
256,82,13550,1,0,0:0:0:0:
112,132,13715,1,0,0:0:0:0:
227,232,13880,1,0,0:0:0:0:
132,59,14045,2,0,P|80:63|46:96,1,102
43,105,14375,5,0,0:0:0:0:
97,285,14540,1,0,0:0:0:0:
112,132,14704,1,0,0:0:0:0:
42,197,14869,1,0,0:0:0:0:
133,225,15034,1,0,0:0:0:0:
112,132,15199,2,0,P|116:96|131:68,1,68
203,289,15529,5,0,0:0:0:0:
224,196,15693,1,0,0:0:0:0:
294,260,15858,2,0,P|327:274|358:275,1,68
393,137,16188,2,0,P|363:158|347:185,1,68
452,285,16518,2,0,P|448:251|435:226,1,34
393,137,16682,2,0,P|392:104|405:73,1,68
448,251,17012,6,0,P|417:264|384:263,1,68
224,196,17342,1,0,0:0:0:0:
393,137,17507,1,0,0:0:0:0:
321,344,17671,1,0,0:0:0:0:
224,196,17836,2,0,P|219:144|245:104,1,102
255,98,18166,5,0,0:0:0:0:
97,184,18331,1,0,0:0:0:0:
171,348,18496,1,0,0:0:0:0:
170,72,18660,2,0,L|170:172,1,68
231,288,18990,2,0,L|231:188,1,68
224,196,19237,1,0,0:0:0:0:
248,202,19320,2,0,P|295:198|341:169,1,102
336,160,19649,6,0,P|332:120|338:85,1,68
411,188,19979,2,0,P|415:228|409:263,1,68
411,35,20309,1,0,0:0:0:0:
224,196,20474,1,0,0:0:0:0:
411,188,20803,5,0,0:0:0:0:
241,61,20968,1,0,0:0:0:0:
212,326,21133,1,0,0:0:0:0:
347,95,21463,5,0,0:0:0:0:
183,259,21627,1,0,0:0:0:0:
150,215,21709,1,0,0:0:0:0:
155,161,21791,1,0,0:0:0:0:
195,125,21874,1,0,0:0:0:0:
249,124,21957,2,0,P|324:123|337:22,1,178.499994552612
338,24,22287,5,0,0:0:0:0:
246,229,22452,1,0,0:0:0:0:
410,145,22616,1,0,0:0:0:0:
265,63,22781,1,0,0:0:0:0:
329,318,22946,1,0,0:0:0:0:
367,49,23111,2,0,B|314:162,1,101.999996887207
183,259,23441,5,0,0:0:0:0:
364,217,23605,1,0,0:0:0:0:
237,80,23770,2,0,B|258:202,1,101.999996887207
181,336,24100,1,0,0:0:0:0:
58,218,24265,2,0,P|39:164|137:197,1,203.999993774414
97,305,24759,5,0,0:0:0:0:
254,180,24924,1,0,0:0:0:0:
220,286,25089,1,0,0:0:0:0:
190,87,25254,1,0,0:0:0:0:
111,149,25419,1,0,0:0:0:0:
268,24,25583,1,0,0:0:0:0:
220,286,25748,2,0,P|201:236|214:187,1,101.999996887207
360,118,26078,5,0,0:0:0:0:
190,87,26243,1,0,0:0:0:0:
314,314,26408,2,0,P|333:264|320:215,1,101.999996887207
190,87,26737,2,0,P|223:128|272:141,1,101.999996887207
447,92,27067,1,0,0:0:0:0:
398,98,27149,1,0,0:0:0:0:
362,132,27232,2,0,P|356:182|321:218,1,101.999996887207
268,24,27561,5,0,0:0:0:0:
179,268,27726,1,0,0:0:0:0:
362,132,27891,1,0,0:0:0:0:
164,94,28056,1,0,0:0:0:0:
314,314,28221,1,0,0:0:0:0:
90,134,28386,2,0,P|81:79|103:38,1,101.999996887207
362,132,28715,5,0,0:0:0:0:
179,268,28880,1,0,0:0:0:0:
306,73,29045,2,0,P|351:50|410:66,1,101.999996887207
220,205,29375,2,0,P|177:177|161:118,1,101.999996887207
377,213,29704,1,0,0:0:0:0:
377,213,29787,1,0,0:0:0:0:
377,213,29869,2,0,P|374:263|331:306,1,101.999996887207
306,73,30199,5,0,0:0:0:0:
161,130,30364,1,0,0:0:0:0:
199,282,30529,5,0,0:0:0:0:
211,44,30693,1,0,0:0:0:0:
60,213,30858,5,0,0:0:0:0:
282,258,31023,1,0,0:0:0:0:
427,99,31353,5,0,0:0:0:0:
205,144,31518,1,0,0:0:0:0:
288,303,31682,5,0,0:0:0:0:
258,41,31847,1,0,0:0:0:0:
60,213,32012,5,0,0:0:0:0:
358,151,32177,1,0,0:0:0:0:
140,54,32342,5,0,0:0:0:0:
185,354,32507,1,0,0:0:0:0:
185,354,32836,6,0,L|263:292,1,68
303,259,33166,1,0,0:0:0:0:
215,67,33496,1,0,0:0:0:0:
168,135,33660,2,0,P|164:199|219:249,2,136
315,76,34485,2,0,P|298:140|240:171,1,136
48,236,34979,5,0,0:0:0:0:
52,229,35061,1,0,0:0:0:0:
56,222,35144,2,0,P|119:204|175:239,1,136
104,301,35638,1,0,0:0:0:0:
168,135,35803,1,0,0:0:0:0:
111,73,36133,5,0,0:0:0:0:
175,239,36298,2,0,P|230:274|282:265,1,102
294,256,36627,1,0,0:0:0:0:
168,135,36792,1,0,0:0:0:0:
174,345,36957,1,0,0:0:0:0:
262,157,37122,1,0,0:0:0:0:
87,216,37287,1,0,0:0:0:0:
294,256,37452,1,0,0:0:0:0:
226,57,37616,5,0,0:0:0:0:
225,65,37698,1,0,0:0:0:0:
224,73,37781,2,0,L|214:152,1,68
330,73,38111,1,0,0:0:0:0:
131,142,38276,1,0,0:0:0:0:
294,256,38605,5,0,0:0:0:0:
226,57,38770,1,0,0:0:0:0:
187,289,38935,2,0,L|209:158,1,102
183,178,39265,2,0,P|230:189|277:164,1,102
290,147,39594,2,0,P|323:142|355:153,1,68
183,178,39924,2,0,P|175:145|183:112,1,68
294,256,40254,5,0,0:0:0:0:
294,256,40336,1,0,0:0:0:0:
294,256,40419,2,0,P|301:288|293:321,1,68
312,59,40748,1,0,0:0:0:0:
183,178,40913,1,0,0:0:0:0:
378,233,41078,1,0,0:0:0:0:
228,65,41408,5,0,0:0:0:0:
292,321,41572,1,0,0:0:0:0:
292,321,41655,1,0,0:0:0:0:
292,321,41737,1,0,0:0:0:0:
387,121,41902,1,0,0:0:0:0:
115,152,42067,1,0,0:0:0:0:
428,184,42232,1,0,0:0:0:0:
428,184,42561,2,0,P|348:184|417:52,1,255
387,121,42891,2,0,L|346:175,1,50.9999984436036
155,210,43056,5,0,0:0:0:0:
393,267,43221,1,0,0:0:0:0:
250,68,43386,1,0,0:0:0:0:
223,317,43550,2,0,L|288:195,1,101.999996887207
366,49,43880,5,0,0:0:0:0:
135,181,44045,1,0,0:0:0:0:
305,293,44210,2,0,L|288:155,1,101.999996887207
273,46,44540,5,0,0:0:0:0:
90,234,44704,2,0,P|145:249|189:224,1,101.999996887207
63,38,45034,1,0,0:0:0:0:
124,327,45199,1,0,0:0:0:0:
168,85,45364,1,0,0:0:0:0:
4,214,45529,1,0,0:0:0:0:
52,197,45611,1,0,0:0:0:0:
100,180,45693,5,0,0:0:0:0:
270,122,45858,1,0,0:0:0:0:
122,339,46023,2,0,L|143:222,1,101.999996887207
241,42,46353,5,0,0:0:0:0:
62,121,46518,1,0,0:0:0:0:
261,276,46682,1,0,0:0:0:0:
241,42,46847,2,0,L|192:140,1,101.999996887207
100,180,47177,5,0,0:0:0:0:
337,65,47342,1,0,0:0:0:0:
269,320,47507,2,0,L|249:204,1,101.999996887207
337,65,47836,5,0,0:0:0:0:
100,180,48001,1,0,0:0:0:0:
391,121,48166,1,0,0:0:0:0:
430,112,48248,1,0,0:0:0:0:
470,104,48331,2,0,P|456:179|509:226,1,152.999995330811
498,223,48660,2,0,P|445:222|408:253,1,101.999996887207
422,352,48990,5,0,0:0:0:0:
391,121,49155,1,0,0:0:0:0:
269,320,49320,1,0,0:0:0:0:
391,121,49485,2,0,L|504:96,1,101.999996887207
422,352,49814,5,0,0:0:0:0:
337,65,49979,1,0,0:0:0:0:
202,283,50144,2,0,P|160:245|151:192,1,101.999996887207
337,65,50474,5,0,0:0:0:0:
87,152,50638,1,0,0:0:0:0:
310,299,50803,1,0,0:0:0:0:
311,288,50885,1,0,0:0:0:0:
312,278,50968,2,0,L|335:84,1,152.999995330811
293,103,51298,2,0,L|399:61,1,101.999996887207
421,279,51627,5,0,0:0:0:0:
334,11,51792,1,0,0:0:0:0:
251,278,51957,1,0,0:0:0:0:
462,91,52122,2,0,L|366:58,1,101.999996887207
365,243,52452,5,0,0:0:0:0:
414,0,52616,1,0,0:0:0:0:
206,137,52781,2,0,P|201:190|228:230,1,101.999996887207
314,41,53111,5,0,0:0:0:0:
258,21,53193,1,0,0:0:0:0:
199,28,53275,1,0,0:0:0:0:
150,61,53358,1,0,0:0:0:0:
119,111,53440,1,0,0:0:0:0:
114,170,53523,1,0,0:0:0:0:
136,225,53605,5,0,0:0:0:0:
454,144,53770,1,0,0:0:0:0:
258,21,53935,1,0,0:0:0:0:
299,345,54100,1,0,0:0:0:0:
365,59,54265,1,0,0:0:0:0:
328,109,54347,1,0,0:0:0:0:
269,133,54429,1,0,0:0:0:0:
207,121,54512,1,0,0:0:0:0:
161,78,54594,2,0,L|171:25,6,42.5
84,165,54924,5,0,0:0:0:0:
314,41,55089,1,0,0:0:0:0:
229,288,55254,1,0,0:0:0:0:
168,36,55419,2,0,L|149:167,1,97.7500018644333
376,193,55748,5,0,0:0:0:0:
153,132,55913,1,0,0:0:0:0:
208,355,56078,2,0,L|173:208,1,114.750000437737
256,85,56408,5,0,0:0:0:0:
86,286,56573,1,0,0:0:0:0:
348,321,56737,2,0,L|285:158,1,127.500004863739
153,131,57067,5,0,0:0:0:0:
416,56,57232,1,0,0:0:0:0:
348,321,57397,1,0,0:0:0:0:
348,321,57479,1,0,0:0:0:0:
348,321,57561,5,0,0:0:0:0:
221,55,57726,1,0,0:0:0:0:
165,344,57891,1,0,0:0:0:0:
375,137,58056,2,0,P|324:118|278:126,1,97.7500018644333
312,243,58386,5,0,0:0:0:0:
251,2,58550,1,0,0:0:0:0:
67,203,58715,2,0,P|118:222|168:213,1,106.25
130,97,59045,5,0,0:0:0:0:
191,338,59210,1,0,0:0:0:0:
375,137,59375,2,0,P|324:118|259:135,1,118.999996368408
312,243,59704,5,0,0:0:0:0:
251,2,59869,1,0,0:0:0:0:
191,338,60034,1,0,0:0:0:0:
191,338,60116,1,0,0:0:0:0:
191,338,60199,5,0,0:0:0:0:
375,137,60364,1,0,0:0:0:0:
130,97,60529,1,0,0:0:0:0:
311,319,60693,2,0,P|285:257|311:181,1,146.62500279665
348,171,61023,2,0,P|274:181|211:76,1,191.250007295609
216,76,61353,1,0,0:0:0:0:
191,338,61518,1,0,0:0:0:0:
336,58,61682,1,0,0:0:0:0:
97,168,61847,2,0,L|232:261,1,127.500004863739
311,319,62177,5,0,0:0:0:0:
336,58,62342,1,0,0:0:0:0:
97,168,62507,1,0,0:0:0:0:
381,124,62671,1,0,0:0:0:0:
395,181,62753,1,0,0:0:0:0:
371,235,62836,5,0,0:0:0:0:
472,42,63001,1,0,0:0:0:0:
309,174,63166,1,0,0:0:0:0:
403,361,63331,2,0,L|384:193,1,127.500004863739
370,78,63660,5,0,0:0:0:0:
262,282,63825,1,0,0:0:0:0:
435,112,63990,2,0,P|430:36|299:67,1,229.500000875473
388,234,64485,5,0,0:0:0:0:
370,78,64649,2,0,P|300:46|266:176,1,229.500000875473
262,282,65144,1,0,0:0:0:0:
245,335,65226,1,0,0:0:0:0:
195,361,65308,1,0,0:0:0:0:
142,343,65391,1,0,0:0:0:0:
117,293,65474,5,0,0:0:0:0:
250,79,65638,1,0,0:0:0:0:
80,191,65803,1,0,0:0:0:0:
262,282,65968,2,0,P|317:272|361:231,1,114.750000437737
260,156,66298,5,0,0:0:0:0:
330,368,66463,1,0,0:0:0:0:
478,200,66627,2,0,P|483:138|451:80,1,123.250003761292
262,282,66957,5,0,0:0:0:0:
310,40,67122,1,0,0:0:0:0:
84,139,67287,2,0,P|79:203|120:261,1,127.500004863739
380,159,67616,5,0,0:0:0:0:
212,27,67781,1,0,0:0:0:0:
242,326,67946,1,0,0:0:0:0:
242,326,68029,1,0,0:0:0:0:
242,326,68111,5,0,0:0:0:0:
375,48,68276,1,0,0:0:0:0:
118,191,68441,1,0,0:0:0:0:
352,368,68605,2,0,L|336:253,1,97.7500018644333
160,16,68935,5,0,0:0:0:0:
199,306,69100,1,0,0:0:0:0:
403,95,69265,2,0,L|285:121,1,114.750000437737
109,289,69594,5,0,0:0:0:0:
407,224,69759,1,0,0:0:0:0:
200,0,69924,2,0,L|220:146,1,127.500004863739
339,11,70254,5,0,0:0:0:0:
111,227,70419,1,0,0:0:0:0:
414,302,70583,1,0,0:0:0:0:
414,302,70666,1,0,0:0:0:0:
414,302,70748,5,0,0:0:0:0:
217,126,70913,1,0,0:0:0:0:
192,384,71078,1,0,0:0:0:0:
294,96,71243,2,0,P|232:44|163:64,1,146.62500279665
153,44,71572,2,0,P|242:22|310:83,1,191.250007295609
217,126,71902,1,0,0:0:0:0:
343,0,72067,1,0,0:0:0:0:
302,294,72232,1,0,0:0:0:0:
472,43,72397,2,0,L|311:83,1,127.500004863739
419,267,72726,5,0,0:0:0:0:
241,10,72891,1,0,0:0:0:0:
212,321,73056,1,0,0:0:0:0:
388,64,73221,2,0,L|287:90,1,63.7500024318696
90,138,73386,5,0,0:0:0:0:
406,193,73550,1,0,0:0:0:0:
241,10,73715,1,0,0:0:0:0:
217,255,73880,2,0,L|231:113,1,97.7500018644333
343,0,74210,5,0,0:0:0:0:
90,138,74375,1,0,0:0:0:0:
342,284,74540,2,0,L|334:170,1,114.750000437737
167,41,74869,5,0,0:0:0:0:
259,345,75034,1,0,0:0:0:0:
385,53,75199,2,0,L|317:212,1,127.500004863739
259,345,75529,5,0,0:0:0:0:
167,41,75693,1,0,0:0:0:0:
185,97,75775,1,0,0:0:0:0:
153,147,75857,1,0,0:0:0:0:
95,154,75940,1,0,0:0:0:0:
51,114,76023,5,0,0:0:0:0:
334,170,76188,1,0,0:0:0:0:
167,41,76353,1,0,0:0:0:0:
259,345,76518,2,0,L|211:185,1,127.5
263,198,76847,2,0,P|210:224|155:193,1,127.5
334,170,77177,6,0,L|371:292,1,93.5000028533936
154,192,77507,2,0,L|113:55,1,101.999996887207
345,175,77836,2,0,L|376:280,1,110.499994941712
302,29,78166,1,0,0:0:0:0:
120,219,78331,1,0,0:0:0:0:
376,280,78496,1,0,0:0:0:0:
156,71,78660,5,0,0:0:0:0:
230,323,78825,1,0,0:0:0:0:
411,132,78990,1,0,0:0:0:0:
120,219,79155,2,0,P|97:141|157:71,1,165.749992412568
156,71,79485,2,0,P|234:92|302:28,1,165.749992412568
217,12,79814,6,0,L|218:191,1,165.749992412568
206,188,80144,2,0,P|286:172|340:230,1,165.749992412568
258,256,80474,1,0,0:0:0:0:
260,248,80556,1,0,0:0:0:0:
262,240,80638,1,0,0:0:0:0:
314,40,80803,1,0,0:0:0:0:
120,219,80968,1,0,0:0:0:0:
359,101,81133,5,0,0:0:0:0:
403,78,81215,1,0,0:0:0:0:
448,56,81298,1,0,0:0:0:0:
281,277,81463,1,0,0:0:0:0:
217,12,81627,1,0,0:0:0:0:
232,342,81792,2,0,P|203:297|209:241,1,110.499994941712
359,101,82122,5,0,0:0:0:0:
94,30,82287,1,0,0:0:0:0:
352,183,82452,2,0,P|410:165|438:83,1,118.999996368408
384,305,82781,5,0,0:0:0:0:
314,40,82946,1,0,0:0:0:0:
310,328,83111,2,0,P|341:370|423:373,1,127.500004863739
359,101,83441,5,0,0:0:0:0:
168,305,83605,1,0,0:0:0:0:
415,171,83770,1,0,0:0:0:0:
459,146,83852,1,0,0:0:0:0:
504,122,83935,5,0,0:0:0:0:
384,305,84100,1,0,0:0:0:0:
314,40,84265,1,0,0:0:0:0:
208,242,84430,2,0,L|229:311,2,63.7500024318696
99,279,84759,5,0,0:0:0:0:
415,171,84924,1,0,0:0:0:0:
114,25,85089,1,0,0:0:0:0:
125,61,85171,1,0,0:0:0:0:
136,98,85253,1,0,0:0:0:0:
308,308,85419,6,0,L|293:258,1,31.8750012159348
236,74,85583,1,0,0:0:0:0:
99,279,85748,1,0,0:0:0:0:
123,270,85830,1,0,0:0:0:0:
147,262,85912,1,0,0:0:0:0:
305,161,86078,6,0,L|227:187,1,63.7500024318696
310,79,86243,1,0,0:0:0:0:
363,103,86325,1,0,0:0:0:0:
387,157,86407,1,0,0:0:0:0:
368,213,86490,1,0,0:0:0:0:
316,242,86572,1,0,0:0:0:0:
256,192,86655,12,0,93166,0:0:0:0:
