osu file format v14

[General]
AudioFilename: audio.mp3
AudioLeadIn: 0
PreviewTime: 53408
Countdown: 0
SampleSet: Soft
StackLeniency: 0.7
Mode: 0
LetterboxInBreaks: 0
WidescreenStoryboard: 1

[Editor]
Bookmarks: 45990,68934,70748,81100
DistanceSpacing: 1.7
BeatDivisor: 4
GridSize: 16
TimelineZoom: 2.3

[Metadata]
Title:Hoshitachi no Melody
TitleUnicode:星達のメロディ
Artist:yuikonnu
ArtistUnicode:ゆいこんぬ
Creator:TryFly2
Version:Normal
Source:crossbeats REV. SUNRISE
Tags:japanese jpop j-pop video game CROSS×BEATS CAPCOM Meis Clauson Female Vocalist pop merodii vgm Shiwakaze
BeatmapID:3444966
BeatmapSetID:1685668

[Difficulty]
HPDrainRate:3.5
CircleSize:3
OverallDifficulty:4
ApproachRate:5
SliderMultiplier:1.1
SliderTickRate:1

[Events]
//Background and Video events
0,0,"bg.jpg",0,0
//Break Periods
//Storyboard Layer 0 (Background)
//Storyboard Layer 1 (Fail)
//Storyboard Layer 2 (Pass)
//Storyboard Layer 3 (Foreground)
//Storyboard Layer 4 (Overlay)
//Storyboard Sound Samples

[TimingPoints]
661,329.67032967033,4,2,1,60,1,0
7996,-100,4,2,1,5,0,0
8078,-100,4,2,1,60,0,0
8573,-100,4,2,1,60,0,0
11210,-100,4,2,1,50,0,0
13765,-100,4,2,1,5,0,0
13847,-100,4,2,1,50,0,0
16402,-100,4,2,1,5,0,0
16485,-100,4,2,1,50,0,0
19040,-100,4,2,1,5,0,0
19122,-100,4,2,1,50,0,0
21759,-100,4,2,1,60,0,0
24314,-100,4,2,1,5,0,0
24397,-100,4,2,1,60,0,0
26952,-100,4,2,1,5,0,0
27034,-100,4,2,1,60,0,0
29589,-100,4,2,1,5,0,0
29671,-100,4,2,1,60,0,0
32226,-100,4,2,1,5,0,0
32309,-100,4,2,1,55,0,0
41540,-100,4,2,1,60,0,0
42858,-100,4,2,1,60,0,0
45413,-100,4,2,1,5,0,0
45496,-100,4,2,1,60,0,0
48051,-100,4,2,1,5,0,0
48133,-100,4,2,1,60,0,0
54397,-100,4,2,1,65,0,0
54726,-100,4,2,1,75,0,1
55468,-100,4,2,1,5,0,1
55551,-100,4,2,1,75,0,1
57281,-100,4,2,1,5,0,1
57364,-100,4,2,1,75,0,1
62556,-100,4,2,1,5,0,1
62639,-100,4,2,1,75,0,1
67831,-100,4,2,1,5,0,1
67913,-100,4,2,1,75,0,1
73106,-100,4,2,1,5,0,1
73188,-100,4,2,1,75,0,1
75825,-100,4,2,1,60,0,0
83161,-100,4,2,1,5,0,0
83243,-100,4,2,1,60,0,0
86457,-100,4,2,1,30,0,0
91650,-100,4,2,1,5,0,0

[Colours]
Combo1 : 255,0,128
Combo2 : 45,82,151
Combo3 : 9,156,227
Combo4 : 255,174,215

[HitObjects]
449,328,661,6,0,P|399:349|348:333,1,110,6|10,3:2|0:0,0:0:0:0:
314,290,1155,2,0,L|205:282,1,110,2|2,3:2|3:2,0:0:0:0:
108,222,1814,2,0,P|91:287|102:336,2,110,2|2|2,3:2|3:2|3:2,0:0:0:0:
211,184,2803,2,0,L|265:179,1,55,2|8,3:2|0:0,0:0:0:0:
321,176,3133,1,2,0:0:0:0:
321,176,3298,6,0,P|337:124|315:75,1,110,2|10,3:2|0:0,0:0:0:0:
262,60,3792,2,0,L|152:69,1,110,2|2,3:2|3:2,0:0:0:0:
63,135,4452,2,0,P|40:87|48:30,2,110,2|2|2,3:2|3:2|3:2,0:0:0:0:
112,158,5276,2,0,L|175:164,1,55,2|2,0:0|3:2,0:0:0:0:
225,175,5606,1,8,0:0:0:0:
325,218,5935,6,0,P|341:269|319:318,1,110,6|10,3:2|0:0,0:0:0:0:
270,345,6430,2,0,L|161:337,1,110,2|2,3:2|3:2,0:0:0:0:
91,254,7089,2,0,P|59:304|57:363,2,110,2|2|2,3:2|3:2|3:2,0:0:0:0:
179,188,8078,2,0,L|256:181,1,55,2|8,3:2|0:0,0:0:0:0:
288,176,8408,1,2,0:0:0:0:
288,176,8573,6,0,P|329:140|337:87,1,110,2|10,3:2|0:0,0:0:0:0:
323,34,9067,2,0,P|374:18|428:29,1,110,2|2,3:2|3:2,0:0:0:0:
479,62,9562,1,10,0:0:0:0:
479,62,9726,2,0,P|500:110|493:173,2,110,6|2|6,3:2|3:2|3:2,0:0:0:0:
392,130,10715,2,0,L|338:134,1,55,10|10,0:0|0:0,0:0:0:0:
285,141,11045,1,10,0:3:0:0:
285,141,11210,6,0,L|175:150,1,110,6|2,3:2|3:2,0:0:0:0:
72,112,11869,2,0,P|64:174|90:224,1,110,2|2,3:2|3:2,0:0:0:0:
132,241,12364,2,0,P|187:269|214:318,1,110,2|2,0:0|0:0,0:0:0:0:
237,363,12858,1,2,3:2:0:0:
237,363,13023,2,0,P|316:359|372:279,1,165,2|0,0:0|3:0,0:0:0:0:
426,203,13847,6,0,P|409:151|366:113,1,110,2|2,3:2|3:2,0:0:0:0:
267,157,14507,2,0,P|205:169|153:148,1,110,2|2,3:2|3:2,0:0:0:0:
131,107,15002,2,0,P|71:89|17:106,1,110,2|2,0:0|0:0,0:0:0:0:
8,154,15496,1,2,3:2:0:0:
8,154,15661,2,0,P|-7:235|47:307,1,165,2|0,0:0|3:0,0:0:0:0:
127,240,16485,6,0,P|182:243|227:273,1,110,2|2,3:2|3:2,0:0:0:0:
250,381,17144,2,0,P|305:355|331:313,1,110,2|2,3:2|3:2,0:0:0:0:
367,273,17639,2,0,P|404:223|457:205,1,110,2|2,0:0|0:0,0:0:0:0:
495,177,18133,1,2,3:2:0:0:
495,177,18298,2,0,P|449:93|383:67,1,165,2|0,0:0|3:0,0:0:0:0:
284,29,19122,6,0,P|229:34|192:73,1,110,2|2,3:2|3:2,0:0:0:0:
188,130,19617,1,2,0:0:0:0:
188,130,19781,2,0,P|142:161|89:155,1,110,2|2,3:2|3:2,0:0:0:0:
61,108,20276,2,0,B|13:134|13:134|-6:206,1,110,6|2,3:2|3:2,0:0:0:0:
12,245,20770,1,10,0:0:0:0:
12,245,20935,1,4,3:2:0:0:
100,310,21265,2,0,P|126:315|153:310,1,55,8|8,0:0|0:0,0:0:0:0:
203,285,21595,1,8,0:0:0:0:
203,285,21759,1,6,3:2:0:0:
303,236,22089,6,0,P|333:234|365:246,1,55,10|2,0:0|0:0,0:0:0:0:
405,268,22419,2,0,B|414:156,1,110,2|10,3:2|0:0,0:0:0:0:
420,103,22913,2,0,P|370:65|323:62,1,110,2|2,3:2|3:2,0:0:0:0:
269,70,23408,1,10,0:0:0:0:
269,70,23573,2,0,B|184:84|184:84|98:71,1,165,2|8,3:2|0:0,0:0:0:0:
20,141,24397,5,2,3:2:0:0:
112,199,24726,2,0,P|113:229|101:261,1,55,10|0,0:0|0:0,0:0:0:0:
80,301,25056,2,0,B|191:310,1,110,2|10,3:2|0:0,0:0:0:0:
244,316,25551,2,0,P|298:287|322:245,1,110,2|2,3:2|3:2,0:0:0:0:
329,195,26046,1,10,0:0:0:0:
329,195,26210,2,0,B|337:109|337:109|372:29,1,165,2|8,3:2|0:0,0:0:0:0:
260,16,27034,5,2,3:2:0:0:
157,57,27364,2,0,P|128:66|94:64,1,55,10|2,0:0|0:0,0:0:0:0:
48,63,27694,2,0,B|35:184,1,110,2|10,3:2|0:0,0:0:0:0:
33,227,28188,2,0,P|61:281|103:305,1,110,2|2,3:2|3:2,0:0:0:0:
154,312,28683,1,10,0:0:0:0:
154,312,28847,2,0,B|239:320|239:320|319:355,1,165,2|8,3:2|0:0,0:0:0:0:
421,337,29671,1,2,3:2:0:0:
437,228,30001,6,0,P|442:198|460:169,1,55,10|2,0:0|0:0,0:0:0:0:
490,135,30331,2,0,B|378:125,1,110,2|10,3:2|0:0,0:0:0:0:
325,129,30825,2,0,P|279:100|255:51,1,110,6|2,3:2|3:2,0:0:0:0:
239,7,31320,1,10,0:0:0:0:
239,7,31485,2,0,B|153:15|153:15|73:50,1,165,8|4,0:0|0:3,0:0:0:0:
30,144,32309,6,0,L|39:253,1,110,6|2,3:2|3:2,0:0:0:0:
0,357,32968,2,0,P|53:368|113:343,1,110,8|2,0:0|3:2,0:0:0:0:
139,308,33463,2,0,P|192:296|252:321,1,110,2|10,3:2|0:0,0:0:0:0:
344,370,34122,1,2,3:2:0:0:
344,370,34287,2,0,L|453:360,1,110,8|0,0:0|3:0,0:0:0:0:
503,337,34781,1,8,0:0:0:0:
502,337,34946,6,0,P|515:274|500:227,2,110,2|2|8,3:2|3:2|0:0,0:0:0:0:
413,283,35935,1,2,3:2:0:0:
413,283,36100,2,0,P|358:283|310:256,1,110,2|10,3:2|0:0,0:0:0:0:
213,216,36759,1,2,3:2:0:0:
213,216,36924,2,0,P|252:171|306:152,1,110,8|0,0:0|3:0,0:0:0:0:
297,42,37584,6,0,L|187:51,1,110,2|2,3:2|3:2,0:0:0:0:
91,3,38243,2,0,P|79:55|103:116,1,110,8|2,0:0|3:2,0:0:0:0:
138,140,38737,2,0,P|150:194|133:245,1,110,2|10,3:2|0:0,0:0:0:0:
48,316,39397,1,2,3:2:0:0:
48,316,39562,2,0,P|87:350|163:358,1,110,8|0,0:0|3:0,0:0:0:0:
201,358,40056,1,10,0:0:0:0:
201,358,40221,2,0,L|312:367,2,110,2|2|8,3:2|3:2|0:0,0:0:0:0:
219,249,41210,1,0,3:0:0:0:
190,142,41540,6,0,L|126:136,2,55,6|2|10,3:2|3:2|0:0,0:0:0:0:
244,152,42034,2,0,P|296:167|335:213,1,110,6|6,3:2|3:2,0:0:0:0:
389,363,42858,6,0,P|337:378|284:356,1,110,6|10,3:2|0:0,0:0:0:0:
177,345,43518,2,0,L|68:337,1,110,0|10,3:0|0:0,0:0:0:0:
13,326,44012,2,0,P|-6:276|8:224,1,110,2|2,3:2|3:2,0:0:0:0:
50,187,44507,1,10,0:0:0:0:
50,187,44671,2,0,L|43:107,2,55,2|0|0,3:2|0:0|3:0,0:0:0:0:
93,221,45166,1,8,0:0:0:0:
185,160,45496,6,0,L|294:169,1,110,2|10,3:2|0:0,0:0:0:0:
387,232,46155,2,0,P|405:180|395:126,1,110,0|10,3:0|0:0,0:0:0:0:
368,78,46650,2,0,L|258:68,1,110,2|2,3:2|3:2,0:0:0:0:
207,70,47144,1,10,0:0:0:0:
207,70,47309,2,0,L|80:76,1,110,2|0,3:2|3:0,0:0:0:0:
42,81,47803,1,8,0:0:0:0:
26,190,48133,6,0,L|38:318,1,110,6|10,3:2|0:0,0:0:0:0:
41,355,48628,2,0,P|91:375|147:365,1,110,2|2,0:0|3:2,0:0:0:0:
216,282,49287,2,0,L|343:294,1,110,6|2,3:2|3:2,0:0:0:0:
384,296,49781,1,8,0:0:0:0:
384,296,49946,2,0,P|401:245|390:191,1,110,2|2,3:2|3:2,0:0:0:0:
366,140,50441,1,8,0:0:0:0:
325,37,50770,6,0,L|197:25,1,110,6|10,3:2|0:0,0:0:0:0:
160,24,51265,2,0,P|137:73|148:126,1,110,2|2,0:0|3:2,0:0:0:0:
193,166,51759,1,10,0:0:0:0:
193,166,51924,2,0,B|321:178,1,110,6|2,3:2|3:2,0:0:0:0:
354,208,52419,1,8,0:0:0:0:
354,208,52584,2,0,L|417:213,1,55,2|8,0:0|0:0,0:0:0:0:
467,223,52913,1,10,0:0:0:0:
467,223,53078,1,8,0:0:0:0:
424,324,53408,6,0,L|478:328,2,55,8|0|8,0:0|3:0|0:0,0:0:0:0:
369,320,53902,1,0,3:0:0:0:
369,320,54067,2,0,L|314:315,1,55,8|8,0:0|0:3,0:0:0:0:
259,309,54397,1,6,3:2:0:0:
157,350,54726,6,0,P|131:355|104:350,1,55,6|2,3:2|3:2,0:0:0:0:
58,327,55056,1,10,0:0:0:0:
58,327,55221,2,0,L|47:212,1,110,2|2,3:2|3:2,0:0:0:0:
47,166,55715,1,10,0:0:0:0:
47,166,55880,1,2,3:2:0:0:
56,56,56210,2,0,P|82:51|109:56,1,55,2|10,3:2|0:0,0:0:0:0:
158,82,56540,2,0,L|280:70,1,110,2|0,3:2|3:0,0:0:0:0:
322,66,57034,1,8,0:0:0:0:
430,87,57364,6,0,P|466:99|485:120,1,55,2|2,3:2|3:2,0:0:0:0:
511,154,57693,1,10,0:0:0:0:
511,154,57858,2,0,L|498:264,1,110,2|2,3:2|3:2,0:0:0:0:
492,321,58353,1,10,0:0:0:0:
492,321,58518,1,2,3:2:0:0:
386,290,58847,2,0,P|361:300|342:320,1,55,2|10,3:2|0:0,0:0:0:0:
315,370,59177,2,0,L|201:383,1,110,2|0,3:2|3:0,0:0:0:0:
150,380,59671,1,8,0:0:0:0:
52,328,60001,6,0,P|41:302|41:275,1,55,6|0,3:2|3:0,0:0:0:0:
54,225,60331,1,10,0:0:0:0:
54,225,60496,2,0,L|168:212,1,110,2|2,3:2|3:2,0:0:0:0:
226,122,61155,2,0,L|281:117,1,55,2|2,3:2|0:0,0:0:0:0:
339,114,61485,1,2,3:2:0:0:
339,114,61650,2,0,L|393:110,1,55,8|0,0:0|3:0,0:0:0:0:
446,93,61979,2,0,L|451:29,2,55,2|2|10,0:0|3:2|0:0,0:0:0:0:
435,202,62639,6,0,L|425:313,1,110,2|10,3:2|0:0,0:0:0:0:
406,363,63133,2,0,P|354:378|303:359,1,110,2|2,3:2|3:2,0:0:0:0:
263,329,63628,1,8,0:0:0:0:
263,329,63792,2,0,L|153:320,1,110,6|2,3:2|3:2,0:0:0:0:
109,296,64287,1,10,0:0:0:0:
109,296,64452,2,0,P|101:269|108:230,1,55,6|0,3:2|0:0,0:0:0:0:
105,191,64781,1,0,3:0:0:0:
105,191,64946,1,8,0:0:0:0:
139,86,65276,6,0,P|176:82|203:92,1,55,6|2,3:2|3:2,0:0:0:0:
225,131,65606,1,10,0:0:0:0:
225,131,65770,2,0,L|334:121,1,110,2|2,3:2|3:2,0:0:0:0:
386,96,66265,1,10,0:0:0:0:
386,96,66430,1,2,3:2:0:0:
483,44,66759,2,0,P|498:66|502:101,1,55,2|10,3:2|0:0,0:0:0:0:
498,148,67089,2,0,L|488:258,1,110,2|0,3:2|3:0,0:0:0:0:
480,312,67584,1,8,0:0:0:0:
383,364,67913,6,0,P|357:369|330:364,1,55,2|2,3:2|3:2,0:0:0:0:
289,334,68243,1,10,0:0:0:0:
289,334,68408,2,0,L|280:223,1,110,2|2,3:2|3:2,0:0:0:0:
280,173,68902,1,10,0:0:0:0:
280,173,69067,1,2,3:2:0:0:
259,64,69397,2,0,P|232:58|205:63,1,55,2|10,3:2|0:0,0:0:0:0:
173,107,69726,2,0,L|61:98,1,110,2|0,3:2|3:0,0:0:0:0:
11,79,70221,1,8,0:0:0:0:
14,189,70551,6,0,P|34:219|61:233,1,55,6|0,3:2|3:0,0:0:0:0:
106,248,70880,1,10,0:0:0:0:
106,248,71045,2,0,L|233:236,2,110,2|2|2,3:2|3:2|3:2,0:0:0:0:
86,299,71869,2,0,P|89:326|103:353,1,55,2|2,0:0|3:2,0:0:0:0:
160,360,72199,1,8,0:0:0:0:
264,324,72529,2,0,P|291:318|318:320,1,55,2|2,0:0|3:2,0:0:0:0:
373,318,72858,2,0,L|436:312,1,55,10|0,0:0|0:0,0:0:0:0:
470,278,73188,6,0,P|479:252|476:224,1,55,2|0,3:2|3:0,0:0:0:0:
450,182,73518,1,10,0:0:0:0:
450,182,73682,2,0,L|440:70,1,110,2|2,3:2|3:2,0:0:0:0:
431,22,74177,1,8,0:0:0:0:
431,22,74342,1,6,3:2:0:0:
323,43,74671,2,0,P|319:78|330:106,1,55,2|10,3:2|0:0,0:0:0:0:
320,152,75001,2,0,L|209:161,1,110,6|0,3:2|3:0,0:0:0:0:
155,170,75496,1,10,0:0:0:0:
55,123,75825,6,0,P|43:173|58:227,1,110,6|10,3:2|0:2,0:0:0:0:
98,266,76319,2,0,L|207:274,1,110,2|2,3:2|3:2,0:0:0:0:
308,228,76979,2,0,P|319:280|301:335,2,110,2|2|2,3:2|3:2|3:2,0:0:0:0:
211,174,77968,2,0,L|156:168,1,55,2|10,3:2|0:2,0:0:0:0:
106,160,78298,1,2,0:2:0:0:
106,160,78463,6,0,P|103:104|137:63,1,110,2|10,3:2|0:2,0:0:0:0:
191,61,78957,2,0,L|300:70,1,110,2|2,3:2|3:2,0:0:0:0:
391,132,79617,2,0,P|409:77|398:21,2,110,2|2|2,3:2|3:2|3:2,0:0:0:0:
355,174,80441,2,0,L|300:180,1,55,2|2,0:2|3:2,0:0:0:0:
249,188,80770,1,8,0:0:0:0:
165,260,81100,6,0,P|149:312|171:361,1,110,6|10,3:2|0:2,0:0:0:0:
225,368,81595,2,0,L|335:360,1,110,2|2,3:2|3:2,0:0:0:0:
413,283,82254,2,0,P|440:329|439:385,2,110,2|2|2,3:2|3:2|3:2,0:0:0:0:
321,222,83243,2,0,L|266:217,1,55,2|10,3:2|0:2,0:0:0:0:
216,209,83573,1,2,0:2:0:0:
216,209,83737,6,0,L|210:272,2,55,2|2|10,3:2|3:2|0:2,0:0:0:0:
212,153,84232,2,0,P|163:127|109:126,1,110,2|2,3:2|3:2,0:0:0:0:
59,139,84726,1,10,0:2:0:0:
59,139,84891,2,0,P|21:177|6:248,1,110,6|2,3:2|3:2,0:0:0:0:
115,234,85551,1,6,3:2:0:0:
222,256,85880,2,0,L|277:264,1,55,10|10,0:0|0:0,0:0:0:0:
335,276,86210,1,10,0:3:0:0:
335,276,86375,5,6,3:2:0:0:
256,192,86540,12,0,91650,0:0:0:0:
