osu file format v14

[General]
AudioFilename: audio.mp3
AudioLeadIn: 0
PreviewTime: 53408
Countdown: 0
SampleSet: Soft
StackLeniency: 0.7
Mode: 0
LetterboxInBreaks: 0
WidescreenStoryboard: 0

[Editor]
DistanceSpacing: 1.7
BeatDivisor: 4
GridSize: 16
TimelineZoom: 2

[Metadata]
Title:Hoshitachi no Melody
TitleUnicode:星達のメロディ
Artist:yuikonnu
ArtistUnicode:ゆいこんぬ
Creator:TryFly2
Version:Insane
Source:crossbeats REV. SUNRISE
Tags:japanese jpop j-pop video game CROSS×BEATS CAPCOM Meis Clauson Female Vocalist pop merodii vgm Shiwakaze
BeatmapID:3444965
BeatmapSetID:1685668

[Difficulty]
HPDrainRate:5
CircleSize:4
OverallDifficulty:8
ApproachRate:9
SliderMultiplier:1.5
SliderTickRate:1

[Events]
//Background and Video events
0,0,"bg.jpg",0,0
//Break Periods
//Storyboard Layer 0 (Background)
//Storyboard Layer 1 (Fail)
//Storyboard Layer 2 (Pass)
//Storyboard Layer 3 (Foreground)
//Storyboard Layer 4 (Overlay)
//Storyboard Sound Samples

[TimingPoints]
661,329.67032967033,4,2,1,60,1,0
3298,-100,4,2,1,60,0,0
7996,-100,4,2,1,5,0,0
8078,-66.6666666666667,4,2,1,60,0,0
8573,-90.9090909090909,4,2,1,60,0,0
11210,-100,4,2,1,50,0,0
13765,-100,4,2,1,5,0,0
13847,-100,4,2,1,50,0,0
16402,-100,4,2,1,5,0,0
16485,-100,4,2,1,50,0,0
19040,-100,4,2,1,5,0,0
19122,-100,4,2,1,50,0,0
20276,-90.9090909090909,4,2,1,50,0,0
21759,-95.2380952380952,4,2,1,60,0,0
24314,-95.2380952380952,4,2,1,5,0,0
24397,-95.2380952380952,4,2,1,60,0,0
26952,-95.2380952380952,4,2,1,5,0,0
27034,-95.2380952380952,4,2,1,60,0,0
29589,-95.2380952380952,4,2,1,5,0,0
29671,-95.2380952380952,4,2,1,60,0,0
32226,-95.2380952380952,4,2,1,5,0,0
32309,-117.647058823529,4,2,1,55,0,0
40221,-117.647058823529,4,2,1,55,0,0
41540,-90.9090909090909,4,2,1,60,0,0
42858,-100,4,2,1,60,0,0
45413,-100,4,2,1,5,0,0
45496,-100,4,2,1,60,0,0
48051,-100,4,2,1,5,0,0
48133,-100,4,2,1,60,0,0
50770,-100,4,2,1,60,0,0
54397,-83.3333333333333,4,2,1,65,0,0
54726,-83.3333333333333,4,2,1,75,0,1
55468,-83.3333333333333,4,2,1,5,0,1
55551,-83.3333333333333,4,2,1,75,0,1
57281,-83.3333333333333,4,2,1,5,0,1
57364,-83.3333333333333,4,2,1,75,0,1
60001,-83.3333333333333,4,2,1,75,0,1
62556,-83.3333333333333,4,2,1,5,0,1
62639,-83.3333333333333,4,2,1,75,0,1
67831,-83.3333333333333,4,2,1,5,0,1
67913,-83.3333333333333,4,2,1,75,0,1
70551,-83.3333333333333,4,2,1,75,0,1
73106,-83.3333333333333,4,2,1,5,0,1
73188,-83.3333333333333,4,2,1,75,0,1
75825,-90.9090909090909,4,2,1,60,0,0
78463,-90.9090909090909,4,2,1,60,0,0
83161,-90.9090909090909,4,2,1,5,0,0
83243,-66.6666666666667,4,2,1,60,0,0
83737,-90.9090909090909,4,2,1,60,0,0
91650,-400,4,2,1,5,0,0

[Colours]
Combo1 : 255,0,128
Combo2 : 45,82,151
Combo3 : 9,156,227
Combo4 : 255,174,215

[HitObjects]
95,213,661,6,0,P|167:191|242:192,1,150,6|10,3:2|0:0,0:0:0:0:
318,223,1155,2,0,P|321:170|309:145,1,75,2|0,3:2|0:0,0:0:0:0:
248,42,1485,2,0,P|231:92|236:119,1,75,2|8,3:2|0:0,0:0:0:0:
205,241,1814,6,0,P|137:213|104:147,1,150,2|2,3:2|3:2,0:0:0:0:
234,112,2309,1,8,0:0:0:0:
192,263,2474,2,0,P|124:234|92:168,1,150,2|2,3:2|3:2,0:0:0:0:
67,43,2968,2,0,P|26:77|17:103,1,75,8|2,0:0|0:0,0:0:0:0:
8,131,3215,1,2,0:0:0:0:
6,168,3298,6,0,P|15:240|62:304,1,150,2|10,3:2|0:0,0:0:0:0:
195,328,3792,2,0,P|232:325|263:305,1,75,2|0,3:2|0:0,0:0:0:0:
219,177,4122,2,0,P|202:209|204:247,1,75,2|8,3:2|0:0,0:0:0:0:
337,272,4452,2,0,P|317:241|284:225,1,75,2|0,3:2|0:0,0:0:0:0:
138,275,4781,1,2,3:2:0:0:
219,177,4946,1,8,0:0:0:0:
316,93,5111,5,2,3:2:0:0:
316,93,5193,1,2,0:0:0:0:
316,93,5276,1,2,0:0:0:0:
219,177,5441,1,2,3:2:0:0:
101,117,5606,1,8,0:0:0:0:
119,261,5770,5,0,3:0:0:0:
119,261,5853,1,8,0:0:0:0:
119,261,5935,2,0,P|90:338|27:356,1,150,6|10,3:2|0:0,0:0:0:0:
38,276,6430,2,0,P|32:240|46:206,1,75,2|0,3:2|0:0,0:0:0:0:
195,164,6759,2,0,P|228:180|250:210,1,75,2|8,3:2|0:0,0:0:0:0:
117,190,7089,2,0,P|114:153|131:115,1,75,2|0,3:2|0:0,0:0:0:0:
178,242,7419,2,0,P|150:263|109:270,1,75,2|8,3:2|0:0,0:0:0:0:
17,136,7748,2,0,P|33:81|86:35,1,112.5,2|0,3:2|0:0,0:0:0:0:
97,35,8078,2,0,B|134:24|134:24|167:40|167:40|211:28,1,112.500004291535,2|8,3:2|0:0,0:0:0:0:
301,157,8408,5,2,0:0:0:0:
301,157,8490,1,2,0:0:0:0:
301,157,8573,2,0,L|309:242,1,82.5000025177003,2|2,3:2|3:2,0:0:0:0:
363,341,8902,1,10,0:0:0:0:
466,273,9067,2,0,L|455:162,1,82.5000025177003,2|0,3:2|0:0,0:0:0:0:
460,49,9397,1,2,3:2:0:0:
309,51,9561,1,10,0:0:0:0:
460,49,9726,6,0,P|383:21|307:52,1,165.000005035401,6|2,3:2|3:2,0:0:0:0:
386,151,10221,1,10,0:0:0:0:
457,25,10386,2,0,P|379:-1|303:29,1,165.000005035401,6|10,3:2|0:0,0:0:0:0:
223,142,10880,1,10,0:0:0:0:
215,160,10963,1,0,0:0:0:0:
209,179,11045,1,10,0:3:0:0:
201,198,11128,1,4,0:3:0:0:
196,214,11210,5,6,3:2:0:0:
131,349,11540,2,0,P|100:325|86:291,1,75,2|2,3:2|0:0,0:0:0:0:
41,223,11869,2,0,P|74:208|111:213,1,75,2|0,3:2|0:0,0:0:0:0:
273,234,12199,1,2,3:2:0:0:
201,336,12364,6,0,P|150:353|102:330,1,75,2|0,0:0|3:0,0:0:0:0:
27,327,12693,1,2,0:0:0:0:
115,270,12858,1,2,3:2:0:0:
22,338,13023,1,2,0:0:0:0:
41,223,13188,2,0,P|67:197|108:183,1,75,0|0,3:0|0:0,0:0:0:0:
198,98,13518,2,0,P|257:100|300:147,1,112.5,0|0,3:0|0:0,0:0:0:0:
316,182,13847,5,2,3:2:0:0:
431,357,14177,2,0,P|458:332|470:297,1,75,2|2,3:2|0:0,0:0:0:0:
508,225,14507,2,0,P|473:214|437:223,1,75,2|2,3:2|0:0,0:0:0:0:
344,303,14836,1,2,3:2:0:0:
241,249,15001,6,0,P|197:245|162:263,1,75,2|0,0:0|3:0,0:0:0:0:
67,271,15331,1,2,0:0:0:0:
106,173,15496,1,2,3:2:0:0:
62,282,15661,1,2,0:0:0:0:
90,181,15825,2,0,P|52:178|12:192,1,75,0|0,3:0|0:0,0:0:0:0:
30,61,16155,2,0,P|83:38|143:37,1,112.5,0|0,3:0|0:0,0:0:0:0:
189,44,16485,5,2,3:2:0:0:
398,46,16814,2,0,P|392:82|368:111,1,75,2|2,3:2|0:0,0:0:0:0:
314,190,17144,2,0,P|287:166|273:127,1,75,2|0,3:2|0:0,0:0:0:0:
163,104,17474,1,2,3:2:0:0:
61,184,17639,6,0,P|34:116|51:43,1,150,2|2,0:0|0:0,0:0:0:0:
163,104,18133,1,2,3:2:0:0:
125,225,18298,2,0,P|98:251|58:261,1,75,2|0,0:0|3:0,0:0:0:0:
61,184,18628,1,0,0:0:0:0:
163,104,18792,2,0,B|223:104|223:104|268:131,1,112.5,0|0,3:0|0:0,0:0:0:0:
307,166,19122,5,2,3:2:0:0:
450,326,19452,1,2,3:2:0:0:
450,326,19617,1,2,0:0:0:0:
385,250,19782,1,2,3:2:0:0:
385,250,19946,1,2,0:0:0:0:
471,190,20111,1,2,3:2:0:0:
432,39,20276,6,0,P|355:11|279:42,1,165.000005035401,6|2,3:2|3:2,0:0:0:0:
358,140,20770,1,10,0:0:0:0:
429,15,20936,2,0,P|351:-11|275:19,1,165.000005035401,4|8,3:2|0:0,0:0:0:0:
201,173,21430,1,8,0:0:0:0:
188,194,21512,1,8,0:0:0:0:
175,215,21595,1,8,0:0:0:0:
162,236,21677,1,8,0:0:0:0:
149,256,21759,6,0,B|161:298|161:298|203:336,1,78.7499975967408,6|0,3:2|0:0,0:0:0:0:
337,330,22089,2,0,L|421:313,1,78.7499975967408,10|2,0:0|0:0,0:0:0:0:
377,165,22419,1,2,3:2:0:0:
448,50,22584,1,0,3:0:0:0:
300,48,22748,1,10,0:0:0:0:
448,50,22913,6,0,P|372:25|295:53,1,157.499995193482,2|2,3:2|3:2,0:0:0:0:
377,165,23407,1,10,0:0:0:0:
258,229,23573,2,0,P|249:268|259:304,1,78.7499975967408,2|0,3:2|0:0,0:0:0:0:
370,346,23902,1,0,3:2:0:0:
258,229,24067,2,0,P|195:216|143:249,1,118.124996395111,8|0,0:0|0:0,0:0:0:0:
111,279,24397,6,0,B|84:305|84:305|83:346,1,78.7499975967408,2|0,3:2|0:0,0:0:0:0:
9,235,24726,2,0,B|42:218|42:218|59:172,1,78.7499975967408,10|0,0:0|0:0,0:0:0:0:
16,50,25056,1,2,3:2:0:0:
174,71,25221,1,2,3:2:0:0:
56,178,25386,1,10,0:0:0:0:
202,142,25551,6,0,P|247:87|219:10,1,157.499995193482,2|2,3:2|3:2,0:0:0:0:
95,58,26045,1,10,0:0:0:0:
142,188,26210,2,0,P|178:214|235:207,1,78.7499975967408,2|0,3:2|0:0,0:0:0:0:
333,158,26540,1,0,3:0:0:0:
460,242,26704,2,0,P|474:297|441:344,1,118.124996395111,8|0,0:0|0:0,0:0:0:0:
392,364,27034,6,0,P|354:373|311:364,1,78.7499975967408,2|0,3:2|0:0,0:0:0:0:
180,358,27364,2,0,P|182:313|202:283,1,78.7499975967408,10|2,0:0|0:0,0:0:0:0:
250,136,27693,1,2,3:2:0:0:
200,285,27858,1,0,3:0:0:0:
87,186,28023,1,10,0:0:0:0:
7,58,28188,6,0,P|62:30|149:63,1,157.499995193482,2|2,3:2|3:2,0:0:0:0:
194,186,28682,1,10,0:0:0:0:
83,326,28847,2,0,P|55:271|88:184,1,157.499995193482,2|0,3:2|3:0,0:0:0:0:
200,86,29342,2,0,P|258:74|314:90,1,118.124996395111,8|0,0:0|0:0,0:0:0:0:
385,77,29671,6,0,P|383:113|355:151,1,78.7499975967408,2|0,3:2|0:0,0:0:0:0:
255,234,30001,2,0,P|238:196|244:156,1,78.7499975967408,10|2,0:0|0:0,0:0:0:0:
385,77,30331,1,2,3:2:0:0:
404,245,30496,1,2,3:2:0:0:
242,159,30661,1,10,0:0:0:0:
449,147,30825,6,0,B|488:170|488:170|398:249,1,157.499995193482,6|2,3:2|3:2,0:0:0:0:
272,276,31320,1,10,0:0:0:0:
171,204,31485,1,8,0:0:0:0:
171,204,31567,1,8,0:0:0:0:
171,204,31650,1,8,0:0:0:0:
237,88,31814,1,8,0:3:0:0:
222,71,31897,1,8,0:3:0:0:
202,55,31979,2,0,L|84:44,1,118.124996395111,4|0,0:3|0:0,0:0:0:0:
20,13,32309,6,0,P|13:45|22:79,1,63.7500012159348,6|0,3:2|0:0,0:0:0:0:
35,164,32639,1,2,3:2:0:0:
47,163,32803,2,0,L|110:158,2,63.7500012159348,2|8|2,0:0|0:0|0:0,0:0:0:0:
30,248,33298,1,2,3:2:0:0:
30,260,33463,6,0,P|34:294|51:320,1,63.7500012159348,2|0,3:2|0:0,0:0:0:0:
118,263,33792,2,0,L|197:256,1,63.7500012159348,10|0,0:0|0:0,0:0:0:0:
225,178,34122,1,2,3:2:0:0:
237,176,34287,2,0,L|300:170,1,63.7500012159348,8|0,0:0|0:0,0:0:0:0:
364,90,34617,1,0,3:0:0:0:
433,145,34781,5,8,0:0:0:0:
428,154,34864,1,8,0:0:0:0:
422,165,34946,2,0,P|412:197|425:240,1,63.7500012159348,2|0,3:2|0:0,0:0:0:0:
430,315,35276,1,2,3:2:0:0:
442,316,35441,2,0,L|505:321,2,63.7500012159348,2|8|2,3:2|0:0|0:0,0:0:0:0:
357,306,35935,1,2,3:2:0:0:
342,305,36100,6,0,L|278:299,1,63.7500012159348,2|0,3:2|0:0,0:0:0:0:
191,315,36430,2,0,P|192:278|205:250,1,63.7500012159348,10|2,0:0|0:0,0:0:0:0:
233,169,36759,1,2,3:2:0:0:
220,167,36924,2,0,L|156:161,1,63.7500012159348,8|0,0:0|0:0,0:0:0:0:
98,82,37254,1,0,3:0:0:0:
30,140,37419,5,2,0:0:0:0:
36,151,37501,1,2,0:0:0:0:
41,163,37584,2,0,P|44:196|31:235,1,63.7500012159348,2|0,3:2|0:0,0:0:0:0:
76,305,37913,1,2,3:2:0:0:
63,306,38078,2,0,P|31:328|16:367,2,63.7500012159348,2|8|2,0:0|0:0|0:0,0:0:0:0:
152,306,38573,1,2,3:2:0:0:
162,314,38737,6,0,L|289:302,1,127.50000243187,2|10,3:2|0:0,0:0:0:0:
378,291,39232,1,0,0:0:0:0:
390,287,39397,2,0,B|423:271|423:271|458:228,1,63.7500012159348,2|8,3:2|0:0,0:0:0:0:
478,169,39726,1,2,0:0:0:0:
473,157,39891,2,0,B|447:114|447:114|408:90,1,95.6250018239022,0|8,3:0|0:0,0:0:0:0:
374,60,40221,6,0,L|310:54,1,63.7500012159348,2|2,3:2|0:0,0:0:0:0:
229,14,40551,1,2,3:2:0:0:
141,26,40715,1,0,3:0:0:0:
128,25,40880,2,0,L|64:19,1,63.7500012159348,8|0,0:0|0:0,0:0:0:0:
11,91,41210,2,0,L|21:183,1,63.7500012159348,0|8,3:0|0:0,0:0:0:0:
66,351,41540,5,6,3:2:0:0:
237,308,41704,1,2,3:2:0:0:
104,170,41869,1,10,0:0:0:0:
237,308,42034,5,6,3:2:0:0:
15,240,42364,5,6,3:2:0:0:
311,291,42693,5,8,0:0:0:0:
322,302,42776,1,8,0:0:0:0:
334,310,42858,2,0,P|371:314|401:295,1,75,6|0,3:2|0:0,0:0:0:0:
438,193,43188,1,10,0:0:0:0:
310,111,43353,2,0,L|317:185,1,75,2|0,0:0|3:0,0:0:0:0:
415,83,43682,1,2,3:2:0:0:
263,32,43847,1,10,0:0:0:0:
123,117,44012,6,0,P|159:178|236:177,1,150,2|2,3:2|3:2,0:0:0:0:
310,111,44507,1,10,0:0:0:0:
151,29,44671,2,0,P|66:42|30:110,1,150,2|0,3:2|3:0,0:0:0:0:
39,226,45166,2,0,B|59:307|59:307|98:330,1,112.5,8|0,0:0|0:0,0:0:0:0:
107,333,45496,6,0,P|153:326|185:293,1,75,2|0,3:2|0:0,0:0:0:0:
197,191,45825,2,0,P|233:197|261:221,1,75,10|2,0:0|0:0,0:0:0:0:
287,335,46155,1,0,3:0:0:0:
374,225,46320,1,2,3:2:0:0:
256,127,46485,1,10,0:0:0:0:
391,28,46650,6,0,P|427:92|418:166,1,150,2|2,3:2|3:2,0:0:0:0:
287,124,47144,1,10,0:0:0:0:
434,165,47309,2,0,P|436:69|398:20,1,150,2|0,3:2|3:0,0:0:0:0:
253,18,47803,2,0,B|172:38|172:38|149:77,1,112.5,8|0,0:0|0:0,0:0:0:0:
140,99,48133,6,0,P|147:145|180:177,1,75,6|0,3:2|0:0,0:0:0:0:
312,272,48463,1,10,0:0:0:0:
195,277,48628,2,0,L|120:283,1,75,2|0,0:0|3:0,0:0:0:0:
246,166,48957,2,0,L|331:159,1,75,2|8,3:2|0:0,0:0:0:0:
442,64,49287,2,0,L|469:212,1,150,6|2,3:2|3:2,0:0:0:0:
362,155,49781,1,8,0:0:0:0:
489,209,49946,2,0,L|461:51,1,150,2|2,3:2|3:2,0:0:0:0:
311,34,50441,2,0,B|231:23,1,75,8|2,0:0|0:0,0:0:0:0:
213,27,50688,1,2,0:0:0:0:
189,31,50770,6,0,L|114:36,1,75,6|0,3:2|0:0,0:0:0:0:
89,165,51100,1,10,0:0:0:0:
26,5,51265,2,0,P|20:49|39:91,1,75,2|0,0:0|3:0,0:0:0:0:
223,138,51595,1,2,3:2:0:0:
89,165,51759,1,10,0:0:0:0:
223,138,51924,2,0,P|133:131|75:197,1,150,6|2,3:2|3:2,0:0:0:0:
229,24,52419,1,8,0:0:0:0:
327,128,52584,2,0,L|316:205,1,75,2|8,0:0|0:0,0:0:0:0:
260,325,52913,5,10,0:0:0:0:
228,335,52995,1,8,0:0:0:0:
195,343,53077,1,8,0:0:0:0:
161,349,53160,1,8,0:0:0:0:
128,348,53242,1,8,0:0:0:0:
95,342,53325,1,8,0:0:0:0:
62,335,53407,5,8,0:0:0:0:
50,203,53573,1,0,3:0:0:0:
165,139,53737,1,8,0:0:0:0:
50,203,53902,1,0,3:0:0:0:
192,117,54067,5,8,0:0:0:0:
209,87,54150,1,8,0:0:0:0:
209,52,54232,1,8,0:3:0:0:
196,21,54314,1,4,0:3:0:0:
160,2,54397,2,0,L|128:0,6,22.4999993133545,6|0|0|0|0|0|0,3:2|0:0|0:0|0:0|0:0|0:0|0:0,0:0:0:0:
302,47,54726,6,0,L|310:142,1,89.9999972534181,6|2,3:2|3:2,0:0:0:0:
260,288,55056,1,10,0:0:0:0:
430,201,55221,2,0,P|424:272|375:322,1,134.999995880127,2|0,3:2|0:0,0:0:0:0:
340,329,55551,1,2,3:2:0:0:
490,159,55715,1,10,0:0:0:0:
268,143,55880,6,0,B|282:65|354:89|369:0,1,179.999994506836,2|2,3:2|3:2,0:0:0:0:
430,201,56375,1,10,0:0:0:0:
315,302,56540,2,0,L|225:294,1,89.9999972534181,2|0,3:2|0:0,0:0:0:0:
94,373,56869,1,0,3:0:0:0:
175,212,57034,2,0,P|110:210|62:265,1,134.999995880127,8|0,0:0|0:0,0:0:0:0:
49,301,57364,5,2,3:2:0:0:
15,146,57529,1,2,3:2:0:0:
175,212,57693,1,10,0:0:0:0:
142,62,57858,2,0,P|189:49|234:66,1,89.9999972534181,2|0,3:2|0:0,0:0:0:0:
293,200,58188,1,2,3:2:0:0:
386,78,58353,1,10,0:0:0:0:
475,214,58518,6,0,P|498:252|493:301,1,89.9999972534181,2|0,3:2|0:0,0:0:0:0:
365,375,58847,1,2,3:2:0:0:
304,234,59012,1,10,0:0:0:0:
172,360,59177,2,0,P|91:344|58:229,1,179.999994506836,2|0,3:2|3:0,0:0:0:0:
26,110,59671,2,0,P|73:106|112:133,1,89.9999972534181,8|0,0:0|3:0,0:0:0:0:
123,170,59919,1,8,0:0:0:0:
142,210,60001,6,0,P|180:232|224:227,1,89.9999972534181,6|0,3:2|3:0,0:0:0:0:
401,198,60331,1,10,0:0:0:0:
338,61,60496,2,0,P|293:62|255:88,1,89.9999972534181,2|0,3:2|0:0,0:0:0:0:
302,228,60825,2,0,P|321:187|320:143,1,89.9999972534181,2|8,3:2|0:0,0:0:0:0:
171,63,61155,1,2,3:2:0:0:
394,118,61320,2,0,P|416:76|411:31,2,89.9999972534181,2|2|8,0:0|3:2|0:0,0:0:0:0:
119,253,61979,5,2,0:0:0:0:
256,186,62144,1,2,3:2:0:0:
194,349,62309,2,0,B|119:327|131:408|43:354,1,134.999995880127,10|0,0:0|0:0,0:0:0:0:
28,298,62639,2,0,P|19:250|30:209,1,89.9999972534181,2|0,3:2|3:0,0:0:0:0:
78,63,62968,1,10,0:0:0:0:
113,255,63133,2,0,P|137:213|141:170,1,89.9999972534181,2|0,3:2|0:0,0:0:0:0:
188,26,63463,1,2,3:2:0:0:
273,152,63628,1,8,0:0:0:0:
363,7,63792,6,0,P|435:52|451:141,1,179.999994506836,6|2,3:2|3:2,0:0:0:0:
273,152,64286,1,10,0:0:0:0:
376,0,64452,2,0,P|448:45|464:134,1,179.999994506836,6|0,3:2|3:0,0:0:0:0:
373,282,64946,1,8,0:0:0:0:
335,299,65029,1,8,0:0:0:0:
299,317,65111,1,8,0:3:0:0:
262,334,65193,1,4,0:3:0:0:
224,350,65276,6,0,P|180:344|150:312,1,89.9999972534181,6|2,3:2|3:2,0:0:0:0:
29,208,65606,1,10,0:0:0:0:
143,105,65770,2,0,P|185:118|209:155,1,89.9999972534181,2|0,3:2|0:0,0:0:0:0:
91,255,66100,1,2,3:2:0:0:
40,110,66265,1,10,0:0:0:0:
209,155,66430,6,0,P|283:116|276:23,1,179.999994506836,2|2,3:2|3:2,0:0:0:0:
143,105,66924,1,10,0:0:0:0:
254,265,67089,2,0,L|245:360,1,89.9999972534181,2|0,3:2|0:0,0:0:0:0:
350,164,67419,1,0,3:0:0:0:
209,155,67584,2,0,P|207:220|262:268,1,134.999995880127,8|0,0:0|0:0,0:0:0:0:
296,282,67913,5,2,3:2:0:0:
439,227,68078,1,2,3:2:0:0:
488,369,68243,1,10,0:0:0:0:
510,160,68408,2,0,L|420:152,1,89.9999972534181,2|0,3:2|0:0,0:0:0:0:
265,193,68737,1,2,3:2:0:0:
194,34,68902,1,10,0:0:0:0:
0,163,69067,6,0,L|90:155,1,89.9999972534181,2|0,3:2|0:0,0:0:0:0:
248,193,69397,1,2,3:2:0:0:
319,34,69562,1,10,0:0:0:0:
119,81,69726,2,0,B|89:83|62:48|62:48|101:111|84:193,1,179.999994506836,2|0,3:2|3:0,0:0:0:0:
248,193,70221,2,0,P|252:240|225:279,1,89.9999972534181,8|0,0:0|3:0,0:0:0:0:
187,286,70469,1,8,0:0:0:0:
155,260,70551,6,0,P|151:213|178:174,1,89.9999972534181,6|0,3:2|3:0,0:0:0:0:
270,75,70881,1,10,0:0:0:0:
403,181,71045,2,0,P|449:182|488:157,1,89.9999972534181,2|0,3:2|0:0,0:0:0:0:
443,13,71375,2,0,P|424:52|424:97,1,89.9999972534181,2|8,3:2|0:0,0:0:0:0:
512,239,71704,1,2,3:2:0:0:
330,123,71869,2,0,P|310:163|313:208,2,89.9999972534181,2|2|8,0:0|3:2|0:0,0:0:0:0:
122,352,72529,5,2,0:0:0:0:
253,274,72693,1,2,3:2:0:0:
206,127,72858,2,0,P|183:71|223:1,1,134.999995880127,10|0,0:0|0:0,0:0:0:0:
269,72,73188,2,0,L|359:65,1,89.9999972534181,2|0,3:2|3:0,0:0:0:0:
457,91,73518,2,0,P|460:47|442:4,2,89.9999972534181,10|2|0,0:0|3:2|0:0,0:0:0:0:
370,325,74012,1,2,3:2:0:0:
512,239,74177,1,8,0:0:0:0:
285,142,74342,6,0,P|204:184|173:270,1,179.999994506836,6|2,3:2|3:2,0:0:0:0:
297,265,74836,1,10,0:0:0:0:
150,249,75002,2,0,P|182:166|260:124,1,179.999994506836,6|2,3:2|3:0,0:0:0:0:
429,206,75496,1,10,0:0:0:0:
464,226,75578,1,8,0:0:0:0:
492,254,75661,1,10,0:3:0:0:
504,292,75743,1,4,0:3:0:0:
507,332,75825,6,0,P|430:349|358:301,1,165.000005035401,6|10,3:2|0:2,0:0:0:0:
230,221,76320,2,0,P|215:261|225:309,1,82.5000025177003,2|0,3:2|0:0,0:0:0:0:
92,359,76650,2,0,P|97:318|82:280,1,82.5000025177003,2|8,3:2|0:0,0:0:0:0:
55,142,76979,6,0,P|128:108|215:126,1,165.000005035401,2|2,3:2|3:2,0:0:0:0:
145,243,77473,1,8,0:0:0:0:
55,129,77639,2,0,P|128:95|215:113,1,165.000005035401,2|2,3:2|3:2,0:0:0:0:
302,198,78133,2,0,P|328:228|368:248,1,82.5000025177003,10|2,0:2|0:2,0:0:0:0:
406,253,78380,1,2,0:2:0:0:
445,240,78463,6,0,P|468:152|430:79,1,165.000005035401,2|10,3:2|0:2,0:0:0:0:
299,32,78957,2,0,P|260:19|221:28,1,82.5000025177003,2|0,3:2|0:0,0:0:0:0:
215,177,79287,2,0,P|244:148|256:109,1,82.5000025177003,2|8,3:2|0:0,0:0:0:0:
128,31,79617,2,0,P|137:70|163:101,1,82.5000025177003,2|0,3:2|0:0,0:0:0:0:
335,104,79946,1,2,3:2:0:0:
215,177,80111,1,8,0:0:0:0:
139,297,80276,5,2,3:2:0:0:
139,297,80358,1,2,0:2:0:0:
139,297,80441,1,2,0:2:0:0:
215,177,80606,1,2,3:2:0:0:
77,146,80771,1,8,0:0:0:0:
57,307,80935,5,2,0:2:0:0:
57,307,81018,1,8,0:0:0:0:
57,307,81100,2,0,P|104:369|204:342,1,165.000005035401,6|10,3:2|0:2,0:0:0:0:
284,221,81595,2,0,P|324:221|359:243,1,82.5000025177003,2|0,3:2|0:0,0:0:0:0:
428,382,81924,2,0,P|388:382|353:360,1,82.5000025177003,2|8,3:2|0:0,0:0:0:0:
439,230,82254,2,0,P|434:270|410:303,1,82.5000025177003,2|0,3:2|0:0,0:0:0:0:
274,368,82584,2,0,P|281:331|319:289,1,82.5000025177003,2|8,3:2|0:0,0:0:0:0:
370,153,82913,2,0,P|311:133|250:140,1,123.75000377655,2|0,3:2|0:0,0:0:0:0:
203,194,83243,2,0,P|179:136|205:85,1,112.500004291535,2|10,3:2|0:2,0:0:0:0:
386,17,83573,5,2,0:2:0:0:
386,17,83655,1,2,0:2:0:0:
386,17,83737,2,0,L|484:22,1,82.5000025177003,2|2,3:2|3:2,0:0:0:0:
370,153,84067,1,10,0:2:0:0:
464,270,84232,2,0,L|381:262,1,82.5000025177003,2|0,3:2|0:0,0:0:0:0:
203,194,84562,1,2,3:2:0:0:
370,153,84726,1,10,0:2:0:0:
250,56,84891,6,0,L|88:85,1,165.000005035401,6|2,3:2|3:2,0:0:0:0:
203,194,85386,1,10,0:0:0:0:
82,62,85551,2,0,L|245:34,1,165.000005035401,6|10,3:2|0:0,0:0:0:0:
408,16,86045,1,10,0:0:0:0:
442,38,86128,1,8,0:0:0:0:
467,71,86210,1,10,0:3:0:0:
477,110,86292,1,4,0:3:0:0:
479,152,86375,5,6,3:2:0:0:
256,192,86457,12,0,91650,0:0:0:0:
