osu file format v14

[General]
AudioFilename: audio.mp3
AudioLeadIn: 0
PreviewTime: 53408
Countdown: 0
SampleSet: Soft
StackLeniency: 0.7
Mode: 0
LetterboxInBreaks: 0
WidescreenStoryboard: 1

[Editor]
DistanceSpacing: 1.7
BeatDivisor: 4
GridSize: 16
TimelineZoom: 2

[Metadata]
Title:Hoshitachi no Melody
TitleUnicode:星達のメロディ
Artist:yuikonnu
ArtistUnicode:ゆいこんぬ
Creator:TryFly2
Version:Hard
Source:crossbeats REV. SUNRISE
Tags:japanese jpop j-pop video game CROSS×BEATS CAPCOM Meis Clauson Female Vocalist pop merodii vgm Shiwakaze
BeatmapID:3444964
BeatmapSetID:1685668

[Difficulty]
HPDrainRate:4
CircleSize:3.5
OverallDifficulty:6.5
ApproachRate:8
SliderMultiplier:1.41
SliderTickRate:1

[Events]
//Background and Video events
0,0,"bg.jpg",0,0
//Break Periods
//Storyboard Layer 0 (Background)
//Storyboard Layer 1 (Fail)
//Storyboard Layer 2 (Pass)
//Storyboard Layer 3 (Foreground)
//Storyboard Layer 4 (Overlay)
//Storyboard Sound Samples

[TimingPoints]
661,329.67032967033,4,2,1,60,1,0
7996,-100,4,2,1,5,0,0
8078,-100,4,2,1,60,0,0
8573,-95.2380952380952,4,2,1,60,0,0
11210,-100,4,2,1,50,0,0
13765,-100,4,2,1,5,0,0
13847,-100,4,2,1,50,0,0
16402,-100,4,2,1,5,0,0
16485,-100,4,2,1,50,0,0
19040,-100,4,2,1,5,0,0
19122,-100,4,2,1,50,0,0
21759,-95.2380952380952,4,2,1,60,0,0
24314,-95.2380952380952,4,2,1,5,0,0
24397,-95.2380952380952,4,2,1,60,0,0
26952,-95.2380952380952,4,2,1,5,0,0
27034,-95.2380952380952,4,2,1,60,0,0
29589,-95.2380952380952,4,2,1,5,0,0
29671,-95.2380952380952,4,2,1,60,0,0
32226,-95.2380952380952,4,2,1,5,0,0
32309,-117.647058823529,4,2,1,55,0,0
41540,-95.2380952380952,4,2,1,60,0,0
42858,-100,4,2,1,60,0,0
45413,-100,4,2,1,5,0,0
45496,-100,4,2,1,60,0,0
48051,-100,4,2,1,5,0,0
48133,-100,4,2,1,60,0,0
54397,-100,4,2,1,65,0,0
54644,-100,4,2,1,5,0,0
54726,-90.9090909090909,4,2,1,75,0,1
55468,-90.9090909090909,4,2,1,5,0,1
55551,-90.9090909090909,4,2,1,75,0,1
57364,-90.9090909090909,4,2,1,75,0,1
62556,-90.9090909090909,4,2,1,5,0,1
62639,-90.9090909090909,4,2,1,75,0,1
67913,-90.9090909090909,4,2,1,75,0,1
73106,-90.9090909090909,4,2,1,5,0,1
73188,-90.9090909090909,4,2,1,75,0,1
75825,-100,4,2,1,60,0,0
83243,-100,4,2,1,60,0,0
86457,-100,4,2,1,5,0,0
91650,-100,4,2,1,5,0,0

[Colours]
Combo1 : 255,0,128
Combo2 : 45,82,151
Combo3 : 9,156,227
Combo4 : 255,174,215

[HitObjects]
15,26,661,6,0,L|168:38,1,141,6|10,3:2|0:0,0:0:0:0:
241,69,1155,2,0,P|230:102|200:136,1,70.5,2|0,3:2|0:0,0:0:0:0:
116,137,1485,2,0,P|127:170|148:197,1,70.5,2|8,3:2|0:0,0:0:0:0:
132,290,1814,6,0,P|200:273|237:211,1,141,2|2,3:2|3:2,0:0:0:0:
293,143,2309,1,8,0:0:0:0:
384,132,2474,2,0,L|464:124,1,70.5,2|0,3:2|0:0,0:0:0:0:
508,199,2803,1,2,3:2:0:0:
417,215,2968,2,0,L|337:221,1,70.5,8|2,0:0|0:0,0:0:0:0:
321,313,3298,6,0,B|244:326|244:326|157:324,1,141,2|10,3:2|0:0,0:0:0:0:
90,297,3792,2,0,L|0:313,1,70.5,2|0,3:2|0:0,0:0:0:0:
4,218,4122,2,0,L|73:205,1,70.5,2|8,3:2|0:0,0:0:0:0:
160,238,4452,6,0,P|159:169|110:121,1,141,2|2,3:2|3:2,0:0:0:0:
76,35,4946,1,8,0:0:0:0:
184,41,5111,1,2,3:2:0:0:
184,41,5193,1,2,0:0:0:0:
184,41,5276,2,0,L|270:44,1,70.5,2|2,0:0|3:2,0:0:0:0:
337,82,5606,1,8,0:0:0:0:
397,17,5770,1,0,3:0:0:0:
397,17,5853,1,8,0:0:0:0:
397,17,5935,6,0,B|448:25|448:25|477:117,1,141,6|10,3:2|0:0,0:0:0:0:
405,207,6430,2,0,L|476:205,1,70.5,2|0,3:2|0:0,0:0:0:0:
435,292,6759,2,0,L|365:290,1,70.5,2|8,3:2|0:0,0:0:0:0:
289,349,7089,6,0,P|271:273|303:219,1,141,2|2,3:2|3:2,0:0:0:0:
354,146,7584,1,8,0:0:0:0:
283,86,7748,2,0,L|196:76,1,70.5,2|0,3:2|0:0,0:0:0:0:
126,37,8078,2,0,B|130:73|130:73|104:112,1,70.5,2|8,3:2|0:0,0:0:0:0:
17,103,8408,1,2,0:0:0:0:
17,103,8490,1,2,0:0:0:0:
17,103,8573,6,0,B|33:190|33:190|102:230,1,148.049995481873,2|10,3:2|0:0,0:0:0:0:
127,306,9067,2,0,L|53:329,2,74.0249977409364,2|0|2,3:2|0:0|3:2,0:0:0:0:
216,269,9562,1,10,0:0:0:0:
156,191,9726,6,0,P|231:172|296:216,1,148.049995481873,6|2,3:2|3:2,0:0:0:0:
359,278,10221,1,10,0:0:0:0:
423,354,10386,2,0,P|457:290|438:219,1,148.049995481873,6|10,3:2|0:0,0:0:0:0:
393,134,10880,2,0,L|411:101,3,37.0124988704682,10|0|10|4,0:0|0:0|0:3|0:3,0:0:0:0:
375,165,11210,5,6,3:2:0:0:
212,79,11540,2,0,L|132:72,1,70.5,2|2,3:2|0:0,0:0:0:0:
69,17,11869,1,2,3:2:0:0:
39,201,12199,5,2,3:2:0:0:
39,201,12364,2,0,L|32:271,1,70.5,2|0,0:0|3:0,0:0:0:0:
122,283,12693,2,0,L|129:213,2,70.5,2|2|2,0:0|3:2|0:0,0:0:0:0:
121,378,13188,2,0,P|186:350|214:280,1,141,0|0,3:0|3:0,0:0:0:0:
194,106,13847,5,2,3:2:0:0:
363,35,14177,2,0,P|401:42|439:80,1,70.5,2|2,3:2|0:0,0:0:0:0:
362,127,14507,2,0,L|266:135,2,70.5,2|2|2,3:2|0:0|3:2,0:0:0:0:
427,191,15001,6,0,P|422:226|432:259,1,70.5,2|0,0:0|3:0,0:0:0:0:
452,350,15331,2,0,P|486:338|510:312,2,70.5,2|2|2,0:0|3:2|0:0,0:0:0:0:
360,354,15825,2,0,P|305:321|271:254,1,141,0|0,3:0|3:0,0:0:0:0:
316,75,16485,5,2,3:2:0:0:
139,26,16814,2,0,P|100:20|58:32,1,70.5,2|2,3:2|0:0,0:0:0:0:
17,103,17144,1,2,3:2:0:0:
8,289,17474,5,2,3:2:0:0:
8,289,17639,2,0,P|43:292|78:284,1,70.5,2|0,0:0|3:0,0:0:0:0:
169,274,17968,2,0,P|159:241|136:213,2,70.5,2|2|2,0:0|3:2|0:0,0:0:0:0:
125,355,18463,2,0,P|197:358|251:311,1,141,0|0,3:0|3:0,0:0:0:0:
241,132,19122,5,2,3:2:0:0:
376,7,19452,1,2,3:2:0:0:
376,7,19617,1,2,0:0:0:0:
461,51,19781,1,2,3:2:0:0:
461,51,19946,2,0,P|439:82|439:126,1,70.5,2|2,0:0|3:2,0:0:0:0:
512,173,20276,6,0,P|503:239|451:290,1,141,6|2,3:2|3:2,0:0:0:0:
352,277,20770,1,10,0:0:0:0:
401,184,20935,2,0,P|335:172|270:205,1,141,4|8,3:2|0:0,0:0:0:0:
198,256,21430,1,8,0:0:0:0:
198,256,21512,1,8,0:0:0:0:
198,256,21595,1,8,0:0:0:0:
176,350,21759,6,0,L|84:366,1,74.0249977409364,6|0,3:2|0:0,0:0:0:0:
18,316,22089,2,0,P|2:276|10:240,1,74.0249977409364,10|2,0:0|0:0,0:0:0:0:
65,169,22419,2,0,L|138:159,1,74.0249977409364,2|0,3:2|3:0,0:0:0:0:
234,149,22748,1,10,0:0:0:0:
161,74,22913,6,0,P|219:44|310:80,1,148.049995481873,2|2,3:2|3:2,0:0:0:0:
331,155,23408,1,10,0:0:0:0:
401,232,23573,2,0,P|341:260|250:223,1,148.049995481873,2|0,3:2|3:2,0:0:0:0:
234,149,24067,1,8,0:0:0:0:
383,27,24397,6,0,L|478:35,1,74.0249977409364,2|0,3:2|0:0,0:0:0:0:
470,128,24726,2,0,P|450:165|454:202,1,74.0249977409364,10|0,0:0|0:0,0:0:0:0:
471,288,25056,2,0,L|398:298,1,74.0249977409364,2|2,3:2|3:2,0:0:0:0:
301,290,25386,1,10,0:0:0:0:
361,365,25551,6,0,P|297:384|216:332,1,148.049995481873,2|2,3:2|3:2,0:0:0:0:
207,256,26046,1,10,0:0:0:0:
146,180,26211,2,0,P|209:162|292:214,1,148.049995481873,2|0,3:2|3:0,0:0:0:0:
301,290,26705,1,8,0:0:0:0:
105,344,27034,6,0,P|64:348|20:328,1,74.0249977409364,2|0,3:2|0:0,0:0:0:0:
30,240,27364,2,0,P|19:205|31:158,1,74.0249977409364,10|2,0:0|0:0,0:0:0:0:
58,78,27693,2,0,L|137:72,1,74.0249977409364,2|0,3:2|3:0,0:0:0:0:
221,52,28023,1,10,0:0:0:0:
285,129,28188,6,0,P|300:202|262:263,1,148.049995481873,2|2,3:2|3:2,0:0:0:0:
187,330,28682,1,10,0:0:0:0:
128,247,28847,2,0,P|107:177|138:112,1,148.049995481873,2|0,3:2|3:0,0:0:0:0:
221,52,29342,1,8,0:0:0:0:
409,16,29671,6,0,L|494:30,1,74.0249977409364,2|0,3:2|0:0,0:0:0:0:
466,123,30001,2,0,P|469:166|491:195,1,74.0249977409364,10|2,0:0|0:0,0:0:0:0:
390,191,30331,2,0,P|357:175|317:175,1,74.0249977409364,2|2,3:2|3:2,0:0:0:0:
338,268,30661,1,10,0:0:0:0:
439,280,30825,6,0,P|439:356|376:350,1,148.049995481873,6|2,3:2|3:2,0:0:0:0:
321,274,31320,2,0,L|285:283,3,37.0124988704682,10|8|8|8,0:0|0:0|0:0|0:0,0:0:0:0:
277,328,31650,2,0,L|241:324,3,37.0124988704682,8|8|8|8,0:0|0:0|0:3|0:3,0:0:0:0:
220,353,31979,2,0,B|189:329|167:357|148:384|93:343,1,111.037496611405,4|0,0:3|0:0,0:0:0:0:
93,341,32309,6,0,L|26:332,1,59.9250011429787,6|0,3:2|0:0,0:0:0:0:
31,246,32639,1,2,3:2:0:0:
31,246,32803,2,0,L|101:244,1,59.9250011429787,2|8,0:0|0:0,0:0:0:0:
185,242,33133,1,2,0:0:0:0:
185,242,33298,1,2,3:2:0:0:
167,153,33463,6,0,B|92:153|92:153|27:129,1,119.850002285957,2|10,3:2|0:0,0:0:0:0:
49,51,33957,1,0,0:0:0:0:
49,51,34122,1,2,3:2:0:0:
136,30,34287,2,0,P|188:33|254:83,1,119.850002285957,8|0,0:0|3:0,0:0:0:0:
381,39,34946,6,0,L|460:45,1,59.9250011429787,2|0,3:2|0:0,0:0:0:0:
447,137,35276,1,2,3:2:0:0:
447,137,35441,2,0,L|377:139,1,59.9250011429787,2|8,3:2|0:0,0:0:0:0:
301,143,35770,1,2,0:0:0:0:
301,143,35935,1,2,3:2:0:0:
320,230,36100,6,0,B|395:230|395:230|460:254,1,119.850002285957,2|10,3:2|0:0,0:0:0:0:
458,338,36595,1,2,0:0:0:0:
458,338,36759,1,2,3:2:0:0:
368,335,36924,2,0,P|309:332|248:302,1,119.850002285957,8|0,0:0|3:0,0:0:0:0:
83,364,37584,6,0,L|11:357,1,59.9250011429787,2|0,3:2|0:0,0:0:0:0:
23,272,37913,1,2,3:2:0:0:
23,271,38078,2,0,L|82:265,1,59.9250011429787,2|8,0:0|0:0,0:0:0:0:
167,233,38408,1,2,0:0:0:0:
124,159,38573,1,2,3:2:0:0:
124,159,38737,6,0,L|-19:171,1,119.850002285957,2|10,3:2|0:0,0:0:0:0:
9,82,39232,1,0,0:0:0:0:
9,82,39397,2,0,B|76:77|76:77|117:40,1,119.850002285957,2|2,3:2|0:0,0:0:0:0:
296,17,40056,5,10,0:0:0:0:
296,17,40221,2,0,L|355:23,1,59.9250011429787,2|2,3:2|0:0,0:0:0:0:
449,30,40551,1,2,3:2:0:0:
449,30,40715,2,0,B|445:63|425:84,1,59.9250011429787,0|8,3:0|0:0,0:0:0:0:
486,151,41045,2,0,P|432:175|375:161,1,119.850002285957,0|8,0:0|0:0,0:0:0:0:
274,113,41540,6,0,P|242:131|221:161,2,74.0249977409364,6|2|10,3:2|3:2|0:0,0:0:0:0:
375,161,42034,1,6,3:2:0:0:
397,352,42364,1,6,3:2:0:0:
219,310,42693,5,8,0:0:0:0:
219,310,42776,1,8,0:0:0:0:
219,310,42858,2,0,P|176:326|143:362,1,70.5,6|0,3:2|0:0,0:0:0:0:
68,320,43188,1,10,0:0:0:0:
68,320,43353,2,0,P|74:273|59:231,1,70.5,2|0,0:0|3:0,0:0:0:0:
6,183,43682,1,2,3:2:0:0:
58,104,43847,1,10,0:0:0:0:
116,28,44012,6,0,P|180:13|259:70,1,141,2|2,3:2|3:2,0:0:0:0:
262,146,44507,1,10,0:0:0:0:
309,240,44672,2,0,P|244:253|165:195,1,141,2|0,3:2|3:0,0:0:0:0:
169,119,45166,1,8,0:0:0:0:
331,33,45496,6,0,L|337:107,1,70.5,2|0,3:2|0:0,0:0:0:0:
431,120,45825,1,10,0:0:0:0:
431,120,45990,2,0,L|435:191,1,70.5,2|0,0:0|3:0,0:0:0:0:
495,259,46320,1,2,3:2:0:0:
443,338,46485,1,10,0:0:0:0:
347,357,46650,6,0,P|281:354|215:278,1,141,2|2,3:2|3:2,0:0:0:0:
237,203,47145,1,10,0:0:0:0:
209,101,47310,2,0,P|274:104|336:180,1,141,2|0,3:2|3:0,0:0:0:0:
320,253,47803,1,8,0:0:0:0:
151,325,48133,6,0,P|112:332|76:321,1,70.5,6|0,3:2|0:0,0:0:0:0:
49,231,48462,1,10,0:0:0:0:
49,231,48627,2,0,L|45:160,1,70.5,2|0,0:0|3:0,0:0:0:0:
99,85,48957,1,2,3:2:0:0:
196,86,49122,1,8,0:0:0:0:
266,18,49287,6,0,P|329:35|372:123,1,141,6|2,3:2|3:2,0:0:0:0:
340,188,49782,1,8,0:0:0:0:
344,285,49947,2,0,P|283:266|245:175,1,141,2|2,3:2|3:2,0:0:0:0:
279,113,50441,1,8,0:0:0:0:
434,199,50770,6,0,P|444:234|441:273,1,70.5,6|0,3:2|0:0,0:0:0:0:
431,364,51100,1,10,0:0:0:0:
431,364,51265,2,0,L|335:372,1,70.5,2|0,0:0|3:0,0:0:0:0:
285,317,51595,1,2,3:2:0:0:
285,317,51759,1,10,0:0:0:0:
212,384,51924,6,0,B|171:335|171:335|203:258,1,141,6|2,3:2|3:2,0:0:0:0:
244,177,52419,1,8,0:0:0:0:
150,190,52584,2,0,L|79:196,2,70.5,2|8|10,0:0|0:0|0:0,0:0:0:0:
179,103,53078,2,0,L|174:55,2,35.25,8|8|8,0:0|0:0|0:0,0:0:0:0:
244,177,53408,6,0,B|278:197|278:197|314:190,1,70.5,8|0,0:0|3:0,0:0:0:0:
294,94,53737,2,0,B|324:88|324:88|358:109,1,70.5,8|0,0:0|3:0,0:0:0:0:
437,162,54067,1,8,0:0:0:0:
456,173,54150,1,8,0:0:0:0:
474,184,54232,1,8,0:3:0:0:
490,197,54314,1,4,0:3:0:0:
506,210,54397,2,0,P|500:262|431:301,1,105.75,6|0,3:2|0:0,0:0:0:0:
413,310,54726,6,0,B|302:320,1,77.5500023666383,6|2,3:2|3:2,0:0:0:0:
250,369,55056,1,10,0:0:0:0:
149,362,55221,2,0,L|57:353,1,77.5500023666383,2|0,3:2|0:0,0:0:0:0:
24,264,55551,1,2,3:2:0:0:
94,184,55715,1,10,0:0:0:0:
148,92,55881,6,0,P|198:155|191:228,1,155.100004733277,2|2,3:2|3:2,0:0:0:0:
94,184,56375,1,10,0:0:0:0:
24,264,56540,2,0,P|-11:192|10:120,1,155.100004733277,2|0,3:2|3:0,0:0:0:0:
65,39,57034,1,8,0:0:0:0:
177,21,57199,1,0,0:0:0:0:
177,21,57281,1,0,0:0:0:0:
177,21,57364,6,0,L|256:13,1,77.5500023666383,2|2,3:2|3:2,0:0:0:0:
354,17,57693,1,10,0:0:0:0:
448,51,57858,2,0,B|457:146,1,77.5500023666383,2|0,3:2|0:0,0:0:0:0:
407,217,58188,1,2,3:2:0:0:
474,290,58352,1,10,0:0:0:0:
392,358,58518,6,0,P|317:372|251:334,1,155.100004733277,2|2,3:2|3:2,0:0:0:0:
200,247,59012,1,10,0:0:0:0:
189,141,59177,2,0,P|259:162|304:232,1,155.100004733277,2|0,3:2|3:0,0:0:0:0:
200,247,59671,1,8,0:0:0:0:
101,246,59836,1,0,3:0:0:0:
101,246,59919,1,8,0:0:0:0:
101,246,60001,6,0,P|55:222|38:189,1,77.5500023666383,6|0,3:2|3:0,0:0:0:0:
38,99,60331,1,10,0:0:0:0:
100,18,60496,2,0,P|141:8|180:18,1,77.5500023666383,2|0,3:2|0:0,0:0:0:0:
215,107,60825,1,2,3:2:0:0:
305,152,60990,2,0,P|343:151|375:131,1,77.5500023666383,8|2,0:0|3:2,0:0:0:0:
426,43,61320,1,2,0:0:0:0:
492,134,61485,2,0,B|533:189|445:233|505:299,1,155.100004733277,2|0,3:2|3:0,0:0:0:0:
424,356,61979,6,0,L|346:362,1,77.5500023666383,2|2,0:0|3:2,0:0:0:0:
265,301,62309,2,0,P|209:287|154:305,1,116.325003549957,10|0,0:0|0:0,0:0:0:0:
119,341,62639,2,0,B|41:347,1,77.5500023666383,2|0,3:2|3:0,0:0:0:0:
15,252,62968,1,10,0:0:0:0:
15,252,63133,2,0,B|8:174,1,77.5500023666383,2|0,3:2|0:0,0:0:0:0:
46,80,63463,2,0,B|123:73,1,77.5500023666383,2|8,3:2|0:0,0:0:0:0:
196,0,63792,6,0,P|227:68|203:140,1,155.100004733277,6|2,3:2|3:2,0:0:0:0:
122,200,64286,1,10,0:0:0:0:
203,140,64451,2,0,P|278:141|332:194,1,155.100004733277,6|0,3:2|3:0,0:0:0:0:
368,289,64946,1,8,0:0:0:0:
472,326,65111,1,8,0:3:0:0:
472,326,65193,1,4,0:3:0:0:
472,326,65276,6,0,L|465:247,1,77.5500023666383,6|2,3:2|3:2,0:0:0:0:
460,154,65606,1,10,0:0:0:0:
433,57,65770,2,0,P|389:36|350:46,1,77.5500023666383,2|0,3:2|0:0,0:0:0:0:
273,91,66100,1,2,3:2:0:0:
190,33,66265,1,10,0:0:0:0:
88,58,66430,6,0,P|49:123|63:198,1,155.100004733277,2|2,3:2|3:2,0:0:0:0:
152,246,66924,1,10,0:0:0:0:
197,341,67089,2,0,P|248:285|249:210,1,155.100004733277,2|0,3:2|3:0,0:0:0:0:
155,163,67584,1,8,0:0:0:0:
63,198,67748,1,0,0:0:0:0:
63,198,67831,1,0,0:0:0:0:
63,198,67913,6,0,P|24:168|10:132,1,77.5500023666383,2|2,3:2|3:2,0:0:0:0:
1,42,68243,1,10,0:0:0:0:
100,23,68408,2,0,P|143:19|178:35,1,77.5500023666383,2|0,3:2|0:0,0:0:0:0:
230,104,68738,1,2,3:2:0:0:
303,181,68902,1,10,0:0:0:0:
385,249,69068,6,0,P|315:288|239:270,1,155.100004733277,2|2,3:2|3:2,0:0:0:0:
303,181,69562,1,10,0:0:0:0:
230,104,69727,2,0,P|304:75|373:105,1,155.100004733277,2|0,3:2|3:0,0:0:0:0:
450,164,70221,1,8,0:0:0:0:
488,269,70386,1,0,3:0:0:0:
488,269,70468,1,8,0:0:0:0:
488,269,70551,6,0,B|480:364,1,77.5500023666383,6|0,3:2|3:0,0:0:0:0:
384,372,70880,1,10,0:0:0:0:
301,314,71045,2,0,P|252:307|219:327,1,77.5500023666383,2|0,3:2|0:0,0:0:0:0:
138,363,71375,1,2,3:2:0:0:
46,321,71540,2,0,P|53:272|33:239,1,77.5500023666383,8|2,0:0|3:2,0:0:0:0:
82,156,71868,5,2,0:0:0:0:
2,81,72034,2,0,P|67:48|145:70,1,155.100004733277,2|0,3:2|3:0,0:0:0:0:
219,135,72529,2,0,P|251:152|289:151,1,77.5500023666383,2|2,0:0|3:2,0:0:0:0:
317,54,72858,2,0,P|382:55|429:95,1,116.325003549957,10|0,0:0|0:0,0:0:0:0:
447,129,73188,6,0,P|462:163|457:201,1,77.5500023666383,2|0,3:2|3:0,0:0:0:0:
419,296,73518,2,0,P|386:313|347:312,1,77.5500023666383,10|2,0:0|3:2,0:0:0:0:
257,274,73847,1,0,0:0:0:0:
257,274,74012,2,0,L|179:279,1,77.5500023666383,2|8,3:2|0:0,0:0:0:0:
101,351,74342,6,0,P|73:292|100:206,1,155.100004733277,6|2,3:2|3:2,0:0:0:0:
181,152,74836,1,10,0:0:0:0:
121,64,75001,2,0,P|196:46|262:85,1,155.100004733277,6|2,3:2|3:0,0:0:0:0:
281,187,75496,1,10,0:0:0:0:
291,205,75578,1,8,0:0:0:0:
303,221,75661,1,10,0:3:0:0:
313,238,75743,1,4,0:3:0:0:
325,250,75825,6,0,P|393:250|433:195,1,141,6|10,3:2|0:2,0:0:0:0:
465,109,76320,2,0,P|448:78|419:59,1,70.5,2|0,3:2|0:0,0:0:0:0:
342,7,76650,2,0,P|326:38|325:73,1,70.5,2|8,3:2|0:0,0:0:0:0:
341,167,76979,6,0,P|273:151|232:79,1,141,2|2,3:2|3:2,0:0:0:0:
195,11,77474,1,8,0:0:0:0:
104,25,77639,2,0,L|8:33,1,70.5,2|0,3:2|0:0,0:0:0:0:
0,116,77968,1,2,3:2:0:0:
91,110,78133,2,0,L|170:103,1,70.5,10|2,0:2|0:2,0:0:0:0:
258,102,78463,6,0,B|331:118|331:118|357:197,1,141,2|10,3:2|0:2,0:0:0:0:
433,233,78957,2,0,L|512:240,1,70.5,2|0,3:2|0:0,0:0:0:0:
494,332,79287,2,0,L|423:326,1,70.5,2|8,3:2|0:0,0:0:0:0:
321,336,79617,6,0,P|262:316|234:224,1,141,2|2,3:2|3:2,0:0:0:0:
251,158,80111,1,8,0:0:0:0:
173,115,80276,1,2,3:2:0:0:
173,115,80358,1,2,0:2:0:0:
173,115,80441,2,0,L|87:118,1,70.5,2|2,0:2|3:2,0:0:0:0:
10,122,80771,1,8,0:0:0:0:
19,226,80935,1,2,0:2:0:0:
19,226,81018,1,8,0:0:0:0:
19,226,81100,6,0,B|25:274|25:274|111:313,1,141,6|10,3:2|0:2,0:0:0:0:
201,318,81595,2,0,L|271:311,1,70.5,2|0,3:2|0:0,0:0:0:0:
300,224,81924,2,0,L|229:230,1,70.5,2|8,3:2|0:0,0:0:0:0:
134,219,82254,6,0,P|166:158|231:134,1,141,2|2,3:2|3:2,0:0:0:0:
322,133,82748,1,8,0:0:0:0:
372,56,82913,2,0,L|442:62,1,70.5,2|0,3:2|0:0,0:0:0:0:
474,148,83243,2,0,B|443:161|443:161|420:190,1,70.5,2|10,3:2|0:2,0:0:0:0:
467,288,83573,5,2,0:2:0:0:
467,288,83655,1,2,0:2:0:0:
467,288,83737,2,0,B|403:282|403:282|322:310,1,141,2|10,3:2|0:2,0:0:0:0:
238,315,84232,2,0,L|159:322,2,70.5,2|0|2,3:2|0:0|3:2,0:0:0:0:
272,230,84726,1,10,0:2:0:0:
366,211,84891,6,0,P|333:154|247:138,1,141,6|2,3:2|3:2,0:0:0:0:
174,184,85386,1,10,0:0:0:0:
93,236,85551,2,0,P|77:173|124:102,1,141,6|10,3:2|0:0,0:0:0:0:
191,59,86045,2,0,L|227:60,3,35.25,10|8|10|4,0:0|0:0|0:3|0:3,0:0:0:0:
150,34,86375,5,6,3:2:0:0:
256,192,86457,12,0,91650,0:0:0:0:
