osu file format v14

[General]
AudioFilename: audio.mp3
AudioLeadIn: 0
PreviewTime: 45732
Countdown: 0
SampleSet: Soft
StackLeniency: 0.6
Mode: 0
LetterboxInBreaks: 0
WidescreenStoryboard: 1

[Editor]
Bookmarks: 11216
DistanceSpacing: 1.3
BeatDivisor: 4
GridSize: 32
TimelineZoom: 1.7

[Metadata]
Title:Heart no Atoaji
TitleUnicode:ハートの後味
Artist:Yuikonnu
ArtistUnicode:ゆいこんぬ
Creator:Epicsteve2
Version:Hard
Source:
Tags:yuiko chocolate pop*
BeatmapID:1330770
BeatmapSetID:625805

[Difficulty]
HPDrainRate:3
CircleSize:3.5
OverallDifficulty:5
ApproachRate:8
SliderMultiplier:1.4
SliderTickRate:1

[Events]
//Background and Video events
0,0,"aaa.jpg",0,0
//Break Periods
2,12062,20466
//Storyboard Layer 0 (Background)
//Storyboard Layer 1 (Fail)
//Storyboard Layer 2 (Pass)
//Storyboard Layer 3 (Foreground)
//Storyboard Sound Samples

[TimingPoints]
733,322.58064516129,4,2,0,50,1,0
734,-100,4,2,1,50,0,0
1056,-100,4,3,1,50,0,0
1863,-100,4,2,1,50,0,0
2588,-100,4,2,1,5,0,0
2669,-100,4,2,1,50,0,0
5169,-100,4,2,1,5,0,0
5250,-100,4,2,1,50,0,0
12346,-153.846153846154,4,2,1,50,0,0
21216,-100,4,2,1,50,0,0
26298,-100,4,2,1,5,0,0
26379,-100,4,2,1,50,0,0
32991,-133.333333333333,4,2,1,50,0,0
39765,-153.846153846153,4,2,1,50,0,0
40572,-100,4,2,1,50,0,0
43556,-100,4,2,1,5,0,0
43637,-100,4,2,1,50,0,0
45814,-100,4,2,1,5,0,0
45894,-100,4,2,1,50,0,1
61701,-100,4,3,1,50,0,1
65249,-100,4,2,1,50,0,0
67104,-100,4,2,1,5,0,0
67185,-100,4,2,1,50,0,0
69685,-100,4,2,1,5,0,0
69766,-100,4,2,1,50,0,0
76700,-248,4,2,1,50,0,0
76863,-133.333333333333,4,2,1,5,0,0

[HitObjects]
70,323,1862,6,0,L|209:344,1,140,4|2,0:0|0:0,0:0:0:0:
298,357,2345,2,0,P|306:320|388:264,1,140,8|0,0:0|1:0,0:0:0:0:
391,359,2829,2,0,P|437:352|461:331,1,70,0|8,1:0|1:2,0:0:0:0:
468,230,3152,5,6,0:1:0:0:
286,217,3474,2,0,P|231:204|214:187,1,70,2|8,0:1|0:0,0:0:0:0:
285,130,3797,1,2,0:1:0:0:
102,243,4120,2,0,L|113:173,1,70,0|8,0:0|0:0,0:0:0:0:
136,36,4442,6,0,L|111:186,1,140
87,326,4926,1,8,0:0:0:0:
231,196,5249,2,0,L|242:126,2,70,2|2|10,1:2|1:2|1:2,0:0:0:0:
154,244,5732,6,0,P|193:280|276:274,1,140,4|2,0:0|0:0,0:0:0:0:
329,202,6216,1,12,0:0:0:0:
394,372,6539,1,12,0:0:0:0:
412,190,6862,1,12,0:0:0:0:
313,343,7184,5,2,0:1:0:0:
256,192,7345,12,0,9765,0:0:0:0:
77,127,10249,5,0,3:0:0:0:
160,116,10410,2,0,B|165:172|113:200|113:200|241:223,1,210,4|12,3:2|0:0,0:0:0:0:
396,255,11216,1,0,0:0:0:0:
441,192,11378,1,8,0:0:0:0:
469,264,11539,1,8,0:0:0:0:
330,302,11700,5,8,0:0:0:0:
330,302,11862,1,8,0:0:0:0:
365,76,21216,6,0,L|381:226,1,140,4|8,0:0|0:0,0:0:0:0:
429,292,21700,2,0,P|391:308|357:306,1,70,8|8,0:0|0:0,0:0:0:0:
294,247,22023,2,0,P|259:247|227:262,1,70,8|8,0:0|0:0,0:0:0:0:
118,147,22668,6,0,B|151:158|186:147|186:147|221:133|255:147,1,140,4|0,0:0|0:0,0:0:0:0:
225,233,23152,2,0,L|225:307,2,70,0|0|0,0:0|0:0|0:0,0:0:0:0:
254,146,23636,1,8,0:0:0:0:
338,112,23797,6,0,P|376:105|417:116,1,70,0|0,0:0|0:0,0:0:0:0:
446,193,24120,2,0,P|408:200|367:189,1,70,0|8,0:0|0:0,0:0:0:0:
303,246,24442,1,8,0:0:0:0:
303,246,24523,1,8,0:0:0:0:
303,246,24603,2,0,L|306:322,2,70,8|2|10,0:0|0:0|0:0,0:0:0:0:
260,165,25087,1,2,0:0:0:0:
169,173,25249,6,0,P|134:179|100:172,1,70,0|0,0:0|0:0,0:0:0:0:
141,91,25571,2,0,P|175:84|209:91,1,70,8|0,0:0|0:0,0:0:0:0:
260,165,25894,1,0,0:0:0:0:
305,86,26055,2,0,P|343:125|340:210,2,140,0|0|0,0:0|0:0|0:0,0:0:0:0:
213,86,26862,5,8,0:0:0:0:
158,171,27023,1,8,0:0:0:0:
158,171,27103,1,8,0:0:0:0:
158,171,27184,1,8,0:0:0:0:
196,253,27345,2,0,P|156:263|122:256,2,70,2|2|2,0:1|0:1|0:1,0:0:0:0:
252,180,27829,6,0,B|303:180|303:180|333:200|333:200|384:200,1,140,0|0,0:0|0:0,0:0:0:0:
432,118,28313,2,0,B|354:118,2,70,0|0|8,0:0|0:2|0:0,0:0:0:0:
476,203,28797,1,8,0:0:0:0:
415,270,28958,2,0,P|362:299|277:289,1,140,0|0,0:0|0:0,0:0:0:0:
208,242,29442,1,8,0:0:0:0:
165,161,29603,6,0,L|186:85,1,70,8|8,0:0|0:0,0:0:0:0:
258,41,29926,1,0,0:0:0:0:
270,130,30087,1,0,0:0:0:0:
344,77,30249,2,0,P|360:116|354:163,1,70,0|0,0:0|0:0,0:0:0:0:
301,212,30571,1,0,0:0:0:0:
226,263,30732,1,8,0:0:0:0:
44,283,31055,6,0,L|130:273,1,70,2|2,1:2|1:2,0:0:0:0:
97,184,31378,1,10,1:2:0:0:
182,214,31539,2,0,P|232:222|327:185,1,140,4|8,0:0|0:0,0:0:0:0:
330,104,32023,1,8,0:0:0:0:
330,104,32184,1,8,0:0:0:0:
403,156,32345,2,0,P|411:197|397:242,1,70,8|8,0:0|0:0,0:0:0:0:
161,121,32991,6,0,L|82:202,1,105.000004005432,0|0,1:0|1:0,0:0:0:0:
141,271,33474,1,0,0:0:0:0:
141,271,33636,2,0,L|214:195,1,105.000004005432,0|0,1:0|1:0,0:0:0:0:
316,106,34281,2,0,L|395:187,1,105.000004005432,0|0,1:0|1:0,0:0:0:0:
287,271,34926,2,0,L|213:195,1,105.000004005432,0|0,1:0|1:0,0:0:0:0:
276,109,35571,6,0,P|331:138|377:128,1,105.000004005432,0|0,1:0|1:0,0:0:0:0:
432,76,36055,2,0,P|377:47|331:57,2,105.000004005432,0|0|0,0:0|0:0|0:0,0:0:0:0:
446,154,36862,5,0,1:0:0:0:
369,267,37184,1,0,1:0:0:0:
309,143,37507,1,0,1:3:0:0:
232,256,37829,1,0,1:3:0:0:
172,132,38152,1,2,0:1:0:0:
69,115,39765,6,0,L|70:25,2,90.9999958343508,0|0|0,0:0|0:0|0:0,0:0:0:0:
34,199,40732,6,0,B|67:210|102:199|102:199|137:185|171:199,1,140,12|0,0:0|0:0,0:0:0:0:
146,287,41216,1,8,0:0:0:0:
146,287,41297,1,8,0:0:0:0:
146,287,41378,2,0,L|145:367,2,70,8|0|8,0:0|0:0|0:0,0:0:0:0:
235,270,41862,1,8,0:0:0:0:
298,204,42023,6,0,P|337:242|422:239,1,140,8|0,0:0|0:0,0:0:0:0:
378,158,42507,2,0,P|339:120|254:123,1,140,8|0,0:0|0:0,0:0:0:0:
130,252,43152,1,0,0:0:0:0:
130,252,43232,1,0,0:0:0:0:
130,252,43313,1,12,0:0:0:0:
256,192,43474,12,0,44926,0:0:0:0:
66,103,45894,6,0,P|116:125|208:106,1,140,4|8,0:0|0:0,0:0:0:0:
359,27,46539,1,0,0:0:0:0:
371,208,46862,1,8,0:0:0:0:
234,207,47184,2,0,B|268:193|303:207|303:207|338:218|371:207,2,140,0|8|0,0:0|0:0|0:0,0:0:0:0:
82,308,48152,1,8,0:0:0:0:
234,207,48474,6,0,P|245:153|197:83,1,140,4|8,0:0|0:0,0:0:0:0:
159,252,49120,2,0,P|200:287|285:278,1,140,4|8,0:0|0:0,0:0:0:0:
349,112,49765,1,4,0:0:0:0:
349,112,49926,2,0,L|270:126,1,70,0|8,0:0|0:0,0:0:0:0:
189,138,50249,1,0,3:0:0:0:
189,138,50329,1,0,3:0:0:0:
189,138,50410,2,0,P|201:170|225:195,1,70,0|0,3:0|0:0,0:0:0:0:
311,225,50732,1,4,0:0:0:0:
398,197,50894,1,0,0:0:0:0:
376,285,51055,6,0,P|313:312|250:287,1,140,4|8,0:0|0:0,0:0:0:0:
181,227,51539,1,0,0:0:0:0:
181,227,51700,2,0,P|117:201|55:229,1,140,0|8,0:0|0:0,0:0:0:0:
74,48,52345,2,0,L|220:72,1,140,0|8,0:0|0:0,0:0:0:0:
303,72,52829,1,0,0:0:0:0:
303,72,52991,2,0,L|441:49,1,140,0|8,0:0|0:0,0:0:0:0:
374,218,53636,6,0,B|346:231|346:231|314:232|314:232|276:252|238:236,1,140,4|8,0:0|0:0,0:0:0:0:
271,151,54120,1,0,0:0:0:0:
256,64,54281,2,0,P|197:98|181:165,1,140,0|8,0:0|0:0,0:0:0:0:
143,248,54765,1,0,0:0:0:0:
135,256,54845,1,0,3:0:0:0:
125,261,54926,2,0,P|101:268|89:269,7,35,0|0|0|0|0|0|0|0,3:0|3:0|3:0|3:0|3:0|3:0|3:0|3:0,0:0:0:0:
88,190,55571,2,0,P|70:192|54:197,7,35,0|0|0|0|0|0|0|0,3:0|3:0|3:0|3:0|3:0|3:0|3:0|3:0,0:0:0:0:
0,131,56216,6,0,P|52:112|136:116,1,140,8|8,3:0|0:0,0:0:0:0:
305,183,56862,1,8,0:0:0:0:
280,2,57184,1,0,0:0:0:0:
135,115,57507,2,0,P|95:171|80:239,1,140,8|0,0:0|0:0,0:0:0:0:
222,354,58152,1,8,0:0:0:0:
400,320,58474,1,0,0:0:0:0:
398,137,58797,6,0,B|379:183|379:183|290:219,1,140,12|0,0:0|0:0,0:0:0:0:
131,136,59442,2,0,B|150:90|150:90|239:54,1,140,12|0,0:0|0:0,0:0:0:0:
295,216,60087,2,0,L|284:308,1,70,12|0,0:0|0:0,0:0:0:0:
195,291,60410,1,0,0:0:0:0:
195,291,60491,1,0,0:0:0:0:
195,291,60571,2,0,L|203:221,1,70,0|4,3:0|3:2,0:0:0:0:
332,92,61055,1,8,0:0:0:0:
417,253,61378,6,0,P|371:280|281:284,1,140
217,241,61862,1,0,0:0:0:0:
170,183,62023,2,0,P|223:164|246:170,1,70
311,179,62345,2,0,P|310:144|294:113,1,70
231,50,62668,6,0,L|159:63,1,70
93,134,62991,2,0,L|165:147,1,70,0|0,0:0|0:0,0:0:0:0:
256,194,63313,2,0,L|268:270,1,70,0|0,0:0|0:0,0:0:0:0:
377,277,63636,2,0,L|366:207,1,70,0|0,0:0|0:0,0:0:0:0:
317,78,63958,6,0,P|267:96|231:92,1,70,0|0,0:0|0:0,0:0:0:0:
117,73,64281,2,0,P|82:76|50:90,1,70,0|0,0:0|0:0,0:0:0:0:
113,177,64603,1,0,0:0:0:0:
225,98,64765,1,0,0:0:0:0:
237,234,64926,1,0,0:0:0:0:
349,155,65087,1,0,0:0:0:0:
349,155,66378,6,0,L|368:300,1,140,12|0,3:0|0:0,0:0:0:0:
284,332,66862,2,0,L|265:193,1,140,8|0,0:0|1:2,0:0:0:0:
275,103,67345,2,0,P|240:103|210:119,1,70,0|0,1:2|0:0,0:0:0:0:
168,200,67668,5,6,0:1:0:0:
350,203,67991,2,0,P|400:227|412:248,1,70,2|8,0:1|0:0,0:0:0:0:
329,285,68313,1,2,0:1:0:0:
155,340,68636,1,0,0:0:0:0:
100,267,68797,1,8,0:0:0:0:
129,180,68958,6,0,P|59:185|16:236,1,140,4|0,0:0|0:0,0:0:0:0:
21,321,69442,1,8,0:0:0:0:
189,251,69765,2,0,L|206:349,2,70,0|0|8,1:2|1:2|1:2,0:0:0:0:
158,164,70249,6,0,B|194:148|232:168|232:168|264:169|264:169|292:182,1,140,4|0,0:0|0:0,0:0:0:0:
347,254,70732,1,0,0:0:0:0:
182,331,71055,1,0,0:0:0:0:
364,338,71378,1,0,0:0:0:0:
211,239,71700,1,0,0:0:0:0:
256,192,71862,12,0,74281,0:0:0:0:
163,127,74765,5,0,3:0:0:0:
232,185,74926,2,0,B|393:155|393:155|445:172,1,210,12|12,3:2|0:0,0:0:0:0:
432,323,75732,1,0,0:0:0:0:
477,260,75894,1,8,0:0:0:0:
505,332,76055,1,8,0:0:0:0:
366,370,76216,5,8,0:0:0:0:
366,370,76378,1,8,0:0:0:0:
256,335,76700,6,0,B|238:317|150:265|63:177|80:54|168:2|256:72|256:72|343:2|431:54|448:177|361:265|291:315,1,875,4|0,0:0|0:0,0:0:0:0:
