osu file format v14

[General]
AudioFilename: audio.mp3
AudioLeadIn: 0
PreviewTime: 45733
Countdown: 0
SampleSet: Soft
StackLeniency: 0.6
Mode: 0
LetterboxInBreaks: 0
WidescreenStoryboard: 1

[Editor]
DistanceSpacing: 1.1
BeatDivisor: 4
GridSize: 16
TimelineZoom: 1

[Metadata]
Title:Heart no Atoaji
TitleUnicode:ハートの後味
Artist:Yuikonnu
ArtistUnicode:ゆいこんぬ
Creator:Epicsteve2
Version:Easy
Source:
Tags:yuiko chocolate pop*
BeatmapID:1319172
BeatmapSetID:625805

[Difficulty]
HPDrainRate:3
CircleSize:3
OverallDifficulty:3
ApproachRate:5
SliderMultiplier:0.749999999999999
SliderTickRate:1

[Events]
//Background and Video events
0,0,"aaa.jpg",0,0
//Break Periods
2,11899,20017
//Storyboard Layer 0 (Background)
//Storyboard Layer 1 (Fail)
//Storyboard Layer 2 (Pass)
//Storyboard Layer 3 (Foreground)
//Storyboard Sound Samples

[TimingPoints]
733,322.58064516129,4,2,1,50,1,0
1055,-100,4,3,1,50,0,0
1862,-100,4,2,1,50,0,0
2587,-100,4,2,1,5,0,0
2668,-100,4,2,1,50,0,0
5168,-100,4,2,1,5,0,0
5249,-100,4,2,1,50,0,0
26297,-100,4,2,1,5,0,0
26378,-100,4,2,1,50,0,0
43555,-100,4,2,1,5,0,0
43636,-100,4,2,1,50,0,0
45813,-100,4,2,1,5,0,0
45894,-100,4,2,1,50,0,1
61700,-100,4,3,1,50,0,1
65249,-100,4,2,1,50,0,0
67103,-100,4,2,1,5,0,0
67184,-100,4,2,1,50,0,0
69684,-100,4,2,1,5,0,0
69765,-100,4,2,1,50,0,0
75410,-133.333333333333,4,2,1,50,0,0
76862,-133.333333333333,4,2,1,5,0,0

[HitObjects]
96,88,1862,6,0,P|128:104|216:112,1,112.5,4|8,0:0|0:0,0:0:0:0:
283,93,2668,1,0,1:0:0:0:
253,213,3152,2,0,B|292:199|292:199|326:213,2,74.9999999999999,6|2|2,0:1|0:1|0:1,0:0:0:0:
175,241,4120,1,0,0:0:0:0:
108,189,4442,6,0,P|123:161|105:82,1,112.5,0|8,0:0|0:0,0:0:0:0:
44,138,5249,1,2,1:2:0:0:
36,261,5733,2,0,B|69:285|69:285|143:294,1,112.5,4|12,0:0|0:0,0:0:0:0:
218,268,6539,1,12,0:0:0:0:
294,299,6862,1,12,0:0:0:0:
369,264,7184,5,2,0:1:0:0:
256,192,7507,12,0,9765,0:0:0:0:
320,136,10410,5,4,3:2:0:0:
217,204,10894,1,12,0:0:0:0:
134,202,11216,2,0,P|109:193|97:183,3,37.5,8|8|8|8,0:0|0:0|0:0|0:0,0:0:0:0:
245,77,21217,6,0,B|202:88|202:88|215:123|215:123|194:154|191:194|219:227,1,187.5,4|8,0:0|0:0,0:0:0:0:
282,174,22346,1,0,0:0:0:0:
289,256,22668,6,0,P|285:294|304:340,1,74.9999999999999,4|0,0:0|0:0,0:0:0:0:
365,283,23313,1,0,0:0:0:0:
393,162,23797,2,0,B|356:170|356:170|277:145,1,112.5,0|8,0:0|0:0,0:0:0:0:
209,115,24604,1,8,0:0:0:0:
127,128,24926,1,10,0:0:0:0:
73,65,25249,6,0,B|49:65|49:65|23:73|23:73|-1:73,1,74.9999999999999,0|8,0:0|0:0,0:0:0:0:
1,155,25894,1,0,0:0:0:0:
115,203,26378,2,0,P|104:238|108:277,2,74.9999999999999,0|0|8,0:0|0:0|0:0,0:0:0:0:
227,151,27507,1,2,0:1:0:0:
288,95,27830,6,0,B|314:123|307:167|307:167|342:159,1,112.5,0|0,0:0|0:0,0:0:0:0:
423,162,28636,1,8,0:0:0:0:
378,231,28959,2,0,P|362:282|299:311,2,112.5,0|8|0,0:0|0:0|0:0,0:0:0:0:
295,228,30249,6,0,P|270:190|279:112,1,112.5,0|8,0:0|0:0,0:0:0:0:
303,48,31055,1,0,0:0:0:0:
179,41,31539,1,4,0:0:0:0:
103,73,31862,2,0,L|107:121,4,37.5,8|8|8|8|8,0:0|0:0|0:0|0:0|0:0,0:0:0:0:
158,183,32991,6,0,B|199:193|232:183|232:183|268:169|305:183,1,150,0|0,1:0|1:0,0:0:0:0:
370,235,33959,1,0,1:0:0:0:
384,154,34281,2,0,P|378:120|385:66,1,74.9999999999999,0|0,1:0|1:0,0:0:0:0:
298,80,34926,2,0,P|302:42|296:5,1,74.9999999999999,0|0,1:0|1:0,0:0:0:0:
214,19,35571,6,0,P|180:32|142:36,2,74.9999999999999,0|0|0,1:0|1:0|1:0,0:0:0:0:
283,65,36539,1,0,1:0:0:0:
231,129,36862,2,0,P|205:204|238:268,1,150,0|0,1:0|1:3,0:0:0:0:
297,317,37830,1,0,1:3:0:0:
378,307,38152,5,2,0:1:0:0:
154,81,40733,6,0,B|188:108|188:108|298:101,1,150,12|8,0:0|0:0,0:0:0:0:
365,144,41701,1,8,0:0:0:0:
295,185,42023,2,0,P|279:212|281:266,2,74.9999999999999,8|0|8,0:0|0:0|0:0,0:0:0:0:
359,237,42991,1,0,0:0:0:0:
256,192,43313,12,12,44926,0:0:0:0:
446,140,45894,6,0,L|372:153,1,74.9999999999999,4|8,0:0|0:0,0:0:0:0:
323,86,46539,2,0,L|250:73,1,74.9999999999999,0|8,0:0|0:0,0:0:0:0:
170,96,47184,2,0,B|170:147|170:147|150:188|150:188|150:240,1,150,0|0,0:0|0:0,0:0:0:0:
178,318,48152,1,8,0:0:0:0:
257,294,48475,6,0,P|287:294|329:270,2,74.9999999999999,4|8|4,0:0|0:0|0:0,0:0:0:0:
267,212,49442,1,8,0:0:0:0:
249,131,49765,2,0,B|286:125|311:136|329:156|329:156|397:136,1,150,4|0,0:0|3:0,0:0:0:0:
461,179,50733,1,4,0:0:0:0:
395,227,51055,6,0,B|355:239|355:239|369:307|334:278|348:350,1,150,4|0,0:0|0:0,0:0:0:0:
265,350,52023,1,8,0:0:0:0:
183,335,52346,2,0,B|187:297|224:275|224:275|226:230|171:211,1,150
113,257,53313,1,8,0:0:0:0:
66,188,53636,6,0,P|73:142|69:105,1,74.9999999999999,4|8,0:0|0:0,0:0:0:0:
152,97,54281,2,0,L|223:128,1,74.9999999999999,0|8,0:0|0:0,0:0:0:0:
186,202,54926,2,0,B|218:214|254:202|254:202|295:182|330:202,1,150,0|0,3:0|3:0,0:0:0:0:
314,41,56217,6,0,L|298:116,1,74.9999999999999,8|8,3:0|0:0,0:0:0:0:
369,158,56862,2,0,L|385:231,1,74.9999999999999,8|0,0:0|0:0,0:0:0:0:
357,308,57507,2,0,B|333:301|316:276|316:276|213:284,1,150,8|8,0:0|0:0,0:0:0:0:
144,250,58475,1,0,0:0:0:0:
212,203,58797,6,0,L|297:196,2,74.9999999999999,12|0|12,0:0|0:0|0:0,0:0:0:0:
138,166,59765,1,0,0:0:0:0:
144,250,60088,2,0,B|167:287|211:289|211:289|233:318|233:318|273:325,1,150,12|4,0:0|3:2,0:0:0:0:
343,325,61055,1,8,0:0:0:0:
256,192,61378,12,0,65249,0:0:0:0:
163,62,66378,6,0,B|146:115|146:115|161:174,1,112.5,12|8,3:0|0:0,0:0:0:0:
200,241,67184,1,0,1:2:0:0:
301,170,67668,2,0,P|279:142|241:122,2,74.9999999999999,6|2|2,0:1|0:1|0:1,0:0:0:0:
328,244,68636,1,0,0:0:0:0:
385,184,68959,6,0,P|380:152|424:84,1,112.5,4|8,0:0|0:0,0:0:0:0:
463,157,69765,1,0,1:2:0:0:
410,268,70249,2,0,B|378:296|378:296|297:293,1,112.5,4|4,0:0|0:0,0:0:0:0:
227,273,71055,1,4,0:0:0:0:
146,256,71378,1,4,0:0:0:0:
68,284,71700,1,2,0:1:0:0:
256,192,72023,12,0,74281,0:0:0:0:
165,147,74926,5,12,3:2:0:0:
288,149,75410,2,0,B|306:140|320:128|320:128|322:171|301:197|274:222,1,140.625005364418,12|8,0:0|0:0,0:0:0:0:
256,335,76701,2,0,B|238:317|150:265|63:177|80:54|168:2|256:72|256:72|343:2|431:54|448:177|361:265|291:314,1,871.875033259392,4|0,0:0|0:0,0:0:0:0:
