osu file format v14

[General]
AudioFilename: audio 1.400x.mp3
AudioLeadIn: 0
PreviewTime: 86430
Countdown: 0
SampleSet: None
StackLeniency: 0.7
Mode: 3
LetterboxInBreaks: 0
SpecialStyle: 0
WidescreenStoryboard: 0

[Editor]
DistanceSpacing: 0.6
BeatDivisor: 4
GridSize: 4
TimelineZoom: 1.68

[Metadata]
Title:Super Nuko World
TitleUnicode:すーぱーぬこわーるど
Artist:Yuikonnu & Ayaponzu
ArtistUnicode:Yuikonnu & Ayaponzu*
Creator:ERA Basil
Version:Lunyatic 1.4x (266bpm) OD7
Source:
Tags:osutrainer
BeatmapID:4243275
BeatmapSetID:587282

[Difficulty]
HPDrainRate:7
CircleSize:4
OverallDifficulty:7
ApproachRate:5
SliderMultiplier:1.4
SliderTickRate:1

[Events]
//Background and Video events
0,0,"maxresdefault.jpg",0,0
//Break Periods
//Storyboard Layer 0 (Background)
//Storyboard Layer 1 (Fail)
//Storyboard Layer 2 (Pass)
//Storyboard Layer 3 (Foreground)
//Storyboard Layer 4 (Overlay)
//Storyboard Sound Samples

[TimingPoints]
547,225.563909774436,4,1,1,10,1,0
547,-125,4,1,1,10,0,0
885,-500,4,1,1,10,0,0
997,-111.111111111111,4,1,1,10,0,0
1110,-500,4,1,1,10,0,0
1223,-111.111111111111,4,1,1,10,0,0
1336,-500,4,1,1,10,0,0
1449,-111.111111111111,4,1,1,10,0,0
1562,-125,4,1,1,10,0,0
1787,-500,4,1,1,10,0,0
1900,-111.111111111111,4,1,1,10,0,0
2012,-500,4,1,1,10,0,0
2125,-111.111111111111,4,1,1,10,0,0
2238,-500,4,1,1,10,0,0
2295,-111.111111111111,4,1,1,10,0,0
2351,-125,4,1,1,10,0,0
2690,-500,4,1,1,10,0,0
2802,-111.111111111111,4,1,1,10,0,0
2915,-500,4,1,1,10,0,0
3027,-111.111111111111,4,1,1,10,0,0
3140,-500,4,1,1,10,0,0
3253,-111.111111111111,4,1,1,10,0,0
3366,-125,4,1,1,10,0,0
4155,-125,4,1,1,10,0,0
4381,-121.951219512195,4,1,1,10,0,0
4607,-119.047619047619,4,1,1,10,0,0
4832,-116.279069767442,4,1,1,10,0,0
5057,-113.636363636364,4,1,1,10,0,0
5283,-111.111111111111,4,1,1,10,0,0
5509,-108.695652173913,4,1,1,10,0,0
5735,-106.382978723404,4,1,1,10,0,0
5960,-104.166666666667,4,1,1,10,0,0
6016,-103.092783505155,4,1,1,10,0,0
6072,-102.040816326531,4,1,1,10,0,0
6129,-101.010101010101,4,1,1,10,0,0
6185,-100,4,1,1,10,0,0
6242,-99.009900990099,4,1,1,10,0,0
6298,-98.0392156862745,4,1,1,10,0,0
6355,-97.0873786407767,4,1,1,10,0,0
6411,-96.1538461538461,4,1,1,10,0,0
6467,-95.2380952380952,4,1,1,10,0,0
6750,-111.111111111111,4,1,1,10,0,0
6975,-105.263157894737,4,1,1,10,0,0
7313,-102.040816326531,4,1,1,10,0,0
7426,-100,4,1,1,10,0,0
7765,-100,4,1,1,10,0,0
14531,-100,4,1,1,10,0,0
14644,-100,4,1,1,10,0,0
14757,-100,4,1,1,10,0,0
14813,-100,4,1,1,10,0,0
22200,-100,4,1,2,10,0,0
22877,225.563909774436,4,1,1,10,1,0
24230,-333.333333333333,4,1,1,10,0,0
24456,-100,4,1,1,10,0,0
26035,-333.333333333333,4,1,1,10,0,0
26147,-66.6666666666667,4,1,1,10,0,0
26260,-333.333333333333,4,1,1,10,0,0
26373,-100,4,1,1,10,0,0
28516,-100,4,1,1,10,0,0
28523,-125,4,1,1,10,0,0
28572,-100,4,1,1,10,0,0
28629,-100,4,1,1,10,0,0
28636,-125,4,1,1,10,0,0
28685,-100,4,1,1,10,0,0
28742,-100,4,1,1,10,0,0
28749,-125,4,1,1,10,0,0
28798,-100,4,1,1,10,0,0
28855,-83.3333333333333,4,1,1,10,0,0
28862,-125,4,1,1,10,0,0
28911,-100,4,1,1,10,0,0
28967,-100,4,1,1,10,0,0
28975,-125,4,1,1,10,0,0
28995,-100,4,1,1,10,0,0
29024,-100,4,1,1,10,0,0
29031,-125,4,1,1,10,0,0
29052,-100,4,1,1,10,0,0
29080,-100,4,1,1,10,0,0
29087,-125,4,1,1,10,0,0
29137,-100,4,1,1,10,0,0
29870,-111.111111111111,4,1,1,10,0,0
29982,-117.647058823529,4,1,1,10,0,0
30039,-100,4,1,1,10,0,0
30095,-111.111111111111,4,1,1,10,0,0
33704,-105.263157894737,4,1,1,10,0,0
37087,-100,4,1,1,10,0,0
38667,-117.647058823529,4,1,1,10,0,0
38780,-125,4,1,1,10,0,0
38892,-117.647058823529,4,1,1,10,0,0
38949,-111.111111111111,4,1,1,10,0,0
39005,-105.263157894737,4,1,1,10,0,0
39061,-100,4,1,1,10,0,0
39117,-100,4,1,1,10,0,1
46336,-100,4,1,1,10,0,1
51862,-250,4,1,1,10,0,1
51975,-100,4,1,1,10,0,1
53422,-100,4,1,1,10,0,1
53554,-100,4,1,1,10,0,1
55358,-100,4,1,1,10,0,0
61730,-100,4,1,1,10,0,0
62407,-100,4,1,1,10,0,0
69795,-100,4,1,2,10,0,0
69811,-100,4,1,2,10,0,0
69851,-100,4,1,2,10,0,0
69867,-100,4,1,2,10,0,0
69907,-100,4,1,2,10,0,0
69924,-100,4,1,2,10,0,0
69964,-100,4,1,2,10,0,0
69980,-100,4,1,2,10,0,0
70020,-100,4,1,2,10,0,0
70037,-100,4,1,2,10,0,0
70076,-100,4,1,2,10,0,0
70092,-100,4,1,2,10,0,0
70132,-100,4,1,2,10,0,0
70149,-100,4,1,2,10,0,0
70189,-100,4,1,2,10,0,0
70205,-100,4,1,2,10,0,0
70245,-100,4,1,2,10,0,0
70471,225.563909774436,4,1,1,10,1,0
71824,-333.333333333333,4,1,1,10,0,0
72050,-100,4,1,1,10,0,0
72275,-100,4,1,1,10,0,0
73629,-62.5,4,1,1,10,0,0
73642,-500,4,1,1,10,0,0
73741,-66.6666666666667,4,1,1,10,0,0
73854,-500,4,1,2,10,0,0
73967,-100,4,1,2,10,0,0
74080,-100,4,1,1,10,0,0
76110,-66.6666666666667,4,1,1,10,0,0
76117,-200,4,1,1,10,0,0
76137,-100,4,1,1,10,0,0
76166,-66.6666666666667,4,1,1,10,0,0
76173,-200,4,1,1,10,0,0
76194,-100,4,1,1,10,0,0
76222,-66.6666666666667,4,1,1,10,0,0
76230,-200,4,1,1,10,0,0
76250,-100,4,1,1,10,0,0
76279,-66.6666666666667,4,1,1,10,0,0
76286,-200,4,1,1,10,0,0
76307,-100,4,1,1,10,0,0
76335,-66.6666666666667,4,1,1,10,0,0
76342,-200,4,1,1,10,0,0
76392,-100,4,1,1,10,0,0
76448,-66.6666666666667,4,1,1,10,0,0
76455,-200,4,1,1,10,0,0
76505,-100,4,1,1,10,0,0
76561,-100,4,1,1,10,0,0
77689,-111.111111111111,4,1,1,10,0,0
84681,-105.263157894737,4,1,1,10,0,0
84907,-100,4,1,1,10,0,0
86260,-125,4,1,1,10,0,0
86373,-100,4,1,1,10,0,0
86711,-100,4,1,1,10,0,1
101091,-100,4,1,1,10,0,1
101147,-100,4,1,1,10,0,0
102501,-125,4,1,1,10,0,0
102952,-100,4,1,1,10,0,0
103177,-100,4,1,1,10,0,0
104305,-125,4,1,1,10,0,0
104757,-100,4,1,1,10,0,0
104982,-100,4,1,1,10,0,0
106279,-100,4,1,1,10,0,0
106505,-100,4,1,1,10,0,0
119192,-100,4,1,1,10,0,0
122576,-100,4,1,1,10,0,0
124832,-100,4,1,1,10,0,0
125057,-100,4,1,1,10,0,0
125508,-100,4,1,1,10,0,1
138252,-250,4,1,1,10,0,1
138365,-100,4,1,1,10,0,1
138704,-250,4,1,1,10,0,1
138817,-100,4,1,1,10,0,1
138888,-100,4,1,1,10,0,1
139493,-133.333333333333,4,1,1,10,0,1
139606,-100,4,1,1,10,0,1
140057,-133.333333333333,4,1,1,10,0,1
140226,-100,4,1,1,10,0,1
140847,-100,4,1,1,10,0,0
147162,-125,4,1,1,10,0,0
147219,-100,4,1,1,10,0,0
147275,-125,4,1,1,10,0,0
147332,-100,4,1,1,10,0,0
147388,-125,4,1,1,10,0,0
147445,-100,4,1,1,10,0,0
147501,-125,4,1,1,10,0,0
147557,-100,4,1,1,10,0,0
147614,-125,4,1,1,10,0,0
147670,-100,4,1,1,10,0,0
147839,-125,4,1,1,10,0,0
147895,-100,4,1,1,10,0,0
155282,-100,4,1,1,10,0,0
155734,-500,4,1,1,10,0,0
155847,-62.5,4,1,1,10,0,0
155960,-125,4,1,2,10,0,0

[HitObjects]
320,192,547,5,0,0:0:0:0:
64,192,659,1,0,0:0:0:0:
192,192,715,1,0,0:0:0:0:
448,192,772,1,0,0:0:0:0:
448,192,885,1,0,0:0:0:0:
320,192,885,1,0,0:0:0:0:
192,192,1110,1,0,0:0:0:0:
320,192,1110,1,0,0:0:0:0:
192,192,1336,1,0,0:0:0:0:
64,192,1336,1,0,0:0:0:0:
320,192,1562,1,0,0:0:0:0:
448,192,1674,1,0,0:0:0:0:
320,192,1787,1,0,0:0:0:0:
64,192,1787,1,0,0:0:0:0:
320,192,2012,1,0,0:0:0:0:
64,192,2012,1,0,0:0:0:0:
320,192,2238,1,0,0:0:0:0:
64,192,2238,1,0,0:0:0:0:
448,192,2351,1,0,0:0:0:0:
64,192,2464,1,0,0:0:0:0:
192,192,2520,1,0,0:0:0:0:
320,192,2577,1,0,0:0:0:0:
64,192,2690,1,0,0:0:0:0:
448,192,2690,1,0,0:0:0:0:
192,192,2915,1,0,0:0:0:0:
320,192,2915,1,0,0:0:0:0:
192,192,3140,1,0,0:0:0:0:
64,192,3140,1,0,0:0:0:0:
320,192,3366,128,0,3592:0:0:0:0:
192,192,3366,1,0,0:0:0:0:
448,192,3479,1,0,0:0:0:0:
192,192,3592,1,0,0:0:0:0:
64,192,3592,1,0,0:0:0:0:
448,192,3817,1,0,0:0:0:0:
320,192,3873,1,0,0:0:0:0:
192,192,3930,1,0,0:0:0:0:
320,192,3986,1,0,0:0:0:0:
64,192,4042,1,0,0:0:0:0:
448,192,4155,5,0,0:0:0:0:
192,192,4155,1,0,0:0:0:0:
320,192,4155,1,0,0:0:0:0:
320,192,4268,1,0,0:0:0:0:
192,192,4381,1,0,0:0:0:0:
64,192,4381,1,0,0:0:0:0:
320,192,4494,1,0,0:0:0:0:
448,192,4607,1,0,0:0:0:0:
192,192,4607,1,0,0:0:0:0:
320,192,4720,1,0,0:0:0:0:
192,192,4832,1,0,0:0:0:0:
64,192,4832,1,0,0:0:0:0:
320,192,4945,1,0,0:0:0:0:
448,192,5057,1,0,0:0:0:0:
192,192,5057,1,0,0:0:0:0:
320,192,5170,1,0,0:0:0:0:
192,192,5283,1,0,0:0:0:0:
64,192,5283,1,0,0:0:0:0:
320,192,5396,1,0,0:0:0:0:
448,192,5509,1,0,0:0:0:0:
192,192,5509,1,0,0:0:0:0:
320,192,5622,1,0,0:0:0:0:
64,192,5735,1,0,0:0:0:0:
192,192,5735,1,0,0:0:0:0:
320,192,5847,1,0,0:0:0:0:
448,192,5960,1,0,0:0:0:0:
192,192,5960,1,0,0:0:0:0:
320,192,6072,1,0,0:0:0:0:
192,192,6185,1,0,0:0:0:0:
64,192,6185,1,0,0:0:0:0:
320,192,6298,1,0,0:0:0:0:
192,192,6355,1,0,0:0:0:0:
448,192,6411,1,0,0:0:0:0:
64,192,6411,1,0,0:0:0:0:
192,192,6467,1,0,0:0:0:0:
320,192,6524,1,0,0:0:0:0:
448,192,6580,1,0,0:0:0:0:
192,192,6637,1,0,0:0:0:0:
64,192,6637,1,0,0:0:0:0:
448,192,6750,128,0,6975:0:0:0:0:
192,192,6975,128,0,7031:0:0:0:0:
320,192,7031,128,0,7087:0:0:0:0:
448,192,7087,128,0,7144:0:0:0:0:
192,192,7144,128,0,7200:0:0:0:0:
64,192,7200,128,0,7257:0:0:0:0:
320,192,7257,128,0,7313:0:0:0:0:
192,192,7313,128,0,7370:0:0:0:0:
448,192,7313,1,0,0:0:0:0:
320,192,7370,128,0,7426:0:0:0:0:
64,192,7426,128,0,7482:0:0:0:0:
192,192,7482,128,0,7539:0:0:0:0:
448,192,7539,1,0,0:0:0:0:
64,192,7539,1,0,0:0:0:0:
320,192,7595,1,0,0:0:0:0:
192,192,7652,1,0,0:0:0:0:
64,192,7708,1,0,0:0:0:0:
448,192,7765,1,0,0:0:0:0:
320,192,7765,1,0,0:0:0:0:
192,192,7792,1,0,0:0:0:0:
448,192,7877,1,0,0:0:0:0:
64,192,7990,1,0,0:0:0:0:
320,192,7990,1,0,0:0:0:0:
192,192,8102,1,0,0:0:0:0:
448,192,8215,1,0,0:0:0:0:
320,192,8215,1,0,0:0:0:0:
448,192,8328,1,0,0:0:0:0:
320,192,8441,1,0,0:0:0:0:
64,192,8441,1,0,0:0:0:0:
192,192,8470,1,0,0:0:0:0:
448,192,8554,1,0,0:0:0:0:
64,192,8667,1,0,0:0:0:0:
192,192,8667,1,0,0:0:0:0:
448,192,8695,1,0,0:0:0:0:
192,192,8780,1,0,0:0:0:0:
448,192,8892,1,0,0:0:0:0:
64,192,8892,1,0,0:0:0:0:
320,192,9005,1,0,0:0:0:0:
192,192,9005,1,0,0:0:0:0:
320,192,9118,1,0,0:0:0:0:
192,192,9118,1,0,0:0:0:0:
64,192,9230,1,0,0:0:0:0:
320,192,9343,1,0,0:0:0:0:
192,192,9343,1,0,0:0:0:0:
448,192,9456,1,0,0:0:0:0:
64,192,9569,1,0,0:0:0:0:
192,192,9569,1,0,0:0:0:0:
320,192,9597,1,0,0:0:0:0:
64,192,9682,1,0,0:0:0:0:
448,192,9795,1,0,0:0:0:0:
192,192,9795,1,0,0:0:0:0:
320,192,9822,1,0,0:0:0:0:
448,192,9907,1,0,0:0:0:0:
64,192,10020,1,0,0:0:0:0:
192,192,10020,1,0,0:0:0:0:
448,192,10133,1,0,0:0:0:0:
192,192,10245,1,0,0:0:0:0:
64,192,10245,1,0,0:0:0:0:
448,192,10274,1,0,0:0:0:0:
192,192,10358,1,0,0:0:0:0:
448,192,10471,1,0,0:0:0:0:
320,192,10471,1,0,0:0:0:0:
64,192,10500,1,0,0:0:0:0:
192,192,10584,1,0,0:0:0:0:
320,192,10697,1,0,0:0:0:0:
64,192,10697,1,0,0:0:0:0:
192,192,10810,128,0,11373:0:0:0:0:
64,192,10810,128,0,10922:0:0:0:0:
448,192,10922,128,0,11035:0:0:0:0:
320,192,11035,128,0,11148:0:0:0:0:
64,192,11148,128,0,11261:0:0:0:0:
448,192,11261,128,0,11373:0:0:0:0:
320,192,11373,1,0,0:0:0:0:
64,192,11373,1,0,0:0:0:0:
320,192,11486,1,0,0:0:0:0:
448,192,11599,1,0,0:0:0:0:
192,192,11599,1,0,0:0:0:0:
320,192,11712,1,0,0:0:0:0:
192,192,11825,1,0,0:0:0:0:
64,192,11825,1,0,0:0:0:0:
320,192,11852,1,0,0:0:0:0:
64,192,11937,1,0,0:0:0:0:
448,192,12050,1,0,0:0:0:0:
320,192,12050,1,0,0:0:0:0:
192,192,12078,1,0,0:0:0:0:
320,192,12163,1,0,0:0:0:0:
192,192,12276,1,0,0:0:0:0:
64,192,12276,1,0,0:0:0:0:
320,192,12304,1,0,0:0:0:0:
192,192,12388,1,0,0:0:0:0:
448,192,12501,1,0,0:0:0:0:
64,192,12501,1,0,0:0:0:0:
320,192,12614,1,0,0:0:0:0:
192,192,12614,1,0,0:0:0:0:
448,192,12727,1,0,0:0:0:0:
320,192,12727,1,0,0:0:0:0:
192,192,12840,1,0,0:0:0:0:
192,192,12952,1,0,0:0:0:0:
64,192,12952,1,0,0:0:0:0:
320,192,13065,1,0,0:0:0:0:
64,192,13178,1,0,0:0:0:0:
448,192,13178,1,0,0:0:0:0:
192,192,13206,1,0,0:0:0:0:
64,192,13291,1,0,0:0:0:0:
320,192,13404,1,0,0:0:0:0:
64,192,13404,1,0,0:0:0:0:
448,192,13432,1,0,0:0:0:0:
192,192,13516,1,0,0:0:0:0:
448,192,13629,1,0,0:0:0:0:
320,192,13629,1,0,0:0:0:0:
64,192,13742,1,0,0:0:0:0:
192,192,13855,1,0,0:0:0:0:
448,192,13855,1,0,0:0:0:0:
320,192,13883,1,0,0:0:0:0:
448,192,13967,1,0,0:0:0:0:
64,192,14080,1,0,0:0:0:0:
192,192,14080,1,0,0:0:0:0:
320,192,14108,1,0,0:0:0:0:
448,192,14137,1,0,0:0:0:0:
64,192,14193,1,0,0:0:0:0:
192,192,14306,1,0,0:0:0:0:
320,192,14306,1,0,0:0:0:0:
64,192,14419,128,0,14531:0:0:0:0:
320,192,14531,128,0,14644:0:0:0:0:
320,192,14757,128,0,14870:0:0:0:0:
448,192,14757,1,0,0:0:0:0:
64,192,14982,1,0,0:0:0:0:
192,192,14982,1,0,0:0:0:0:
320,192,14982,1,0,0:0:0:0:
448,192,15011,1,0,0:0:0:0:
192,192,15095,1,0,0:0:0:0:
320,192,15208,1,0,0:0:0:0:
64,192,15208,1,0,0:0:0:0:
448,192,15321,1,0,0:0:0:0:
320,192,15434,1,0,0:0:0:0:
192,192,15434,1,0,0:0:0:0:
64,192,15462,1,0,0:0:0:0:
448,192,15547,1,0,0:0:0:0:
64,192,15659,1,0,0:0:0:0:
320,192,15659,1,0,0:0:0:0:
192,192,15687,1,0,0:0:0:0:
64,192,15772,1,0,0:0:0:0:
448,192,15885,1,0,0:0:0:0:
192,192,15885,1,0,0:0:0:0:
320,192,15913,1,0,0:0:0:0:
448,192,15997,1,0,0:0:0:0:
64,192,16110,1,0,0:0:0:0:
192,192,16110,1,0,0:0:0:0:
448,192,16223,1,0,0:0:0:0:
320,192,16223,1,0,0:0:0:0:
448,192,16336,1,0,0:0:0:0:
320,192,16336,1,0,0:0:0:0:
192,192,16449,1,0,0:0:0:0:
64,192,16562,1,0,0:0:0:0:
320,192,16562,1,0,0:0:0:0:
448,192,16674,1,0,0:0:0:0:
64,192,16787,1,0,0:0:0:0:
192,192,16787,1,0,0:0:0:0:
448,192,16815,1,0,0:0:0:0:
192,192,16900,1,0,0:0:0:0:
448,192,17012,1,0,0:0:0:0:
320,192,17012,1,0,0:0:0:0:
64,192,17041,1,0,0:0:0:0:
320,192,17125,1,0,0:0:0:0:
448,192,17238,1,0,0:0:0:0:
192,192,17238,1,0,0:0:0:0:
320,192,17351,1,0,0:0:0:0:
64,192,17464,1,0,0:0:0:0:
448,192,17464,1,0,0:0:0:0:
192,192,17492,1,0,0:0:0:0:
320,192,17520,1,0,0:0:0:0:
192,192,17577,1,0,0:0:0:0:
448,192,17690,1,0,0:0:0:0:
64,192,17690,1,0,0:0:0:0:
192,192,17717,1,0,0:0:0:0:
320,192,17745,1,0,0:0:0:0:
192,192,17802,1,0,0:0:0:0:
448,192,17915,1,0,0:0:0:0:
320,192,17915,1,0,0:0:0:0:
64,192,17943,1,0,0:0:0:0:
192,192,18027,128,0,18592:0:0:0:0:
448,192,18140,128,0,18253:0:0:0:0:
320,192,18253,128,0,18366:0:0:0:0:
64,192,18366,128,0,18479:0:0:0:0:
448,192,18479,128,0,18592:0:0:0:0:
320,192,18592,1,0,0:0:0:0:
64,192,18592,1,0,0:0:0:0:
192,192,18705,1,0,0:0:0:0:
320,192,18817,1,0,0:0:0:0:
448,192,18817,1,0,0:0:0:0:
192,192,18930,1,0,0:0:0:0:
320,192,19042,1,0,0:0:0:0:
64,192,19042,1,0,0:0:0:0:
448,192,19071,1,0,0:0:0:0:
192,192,19155,1,0,0:0:0:0:
448,192,19268,1,0,0:0:0:0:
320,192,19268,1,0,0:0:0:0:
192,192,19297,1,0,0:0:0:0:
320,192,19381,1,0,0:0:0:0:
64,192,19494,1,0,0:0:0:0:
192,192,19494,1,0,0:0:0:0:
448,192,19522,1,0,0:0:0:0:
320,192,19607,1,0,0:0:0:0:
448,192,19720,1,0,0:0:0:0:
64,192,19720,1,0,0:0:0:0:
320,192,19832,1,0,0:0:0:0:
192,192,19832,1,0,0:0:0:0:
64,192,19945,1,0,0:0:0:0:
320,192,19945,1,0,0:0:0:0:
448,192,20057,1,0,0:0:0:0:
192,192,20170,1,0,0:0:0:0:
64,192,20170,1,0,0:0:0:0:
320,192,20283,1,0,0:0:0:0:
64,192,20396,1,0,0:0:0:0:
448,192,20396,1,0,0:0:0:0:
320,192,20424,1,0,0:0:0:0:
192,192,20452,1,0,0:0:0:0:
448,192,20509,1,0,0:0:0:0:
448,192,20622,1,0,0:0:0:0:
64,192,20622,1,0,0:0:0:0:
192,192,20650,1,0,0:0:0:0:
320,192,20678,1,0,0:0:0:0:
64,192,20735,1,0,0:0:0:0:
448,192,20847,1,0,0:0:0:0:
320,192,20847,1,0,0:0:0:0:
192,192,20960,1,0,0:0:0:0:
320,192,21072,1,0,0:0:0:0:
64,192,21072,1,0,0:0:0:0:
192,192,21101,1,0,0:0:0:0:
320,192,21185,1,0,0:0:0:0:
448,192,21298,1,0,0:0:0:0:
192,192,21298,1,0,0:0:0:0:
320,192,21327,1,0,0:0:0:0:
64,192,21355,1,0,0:0:0:0:
192,192,21411,1,0,0:0:0:0:
448,192,21524,1,0,0:0:0:0:
320,192,21524,1,0,0:0:0:0:
64,192,21637,128,0,21750:0:0:0:0:
192,192,21750,128,0,21862:0:0:0:0:
448,192,21750,1,0,0:0:0:0:
320,192,21806,1,0,0:0:0:0:
64,192,21862,1,0,0:0:0:0:
192,192,21975,128,0,22087:0:0:0:0:
448,192,21975,1,0,0:0:0:0:
320,192,22031,1,0,0:0:0:0:
64,192,22087,1,0,0:0:0:0:
448,192,22200,128,0,22426:0:0:0:0:
192,192,22257,128,0,22482:0:0:0:0:
320,192,22313,128,0,22370:0:0:0:0:
64,192,22370,128,0,22595:0:0:0:0:
320,192,22426,128,0,22539:0:0:0:0:
448,192,22482,128,0,22652:0:0:0:0:
192,192,22539,128,0,22652:0:0:0:0:
320,192,22595,128,0,22652:0:0:0:0:
64,192,22652,1,0,0:0:0:0:
64,192,22877,1,0,0:0:0:0:
192,192,22877,1,0,0:0:0:0:
320,192,22877,1,0,0:0:0:0:
448,192,22990,1,0,0:0:0:0:
64,192,22990,1,0,0:0:0:0:
192,192,23046,1,0,0:0:0:0:
320,192,23046,1,0,0:0:0:0:
448,192,23102,1,0,0:0:0:0:
64,192,23102,1,0,0:0:0:0:
448,192,23215,1,0,0:0:0:0:
320,192,23215,1,0,0:0:0:0:
64,192,23328,1,0,0:0:0:0:
192,192,23328,1,0,0:0:0:0:
448,192,23441,1,0,0:0:0:0:
192,192,23441,1,0,0:0:0:0:
64,192,23497,1,0,0:0:0:0:
320,192,23497,1,0,0:0:0:0:
192,192,23554,1,0,0:0:0:0:
448,192,23554,1,0,0:0:0:0:
64,192,23667,1,0,0:0:0:0:
448,192,23667,1,0,0:0:0:0:
448,192,23780,1,0,0:0:0:0:
64,192,23780,1,0,0:0:0:0:
64,192,23892,1,0,0:0:0:0:
192,192,23892,1,0,0:0:0:0:
448,192,23949,1,0,0:0:0:0:
320,192,23949,1,0,0:0:0:0:
192,192,24005,1,0,0:0:0:0:
64,192,24005,1,0,0:0:0:0:
448,192,24117,1,0,0:0:0:0:
192,192,24117,1,0,0:0:0:0:
64,192,24230,1,0,0:0:0:0:
320,192,24230,1,0,0:0:0:0:
320,192,24682,1,0,0:0:0:0:
448,192,24682,1,0,0:0:0:0:
192,192,24682,1,0,0:0:0:0:
64,192,24795,1,0,0:0:0:0:
320,192,24795,1,0,0:0:0:0:
448,192,24851,1,0,0:0:0:0:
192,192,24851,1,0,0:0:0:0:
320,192,24907,1,0,0:0:0:0:
64,192,24907,1,0,0:0:0:0:
448,192,25020,1,0,0:0:0:0:
64,192,25020,1,0,0:0:0:0:
320,192,25076,1,0,0:0:0:0:
192,192,25076,1,0,0:0:0:0:
448,192,25132,1,0,0:0:0:0:
64,192,25132,1,0,0:0:0:0:
448,192,25245,1,0,0:0:0:0:
192,192,25245,1,0,0:0:0:0:
320,192,25302,1,0,0:0:0:0:
64,192,25302,1,0,0:0:0:0:
448,192,25358,1,0,0:0:0:0:
192,192,25358,1,0,0:0:0:0:
448,192,25471,1,0,0:0:0:0:
320,192,25471,1,0,0:0:0:0:
64,192,25527,1,0,0:0:0:0:
192,192,25527,1,0,0:0:0:0:
448,192,25584,1,0,0:0:0:0:
320,192,25584,1,0,0:0:0:0:
192,192,25640,1,0,0:0:0:0:
64,192,25697,1,0,0:0:0:0:
448,192,25753,1,0,0:0:0:0:
320,192,25810,1,0,0:0:0:0:
192,192,25810,1,0,0:0:0:0:
64,192,25866,1,0,0:0:0:0:
448,192,25922,1,0,0:0:0:0:
320,192,25979,1,0,0:0:0:0:
192,192,26035,1,0,0:0:0:0:
64,192,26035,1,0,0:0:0:0:
448,192,26260,1,0,0:0:0:0:
192,192,26486,1,0,0:0:0:0:
64,192,26486,1,0,0:0:0:0:
320,192,26599,1,0,0:0:0:0:
448,192,26712,1,0,0:0:0:0:
192,192,26712,1,0,0:0:0:0:
320,192,26825,1,0,0:0:0:0:
64,192,26937,1,0,0:0:0:0:
448,192,27050,1,0,0:0:0:0:
320,192,27163,1,0,0:0:0:0:
64,192,27163,1,0,0:0:0:0:
192,192,27275,1,0,0:0:0:0:
64,192,27388,1,0,0:0:0:0:
192,192,27501,1,0,0:0:0:0:
448,192,27614,1,0,0:0:0:0:
320,192,27614,1,0,0:0:0:0:
64,192,27727,1,0,0:0:0:0:
192,192,27840,1,0,0:0:0:0:
448,192,27952,1,0,0:0:0:0:
64,192,28065,1,0,0:0:0:0:
192,192,28065,1,0,0:0:0:0:
320,192,28178,1,0,0:0:0:0:
448,192,28290,1,0,0:0:0:0:
64,192,28290,1,0,0:0:0:0:
192,192,28403,1,0,0:0:0:0:
320,192,28516,1,0,0:0:0:0:
320,192,28629,1,0,0:0:0:0:
192,192,28742,1,0,0:0:0:0:
192,192,28855,1,0,0:0:0:0:
64,192,28967,1,0,0:0:0:0:
64,192,29024,1,0,0:0:0:0:
64,192,29080,1,0,0:0:0:0:
448,192,29193,1,0,0:0:0:0:
320,192,29193,1,0,0:0:0:0:
320,192,29306,1,0,0:0:0:0:
192,192,29306,1,0,0:0:0:0:
192,192,29418,1,0,0:0:0:0:
64,192,29418,1,0,0:0:0:0:
448,192,29531,1,0,0:0:0:0:
320,192,29531,1,0,0:0:0:0:
64,192,29644,1,0,0:0:0:0:
192,192,29644,1,0,0:0:0:0:
448,192,29870,128,0,29982:0:0:0:0:
192,192,29870,128,0,29982:0:0:0:0:
320,192,30095,128,0,30433:0:0:0:0:
64,192,30321,1,0,0:0:0:0:
192,192,30433,128,0,30546:0:0:0:0:
320,192,30546,128,0,30885:0:0:0:0:
64,192,30772,1,0,0:0:0:0:
192,192,30885,128,0,30997:0:0:0:0:
448,192,30997,128,0,31223:0:0:0:0:
320,192,31223,128,0,31449:0:0:0:0:
192,192,31449,128,0,31674:0:0:0:0:
64,192,31505,1,0,0:0:0:0:
448,192,31561,1,0,0:0:0:0:
64,192,31674,128,0,31900:0:0:0:0:
320,192,31730,1,0,0:0:0:0:
448,192,31787,1,0,0:0:0:0:
192,192,31900,128,0,32125:0:0:0:0:
320,192,32125,128,0,32351:0:0:0:0:
64,192,32351,128,0,32576:0:0:0:0:
448,192,32576,128,0,32802:0:0:0:0:
320,192,32689,1,0,0:0:0:0:
192,192,32689,1,0,0:0:0:0:
64,192,32802,128,0,33253:0:0:0:0:
192,192,33027,1,0,0:0:0:0:
320,192,33140,5,0,0:0:0:0:
448,192,33140,1,0,0:0:0:0:
448,192,33366,1,0,0:0:0:0:
320,192,33366,1,0,0:0:0:0:
64,192,33479,1,0,0:0:0:0:
448,192,33592,1,0,0:0:0:0:
320,192,33592,1,0,0:0:0:0:
192,192,33704,128,0,34042:0:0:0:0:
320,192,33760,1,0,0:0:0:0:
448,192,33817,1,0,0:0:0:0:
64,192,34042,128,0,34155:0:0:0:0:
448,192,34042,1,0,0:0:0:0:
192,192,34155,128,0,34494:0:0:0:0:
320,192,34212,1,0,0:0:0:0:
448,192,34268,1,0,0:0:0:0:
64,192,34494,128,0,34607:0:0:0:0:
448,192,34494,1,0,0:0:0:0:
320,192,34607,128,0,34832:0:0:0:0:
192,192,34663,1,0,0:0:0:0:
448,192,34719,1,0,0:0:0:0:
192,192,34832,128,0,35057:0:0:0:0:
64,192,34888,1,0,0:0:0:0:
320,192,34945,1,0,0:0:0:0:
448,192,35001,1,0,0:0:0:0:
64,192,35057,128,0,35283:0:0:0:0:
448,192,35170,1,0,0:0:0:0:
320,192,35170,1,0,0:0:0:0:
192,192,35283,128,0,35509:0:0:0:0:
320,192,35396,1,0,0:0:0:0:
448,192,35509,128,0,35735:0:0:0:0:
320,192,35622,1,0,0:0:0:0:
192,192,35622,1,0,0:0:0:0:
64,192,35735,128,0,35960:0:0:0:0:
192,192,35790,1,0,0:0:0:0:
320,192,35847,1,0,0:0:0:0:
192,192,35960,128,0,36185:0:0:0:0:
448,192,36072,1,0,0:0:0:0:
64,192,36072,1,0,0:0:0:0:
320,192,36185,128,0,36411:0:0:0:0:
64,192,36298,1,0,0:0:0:0:
448,192,36411,128,0,36637:0:0:0:0:
192,192,36750,1,0,0:0:0:0:
64,192,36750,1,0,0:0:0:0:
192,192,36862,1,0,0:0:0:0:
64,192,36862,1,0,0:0:0:0:
448,192,37087,1,0,0:0:0:0:
64,192,37087,1,0,0:0:0:0:
320,192,37144,1,0,0:0:0:0:
192,192,37144,1,0,0:0:0:0:
448,192,37200,1,0,0:0:0:0:
64,192,37200,1,0,0:0:0:0:
192,192,37257,1,0,0:0:0:0:
320,192,37257,1,0,0:0:0:0:
64,192,37313,1,0,0:0:0:0:
448,192,37313,128,0,38215:0:0:0:0:
192,192,37370,1,0,0:0:0:0:
320,192,37426,1,0,0:0:0:0:
192,192,37482,1,0,0:0:0:0:
64,192,37539,1,0,0:0:0:0:
192,192,37595,1,0,0:0:0:0:
320,192,37652,1,0,0:0:0:0:
192,192,37708,1,0,0:0:0:0:
64,192,37765,1,0,0:0:0:0:
192,192,37821,1,0,0:0:0:0:
320,192,37877,1,0,0:0:0:0:
192,192,37933,1,0,0:0:0:0:
320,192,37990,1,0,0:0:0:0:
192,192,38046,1,0,0:0:0:0:
64,192,38102,1,0,0:0:0:0:
192,192,38159,1,0,0:0:0:0:
320,192,38215,1,0,0:0:0:0:
64,192,38272,1,0,0:0:0:0:
192,192,38272,1,0,0:0:0:0:
320,192,38328,1,0,0:0:0:0:
64,192,38385,1,0,0:0:0:0:
192,192,38385,1,0,0:0:0:0:
320,192,38441,1,0,0:0:0:0:
64,192,38497,1,0,0:0:0:0:
192,192,38497,1,0,0:0:0:0:
320,192,38554,1,0,0:0:0:0:
64,192,38610,1,0,0:0:0:0:
448,192,38667,128,0,38780:0:0:0:0:
192,192,38667,128,0,38780:0:0:0:0:
64,192,38892,128,0,39005:0:0:0:0:
320,192,38892,1,0,0:0:0:0:
320,192,39117,1,0,0:0:0:0:
192,192,39117,1,0,0:0:0:0:
448,192,39117,1,0,0:0:0:0:
64,192,39174,1,0,0:0:0:0:
192,192,39230,1,0,0:0:0:0:
448,192,39230,1,0,0:0:0:0:
320,192,39287,1,0,0:0:0:0:
64,192,39343,1,0,0:0:0:0:
192,192,39343,1,0,0:0:0:0:
448,192,39400,1,0,0:0:0:0:
320,192,39456,1,0,0:0:0:0:
192,192,39456,1,0,0:0:0:0:
448,192,39512,1,0,0:0:0:0:
64,192,39569,1,0,0:0:0:0:
192,192,39569,1,0,0:0:0:0:
320,192,39625,1,0,0:0:0:0:
64,192,39682,1,0,0:0:0:0:
448,192,39682,1,0,0:0:0:0:
192,192,39738,1,0,0:0:0:0:
320,192,39795,1,0,0:0:0:0:
64,192,39795,1,0,0:0:0:0:
192,192,39851,1,0,0:0:0:0:
448,192,39907,1,0,0:0:0:0:
320,192,39907,1,0,0:0:0:0:
64,192,39964,1,0,0:0:0:0:
192,192,40020,1,0,0:0:0:0:
448,192,40020,1,0,0:0:0:0:
320,192,40076,1,0,0:0:0:0:
192,192,40132,1,0,0:0:0:0:
64,192,40132,1,0,0:0:0:0:
448,192,40189,1,0,0:0:0:0:
320,192,40245,1,0,0:0:0:0:
64,192,40245,1,0,0:0:0:0:
192,192,40302,1,0,0:0:0:0:
448,192,40358,1,0,0:0:0:0:
320,192,40358,1,0,0:0:0:0:
192,192,40415,1,0,0:0:0:0:
448,192,40471,1,0,0:0:0:0:
64,192,40471,1,0,0:0:0:0:
192,192,40527,1,0,0:0:0:0:
320,192,40584,1,0,0:0:0:0:
448,192,40640,1,0,0:0:0:0:
64,192,40697,1,0,0:0:0:0:
320,192,40697,1,0,0:0:0:0:
192,192,40753,1,0,0:0:0:0:
320,192,40810,1,0,0:0:0:0:
64,192,40810,1,0,0:0:0:0:
192,192,40866,1,0,0:0:0:0:
320,192,40922,1,0,0:0:0:0:
64,192,40922,1,0,0:0:0:0:
448,192,40922,1,0,0:0:0:0:
192,192,40979,1,0,0:0:0:0:
64,192,41035,1,0,0:0:0:0:
320,192,41092,1,0,0:0:0:0:
448,192,41147,1,0,0:0:0:0:
192,192,41147,1,0,0:0:0:0:
64,192,41147,1,0,0:0:0:0:
320,192,41204,1,0,0:0:0:0:
192,192,41260,1,0,0:0:0:0:
64,192,41317,1,0,0:0:0:0:
448,192,41373,1,0,0:0:0:0:
320,192,41373,1,0,0:0:0:0:
192,192,41373,1,0,0:0:0:0:
64,192,41430,1,0,0:0:0:0:
320,192,41486,1,0,0:0:0:0:
448,192,41542,1,0,0:0:0:0:
64,192,41599,1,0,0:0:0:0:
192,192,41599,1,0,0:0:0:0:
320,192,41599,1,0,0:0:0:0:
448,192,41655,1,0,0:0:0:0:
320,192,41712,1,0,0:0:0:0:
192,192,41768,1,0,0:0:0:0:
448,192,41825,1,0,0:0:0:0:
320,192,41825,1,0,0:0:0:0:
64,192,41825,1,0,0:0:0:0:
192,192,41881,1,0,0:0:0:0:
320,192,41937,1,0,0:0:0:0:
448,192,41994,1,0,0:0:0:0:
192,192,42050,1,0,0:0:0:0:
320,192,42107,1,0,0:0:0:0:
448,192,42163,1,0,0:0:0:0:
64,192,42163,1,0,0:0:0:0:
192,192,42163,1,0,0:0:0:0:
320,192,42219,1,0,0:0:0:0:
192,192,42275,1,0,0:0:0:0:
64,192,42332,1,0,0:0:0:0:
448,192,42388,1,0,0:0:0:0:
192,192,42445,1,0,0:0:0:0:
320,192,42501,1,0,0:0:0:0:
64,192,42557,1,0,0:0:0:0:
192,192,42614,1,0,0:0:0:0:
320,192,42670,1,0,0:0:0:0:
448,192,42727,1,0,0:0:0:0:
192,192,42727,1,0,0:0:0:0:
64,192,42783,1,0,0:0:0:0:
320,192,42840,1,0,0:0:0:0:
448,192,42840,1,0,0:0:0:0:
192,192,42896,1,0,0:0:0:0:
320,192,42952,1,0,0:0:0:0:
64,192,42952,1,0,0:0:0:0:
448,192,43009,1,0,0:0:0:0:
192,192,43065,1,0,0:0:0:0:
320,192,43065,1,0,0:0:0:0:
448,192,43122,1,0,0:0:0:0:
192,192,43178,1,0,0:0:0:0:
64,192,43178,1,0,0:0:0:0:
320,192,43235,1,0,0:0:0:0:
192,192,43290,1,0,0:0:0:0:
448,192,43290,1,0,0:0:0:0:
64,192,43347,1,0,0:0:0:0:
320,192,43403,1,0,0:0:0:0:
448,192,43403,1,0,0:0:0:0:
192,192,43460,1,0,0:0:0:0:
320,192,43516,1,0,0:0:0:0:
64,192,43516,1,0,0:0:0:0:
192,192,43572,1,0,0:0:0:0:
448,192,43629,1,0,0:0:0:0:
64,192,43629,1,0,0:0:0:0:
320,192,43685,1,0,0:0:0:0:
192,192,43742,1,0,0:0:0:0:
64,192,43742,1,0,0:0:0:0:
320,192,43798,1,0,0:0:0:0:
448,192,43855,1,0,0:0:0:0:
192,192,43855,1,0,0:0:0:0:
64,192,43911,1,0,0:0:0:0:
320,192,43967,1,0,0:0:0:0:
448,192,43967,1,0,0:0:0:0:
192,192,44024,1,0,0:0:0:0:
320,192,44080,1,0,0:0:0:0:
64,192,44080,1,0,0:0:0:0:
192,192,44137,1,0,0:0:0:0:
448,192,44193,1,0,0:0:0:0:
64,192,44250,1,0,0:0:0:0:
192,192,44306,1,0,0:0:0:0:
320,192,44306,1,0,0:0:0:0:
448,192,44362,1,0,0:0:0:0:
192,192,44418,1,0,0:0:0:0:
320,192,44418,1,0,0:0:0:0:
64,192,44475,1,0,0:0:0:0:
192,192,44531,1,0,0:0:0:0:
320,192,44531,1,0,0:0:0:0:
448,192,44531,1,0,0:0:0:0:
64,192,44587,1,0,0:0:0:0:
192,192,44644,1,0,0:0:0:0:
320,192,44700,1,0,0:0:0:0:
448,192,44757,1,0,0:0:0:0:
192,192,44757,1,0,0:0:0:0:
64,192,44757,1,0,0:0:0:0:
320,192,44813,1,0,0:0:0:0:
64,192,44870,1,0,0:0:0:0:
448,192,44926,1,0,0:0:0:0:
192,192,44982,1,0,0:0:0:0:
64,192,44982,1,0,0:0:0:0:
320,192,44982,1,0,0:0:0:0:
448,192,45039,1,0,0:0:0:0:
192,192,45095,1,0,0:0:0:0:
320,192,45152,1,0,0:0:0:0:
64,192,45208,1,0,0:0:0:0:
192,192,45208,1,0,0:0:0:0:
448,192,45208,1,0,0:0:0:0:
320,192,45265,1,0,0:0:0:0:
448,192,45321,1,0,0:0:0:0:
192,192,45377,5,0,0:0:0:0:
448,192,45433,1,0,0:0:0:0:
320,192,45433,1,0,0:0:0:0:
64,192,45433,1,0,0:0:0:0:
192,192,45490,1,0,0:0:0:0:
320,192,45546,1,0,0:0:0:0:
448,192,45602,1,0,0:0:0:0:
192,192,45659,1,0,0:0:0:0:
320,192,45715,1,0,0:0:0:0:
64,192,45772,1,0,0:0:0:0:
192,192,45772,1,0,0:0:0:0:
448,192,45772,1,0,0:0:0:0:
320,192,45828,1,0,0:0:0:0:
448,192,45885,1,0,0:0:0:0:
192,192,45885,1,0,0:0:0:0:
64,192,45885,1,0,0:0:0:0:
320,192,45941,1,0,0:0:0:0:
192,192,45997,1,0,0:0:0:0:
64,192,46054,1,0,0:0:0:0:
448,192,46110,1,0,0:0:0:0:
192,192,46167,1,0,0:0:0:0:
320,192,46223,5,0,0:0:0:0:
64,192,46280,1,0,0:0:0:0:
448,192,46336,1,0,0:0:0:0:
192,192,46336,1,0,0:0:0:0:
320,192,46336,1,0,0:0:0:0:
64,192,46392,1,0,0:0:0:0:
448,192,46449,1,0,0:0:0:0:
320,192,46449,1,0,0:0:0:0:
192,192,46505,1,0,0:0:0:0:
320,192,46561,1,0,0:0:0:0:
64,192,46561,1,0,0:0:0:0:
448,192,46617,1,0,0:0:0:0:
192,192,46674,1,0,0:0:0:0:
64,192,46674,1,0,0:0:0:0:
448,192,46730,1,0,0:0:0:0:
320,192,46787,1,0,0:0:0:0:
192,192,46787,1,0,0:0:0:0:
64,192,46843,1,0,0:0:0:0:
448,192,46900,1,0,0:0:0:0:
320,192,46900,1,0,0:0:0:0:
192,192,46956,1,0,0:0:0:0:
64,192,47012,1,0,0:0:0:0:
320,192,47012,1,0,0:0:0:0:
448,192,47069,1,0,0:0:0:0:
192,192,47125,1,0,0:0:0:0:
64,192,47125,1,0,0:0:0:0:
320,192,47182,1,0,0:0:0:0:
192,192,47238,1,0,0:0:0:0:
448,192,47238,1,0,0:0:0:0:
64,192,47295,1,0,0:0:0:0:
448,192,47351,1,0,0:0:0:0:
320,192,47351,1,0,0:0:0:0:
192,192,47407,1,0,0:0:0:0:
64,192,47464,1,0,0:0:0:0:
320,192,47464,1,0,0:0:0:0:
192,192,47520,1,0,0:0:0:0:
320,192,47576,1,0,0:0:0:0:
448,192,47576,1,0,0:0:0:0:
192,192,47632,1,0,0:0:0:0:
448,192,47689,1,0,0:0:0:0:
64,192,47689,1,0,0:0:0:0:
320,192,47745,1,0,0:0:0:0:
192,192,47802,1,0,0:0:0:0:
64,192,47858,1,0,0:0:0:0:
448,192,47915,1,0,0:0:0:0:
320,192,47915,1,0,0:0:0:0:
192,192,47971,1,0,0:0:0:0:
320,192,48027,1,0,0:0:0:0:
448,192,48027,1,0,0:0:0:0:
192,192,48084,1,0,0:0:0:0:
448,192,48140,1,0,0:0:0:0:
320,192,48140,1,0,0:0:0:0:
64,192,48140,1,0,0:0:0:0:
192,192,48197,1,0,0:0:0:0:
64,192,48253,1,0,0:0:0:0:
320,192,48310,1,0,0:0:0:0:
64,192,48366,1,0,0:0:0:0:
192,192,48366,1,0,0:0:0:0:
448,192,48366,1,0,0:0:0:0:
320,192,48422,1,0,0:0:0:0:
448,192,48479,1,0,0:0:0:0:
192,192,48535,1,0,0:0:0:0:
448,192,48592,1,0,0:0:0:0:
320,192,48592,1,0,0:0:0:0:
64,192,48592,1,0,0:0:0:0:
192,192,48647,1,0,0:0:0:0:
320,192,48704,1,0,0:0:0:0:
448,192,48760,1,0,0:0:0:0:
64,192,48817,1,0,0:0:0:0:
192,192,48817,1,0,0:0:0:0:
320,192,48817,1,0,0:0:0:0:
448,192,48873,1,0,0:0:0:0:
192,192,48930,1,0,0:0:0:0:
64,192,48986,1,0,0:0:0:0:
448,192,49042,1,0,0:0:0:0:
320,192,49042,1,0,0:0:0:0:
192,192,49042,1,0,0:0:0:0:
64,192,49099,1,0,0:0:0:0:
192,192,49155,1,0,0:0:0:0:
320,192,49212,1,0,0:0:0:0:
192,192,49268,1,0,0:0:0:0:
448,192,49325,1,0,0:0:0:0:
320,192,49381,1,0,0:0:0:0:
192,192,49381,1,0,0:0:0:0:
64,192,49381,1,0,0:0:0:0:
448,192,49437,1,0,0:0:0:0:
192,192,49494,1,0,0:0:0:0:
64,192,49550,1,0,0:0:0:0:
320,192,49607,1,0,0:0:0:0:
192,192,49663,1,0,0:0:0:0:
64,192,49719,1,0,0:0:0:0:
448,192,49775,1,0,0:0:0:0:
320,192,49832,1,0,0:0:0:0:
192,192,49888,1,0,0:0:0:0:
448,192,49945,1,0,0:0:0:0:
320,192,49945,1,0,0:0:0:0:
64,192,49945,1,0,0:0:0:0:
192,192,50001,1,0,0:0:0:0:
320,192,50057,1,0,0:0:0:0:
64,192,50057,1,0,0:0:0:0:
448,192,50114,1,0,0:0:0:0:
192,192,50170,1,0,0:0:0:0:
320,192,50170,1,0,0:0:0:0:
64,192,50227,1,0,0:0:0:0:
448,192,50283,1,0,0:0:0:0:
320,192,50283,1,0,0:0:0:0:
192,192,50340,1,0,0:0:0:0:
320,192,50396,1,0,0:0:0:0:
64,192,50396,1,0,0:0:0:0:
448,192,50452,1,0,0:0:0:0:
192,192,50509,1,0,0:0:0:0:
320,192,50509,1,0,0:0:0:0:
64,192,50565,1,0,0:0:0:0:
448,192,50622,1,0,0:0:0:0:
192,192,50622,1,0,0:0:0:0:
320,192,50678,1,0,0:0:0:0:
64,192,50735,1,0,0:0:0:0:
192,192,50735,1,0,0:0:0:0:
448,192,50790,1,0,0:0:0:0:
320,192,50847,1,0,0:0:0:0:
64,192,50847,1,0,0:0:0:0:
192,192,50903,1,0,0:0:0:0:
448,192,50960,1,0,0:0:0:0:
320,192,50960,1,0,0:0:0:0:
64,192,51016,1,0,0:0:0:0:
320,192,51072,1,0,0:0:0:0:
192,192,51072,1,0,0:0:0:0:
448,192,51129,1,0,0:0:0:0:
320,192,51185,1,0,0:0:0:0:
192,192,51185,1,0,0:0:0:0:
448,192,51242,1,0,0:0:0:0:
64,192,51298,1,0,0:0:0:0:
320,192,51298,1,0,0:0:0:0:
192,192,51355,1,0,0:0:0:0:
320,192,51411,1,0,0:0:0:0:
448,192,51467,1,0,0:0:0:0:
320,192,51524,1,0,0:0:0:0:
64,192,51524,1,0,0:0:0:0:
192,192,51580,1,0,0:0:0:0:
320,192,51637,1,0,0:0:0:0:
64,192,51637,1,0,0:0:0:0:
448,192,51693,1,0,0:0:0:0:
320,192,51750,1,0,0:0:0:0:
192,192,51750,1,0,0:0:0:0:
64,192,51750,1,0,0:0:0:0:
320,192,51862,1,0,0:0:0:0:
192,192,51862,1,0,0:0:0:0:
64,192,51862,1,0,0:0:0:0:
448,192,52087,1,0,0:0:0:0:
320,192,52144,1,0,0:0:0:0:
64,192,52200,1,0,0:0:0:0:
192,192,52200,1,0,0:0:0:0:
448,192,52200,1,0,0:0:0:0:
448,192,52313,1,0,0:0:0:0:
192,192,52313,1,0,0:0:0:0:
64,192,52313,1,0,0:0:0:0:
320,192,52426,1,0,0:0:0:0:
192,192,52539,1,0,0:0:0:0:
448,192,52652,5,0,0:0:0:0:
320,192,52652,1,0,0:0:0:0:
448,192,52765,1,0,0:0:0:0:
192,192,52765,1,0,0:0:0:0:
448,192,52877,1,0,0:0:0:0:
64,192,52877,1,0,0:0:0:0:
320,192,52990,1,0,0:0:0:0:
64,192,52990,1,0,0:0:0:0:
192,192,53102,1,0,0:0:0:0:
64,192,53102,1,0,0:0:0:0:
448,192,53328,128,0,53780:0:0:0:0:
320,192,53554,128,0,53780:0:0:0:0:
64,192,53554,1,0,0:0:0:0:
192,192,53780,1,0,0:0:0:0:
64,192,53892,1,0,0:0:0:0:
448,192,54005,128,0,54230:0:0:0:0:
320,192,54005,128,0,54230:0:0:0:0:
64,192,54230,1,0,0:0:0:0:
448,192,54400,1,0,0:0:0:0:
64,192,54456,1,0,0:0:0:0:
192,192,54456,1,0,0:0:0:0:
320,192,54512,1,0,0:0:0:0:
192,192,54569,1,0,0:0:0:0:
64,192,54569,1,0,0:0:0:0:
448,192,54625,1,0,0:0:0:0:
192,192,54682,1,0,0:0:0:0:
64,192,54682,1,0,0:0:0:0:
320,192,54738,1,0,0:0:0:0:
192,192,54795,1,0,0:0:0:0:
64,192,54795,1,0,0:0:0:0:
448,192,54851,1,0,0:0:0:0:
64,192,54907,1,0,0:0:0:0:
192,192,54907,1,0,0:0:0:0:
320,192,54964,1,0,0:0:0:0:
192,192,55020,1,0,0:0:0:0:
448,192,55076,1,0,0:0:0:0:
64,192,55132,1,0,0:0:0:0:
320,192,55189,1,0,0:0:0:0:
192,192,55245,1,0,0:0:0:0:
448,192,55302,1,0,0:0:0:0:
320,192,55358,1,0,0:0:0:0:
192,192,55358,1,0,0:0:0:0:
64,192,55358,1,0,0:0:0:0:
64,192,55415,1,0,0:0:0:0:
448,192,55471,1,0,0:0:0:0:
320,192,55527,1,0,0:0:0:0:
192,192,55584,1,0,0:0:0:0:
448,192,55584,1,0,0:0:0:0:
320,192,55640,1,0,0:0:0:0:
64,192,55697,1,0,0:0:0:0:
192,192,55753,1,0,0:0:0:0:
320,192,55810,1,0,0:0:0:0:
448,192,55810,1,0,0:0:0:0:
192,192,55866,1,0,0:0:0:0:
64,192,55922,1,0,0:0:0:0:
320,192,55979,1,0,0:0:0:0:
192,192,56035,1,0,0:0:0:0:
448,192,56035,1,0,0:0:0:0:
448,192,56092,1,0,0:0:0:0:
320,192,56147,1,0,0:0:0:0:
192,192,56204,1,0,0:0:0:0:
64,192,56260,1,0,0:0:0:0:
320,192,56260,1,0,0:0:0:0:
64,192,56317,1,0,0:0:0:0:
192,192,56373,1,0,0:0:0:0:
448,192,56430,1,0,0:0:0:0:
320,192,56486,1,0,0:0:0:0:
192,192,56486,1,0,0:0:0:0:
64,192,56542,1,0,0:0:0:0:
192,192,56599,1,0,0:0:0:0:
448,192,56599,1,0,0:0:0:0:
320,192,56655,1,0,0:0:0:0:
448,192,56712,1,0,0:0:0:0:
192,192,56712,1,0,0:0:0:0:
320,192,56768,1,0,0:0:0:0:
192,192,56825,1,0,0:0:0:0:
64,192,56881,1,0,0:0:0:0:
448,192,56937,1,0,0:0:0:0:
320,192,56937,1,0,0:0:0:0:
192,192,56994,1,0,0:0:0:0:
320,192,57050,1,0,0:0:0:0:
448,192,57107,1,0,0:0:0:0:
64,192,57163,1,0,0:0:0:0:
192,192,57163,1,0,0:0:0:0:
64,192,57219,1,0,0:0:0:0:
320,192,57275,1,0,0:0:0:0:
192,192,57332,1,0,0:0:0:0:
448,192,57388,1,0,0:0:0:0:
320,192,57388,1,0,0:0:0:0:
448,192,57445,1,0,0:0:0:0:
320,192,57501,1,0,0:0:0:0:
192,192,57557,1,0,0:0:0:0:
64,192,57614,1,0,0:0:0:0:
320,192,57614,1,0,0:0:0:0:
192,192,57670,1,0,0:0:0:0:
448,192,57727,1,0,0:0:0:0:
320,192,57783,1,0,0:0:0:0:
64,192,57840,1,0,0:0:0:0:
192,192,57840,1,0,0:0:0:0:
64,192,57896,1,0,0:0:0:0:
448,192,57952,1,0,0:0:0:0:
192,192,58009,1,0,0:0:0:0:
320,192,58065,1,0,0:0:0:0:
64,192,58065,1,0,0:0:0:0:
320,192,58122,1,0,0:0:0:0:
448,192,58178,1,0,0:0:0:0:
192,192,58235,1,0,0:0:0:0:
320,192,58290,1,0,0:0:0:0:
64,192,58290,1,0,0:0:0:0:
448,192,58347,1,0,0:0:0:0:
64,192,58403,1,0,0:0:0:0:
192,192,58403,1,0,0:0:0:0:
320,192,58460,1,0,0:0:0:0:
192,192,58516,1,0,0:0:0:0:
64,192,58516,1,0,0:0:0:0:
448,192,58572,1,0,0:0:0:0:
192,192,58629,1,0,0:0:0:0:
64,192,58629,1,0,0:0:0:0:
320,192,58685,1,0,0:0:0:0:
192,192,58742,1,0,0:0:0:0:
64,192,58742,1,0,0:0:0:0:
448,192,58798,1,0,0:0:0:0:
320,192,58855,1,0,0:0:0:0:
192,192,58855,1,0,0:0:0:0:
64,192,58911,1,0,0:0:0:0:
448,192,58967,1,0,0:0:0:0:
192,192,58967,1,0,0:0:0:0:
448,192,59024,1,0,0:0:0:0:
64,192,59080,1,0,0:0:0:0:
320,192,59137,1,0,0:0:0:0:
192,192,59193,1,0,0:0:0:0:
64,192,59193,1,0,0:0:0:0:
448,192,59250,1,0,0:0:0:0:
192,192,59306,1,0,0:0:0:0:
320,192,59362,1,0,0:0:0:0:
448,192,59418,1,0,0:0:0:0:
64,192,59418,1,0,0:0:0:0:
320,192,59475,1,0,0:0:0:0:
64,192,59531,1,0,0:0:0:0:
320,192,59587,1,0,0:0:0:0:
448,192,59644,1,0,0:0:0:0:
192,192,59644,1,0,0:0:0:0:
448,192,59700,1,0,0:0:0:0:
192,192,59757,1,0,0:0:0:0:
320,192,59813,1,0,0:0:0:0:
192,192,59870,1,0,0:0:0:0:
64,192,59870,1,0,0:0:0:0:
192,192,59926,1,0,0:0:0:0:
448,192,59982,1,0,0:0:0:0:
320,192,60039,1,0,0:0:0:0:
192,192,60095,1,0,0:0:0:0:
448,192,60095,1,0,0:0:0:0:
320,192,60152,1,0,0:0:0:0:
64,192,60208,1,0,0:0:0:0:
192,192,60208,1,0,0:0:0:0:
448,192,60265,1,0,0:0:0:0:
192,192,60321,1,0,0:0:0:0:
64,192,60321,1,0,0:0:0:0:
320,192,60377,1,0,0:0:0:0:
448,192,60433,1,0,0:0:0:0:
320,192,60490,1,0,0:0:0:0:
448,192,60546,1,0,0:0:0:0:
192,192,60546,1,0,0:0:0:0:
64,192,60602,1,0,0:0:0:0:
192,192,60659,1,0,0:0:0:0:
320,192,60715,1,0,0:0:0:0:
448,192,60772,1,0,0:0:0:0:
192,192,60772,1,0,0:0:0:0:
448,192,60828,1,0,0:0:0:0:
64,192,60885,1,0,0:0:0:0:
320,192,60941,1,0,0:0:0:0:
192,192,60997,1,0,0:0:0:0:
448,192,60997,1,0,0:0:0:0:
192,192,61054,1,0,0:0:0:0:
320,192,61110,1,0,0:0:0:0:
64,192,61167,1,0,0:0:0:0:
448,192,61223,1,0,0:0:0:0:
320,192,61223,1,0,0:0:0:0:
192,192,61280,1,0,0:0:0:0:
64,192,61336,1,0,0:0:0:0:
320,192,61392,1,0,0:0:0:0:
192,192,61449,1,0,0:0:0:0:
64,192,61449,1,0,0:0:0:0:
64,192,61505,1,0,0:0:0:0:
448,192,61561,1,0,0:0:0:0:
320,192,61617,1,0,0:0:0:0:
448,192,61674,1,0,0:0:0:0:
192,192,61674,1,0,0:0:0:0:
64,192,61674,1,0,0:0:0:0:
64,192,61787,1,0,0:0:0:0:
192,192,61787,1,0,0:0:0:0:
192,192,61900,1,0,0:0:0:0:
64,192,61900,1,0,0:0:0:0:
320,192,62012,128,0,62125:0:0:0:0:
192,192,62012,1,0,0:0:0:0:
64,192,62012,1,0,0:0:0:0:
448,192,62125,128,0,62238:0:0:0:0:
192,192,62125,1,0,0:0:0:0:
64,192,62125,1,0,0:0:0:0:
448,192,62351,128,0,62464:0:0:0:0:
64,192,62351,1,0,0:0:0:0:
320,192,62576,1,0,0:0:0:0:
192,192,62576,1,0,0:0:0:0:
64,192,62576,1,0,0:0:0:0:
64,192,62632,1,0,0:0:0:0:
448,192,62689,1,0,0:0:0:0:
192,192,62745,1,0,0:0:0:0:
320,192,62802,1,0,0:0:0:0:
448,192,62802,1,0,0:0:0:0:
64,192,62858,1,0,0:0:0:0:
320,192,62915,1,0,0:0:0:0:
448,192,62971,1,0,0:0:0:0:
192,192,63027,1,0,0:0:0:0:
64,192,63027,1,0,0:0:0:0:
320,192,63084,1,0,0:0:0:0:
448,192,63140,1,0,0:0:0:0:
192,192,63197,1,0,0:0:0:0:
448,192,63253,1,0,0:0:0:0:
320,192,63253,1,0,0:0:0:0:
448,192,63310,1,0,0:0:0:0:
64,192,63366,1,0,0:0:0:0:
320,192,63422,1,0,0:0:0:0:
64,192,63479,1,0,0:0:0:0:
192,192,63479,1,0,0:0:0:0:
64,192,63535,1,0,0:0:0:0:
320,192,63592,1,0,0:0:0:0:
448,192,63647,1,0,0:0:0:0:
320,192,63704,1,0,0:0:0:0:
64,192,63704,1,0,0:0:0:0:
192,192,63760,1,0,0:0:0:0:
448,192,63817,1,0,0:0:0:0:
320,192,63817,1,0,0:0:0:0:
192,192,63873,1,0,0:0:0:0:
448,192,63930,1,0,0:0:0:0:
320,192,63930,1,0,0:0:0:0:
64,192,63986,1,0,0:0:0:0:
320,192,64042,1,0,0:0:0:0:
192,192,64099,1,0,0:0:0:0:
320,192,64155,1,0,0:0:0:0:
64,192,64155,1,0,0:0:0:0:
192,192,64212,1,0,0:0:0:0:
320,192,64268,1,0,0:0:0:0:
448,192,64325,1,0,0:0:0:0:
64,192,64381,1,0,0:0:0:0:
192,192,64381,1,0,0:0:0:0:
192,192,64437,1,0,0:0:0:0:
448,192,64494,1,0,0:0:0:0:
64,192,64550,1,0,0:0:0:0:
448,192,64607,1,0,0:0:0:0:
320,192,64607,1,0,0:0:0:0:
320,192,64663,1,0,0:0:0:0:
192,192,64719,1,0,0:0:0:0:
64,192,64775,1,0,0:0:0:0:
448,192,64832,1,0,0:0:0:0:
320,192,64832,1,0,0:0:0:0:
192,192,64888,1,0,0:0:0:0:
64,192,64945,1,0,0:0:0:0:
320,192,65001,1,0,0:0:0:0:
192,192,65057,1,0,0:0:0:0:
448,192,65057,1,0,0:0:0:0:
192,192,65114,1,0,0:0:0:0:
320,192,65170,1,0,0:0:0:0:
448,192,65227,1,0,0:0:0:0:
64,192,65283,1,0,0:0:0:0:
192,192,65283,1,0,0:0:0:0:
64,192,65340,1,0,0:0:0:0:
320,192,65396,1,0,0:0:0:0:
64,192,65452,1,0,0:0:0:0:
448,192,65509,1,0,0:0:0:0:
320,192,65509,1,0,0:0:0:0:
448,192,65565,1,0,0:0:0:0:
64,192,65622,1,0,0:0:0:0:
320,192,65622,1,0,0:0:0:0:
192,192,65678,1,0,0:0:0:0:
320,192,65735,1,0,0:0:0:0:
64,192,65735,1,0,0:0:0:0:
192,192,65790,1,0,0:0:0:0:
448,192,65847,1,0,0:0:0:0:
320,192,65847,1,0,0:0:0:0:
64,192,65903,1,0,0:0:0:0:
448,192,65960,1,0,0:0:0:0:
320,192,65960,1,0,0:0:0:0:
192,192,66016,1,0,0:0:0:0:
448,192,66072,1,0,0:0:0:0:
64,192,66072,1,0,0:0:0:0:
320,192,66129,1,0,0:0:0:0:
192,192,66185,1,0,0:0:0:0:
64,192,66185,1,0,0:0:0:0:
192,192,66242,1,0,0:0:0:0:
448,192,66298,1,0,0:0:0:0:
192,192,66355,1,0,0:0:0:0:
320,192,66411,1,0,0:0:0:0:
448,192,66411,1,0,0:0:0:0:
64,192,66467,1,0,0:0:0:0:
192,192,66524,1,0,0:0:0:0:
64,192,66580,1,0,0:0:0:0:
448,192,66637,1,0,0:0:0:0:
320,192,66637,1,0,0:0:0:0:
64,192,66693,1,0,0:0:0:0:
192,192,66750,1,0,0:0:0:0:
448,192,66806,1,0,0:0:0:0:
320,192,66862,1,0,0:0:0:0:
64,192,66862,1,0,0:0:0:0:
64,192,66918,1,0,0:0:0:0:
192,192,66975,1,0,0:0:0:0:
320,192,67031,1,0,0:0:0:0:
448,192,67087,1,0,0:0:0:0:
192,192,67087,1,0,0:0:0:0:
448,192,67144,1,0,0:0:0:0:
64,192,67200,1,0,0:0:0:0:
192,192,67257,1,0,0:0:0:0:
320,192,67313,1,0,0:0:0:0:
64,192,67313,1,0,0:0:0:0:
448,192,67370,1,0,0:0:0:0:
320,192,67426,1,0,0:0:0:0:
192,192,67426,1,0,0:0:0:0:
64,192,67482,1,0,0:0:0:0:
320,192,67539,1,0,0:0:0:0:
192,192,67539,1,0,0:0:0:0:
64,192,67595,1,0,0:0:0:0:
320,192,67652,1,0,0:0:0:0:
448,192,67708,1,0,0:0:0:0:
192,192,67765,1,0,0:0:0:0:
64,192,67765,1,0,0:0:0:0:
320,192,67821,1,0,0:0:0:0:
192,192,67877,1,0,0:0:0:0:
448,192,67933,1,0,0:0:0:0:
320,192,67990,1,0,0:0:0:0:
64,192,67990,1,0,0:0:0:0:
320,192,68046,1,0,0:0:0:0:
192,192,68102,1,0,0:0:0:0:
448,192,68159,1,0,0:0:0:0:
320,192,68215,1,0,0:0:0:0:
64,192,68215,1,0,0:0:0:0:
64,192,68272,1,0,0:0:0:0:
192,192,68328,1,0,0:0:0:0:
448,192,68385,1,0,0:0:0:0:
320,192,68441,1,0,0:0:0:0:
192,192,68441,1,0,0:0:0:0:
448,192,68497,1,0,0:0:0:0:
320,192,68554,1,0,0:0:0:0:
192,192,68610,1,0,0:0:0:0:
320,192,68667,1,0,0:0:0:0:
448,192,68667,1,0,0:0:0:0:
448,192,68723,1,0,0:0:0:0:
192,192,68780,1,0,0:0:0:0:
64,192,68836,1,0,0:0:0:0:
320,192,68892,1,0,0:0:0:0:
192,192,68892,1,0,0:0:0:0:
320,192,68949,5,0,0:0:0:0:
64,192,69005,1,0,0:0:0:0:
448,192,69061,1,0,0:0:0:0:
320,192,69117,1,0,0:0:0:0:
64,192,69117,1,0,0:0:0:0:
192,192,69174,1,0,0:0:0:0:
448,192,69230,1,0,0:0:0:0:
320,192,69230,1,0,0:0:0:0:
192,192,69287,1,0,0:0:0:0:
320,192,69343,1,0,0:0:0:0:
64,192,69343,1,0,0:0:0:0:
192,192,69400,1,0,0:0:0:0:
320,192,69456,1,0,0:0:0:0:
448,192,69512,1,0,0:0:0:0:
192,192,69569,1,0,0:0:0:0:
64,192,69569,1,0,0:0:0:0:
320,192,69625,1,0,0:0:0:0:
448,192,69682,1,0,0:0:0:0:
192,192,69738,1,0,0:0:0:0:
448,192,69795,1,0,0:0:0:0:
320,192,69851,1,0,0:0:0:0:
192,192,69907,1,0,0:0:0:0:
64,192,69964,1,0,0:0:0:0:
448,192,70020,1,0,0:0:0:0:
320,192,70076,1,0,0:0:0:0:
192,192,70132,1,0,0:0:0:0:
64,192,70189,1,0,0:0:0:0:
320,192,70245,1,0,0:0:0:0:
448,192,70245,1,0,0:0:0:0:
64,192,70471,1,0,0:0:0:0:
192,192,70471,1,0,0:0:0:0:
320,192,70471,1,0,0:0:0:0:
448,192,70471,1,0,0:0:0:0:
448,192,70583,1,0,0:0:0:0:
64,192,70583,1,0,0:0:0:0:
320,192,70640,1,0,0:0:0:0:
192,192,70640,1,0,0:0:0:0:
448,192,70696,1,0,0:0:0:0:
64,192,70696,1,0,0:0:0:0:
64,192,70809,1,0,0:0:0:0:
320,192,70809,1,0,0:0:0:0:
448,192,70922,1,0,0:0:0:0:
192,192,70922,1,0,0:0:0:0:
64,192,71035,1,0,0:0:0:0:
192,192,71035,1,0,0:0:0:0:
448,192,71091,1,0,0:0:0:0:
320,192,71091,1,0,0:0:0:0:
192,192,71147,1,0,0:0:0:0:
64,192,71147,1,0,0:0:0:0:
448,192,71260,1,0,0:0:0:0:
192,192,71260,1,0,0:0:0:0:
320,192,71373,1,0,0:0:0:0:
64,192,71373,1,0,0:0:0:0:
448,192,71486,1,0,0:0:0:0:
320,192,71486,1,0,0:0:0:0:
64,192,71542,1,0,0:0:0:0:
192,192,71542,1,0,0:0:0:0:
448,192,71598,1,0,0:0:0:0:
320,192,71598,1,0,0:0:0:0:
448,192,71711,1,0,0:0:0:0:
64,192,71711,1,0,0:0:0:0:
320,192,71824,1,0,0:0:0:0:
192,192,71824,1,0,0:0:0:0:
448,192,72275,1,0,0:0:0:0:
320,192,72275,1,0,0:0:0:0:
192,192,72275,1,0,0:0:0:0:
64,192,72388,1,0,0:0:0:0:
320,192,72388,1,0,0:0:0:0:
448,192,72445,1,0,0:0:0:0:
192,192,72445,1,0,0:0:0:0:
320,192,72501,1,0,0:0:0:0:
64,192,72501,1,0,0:0:0:0:
448,192,72614,1,0,0:0:0:0:
192,192,72614,1,0,0:0:0:0:
320,192,72670,1,0,0:0:0:0:
64,192,72670,1,0,0:0:0:0:
448,192,72726,1,0,0:0:0:0:
192,192,72726,1,0,0:0:0:0:
448,192,72839,1,0,0:0:0:0:
64,192,72839,1,0,0:0:0:0:
320,192,72895,1,0,0:0:0:0:
192,192,72895,1,0,0:0:0:0:
448,192,72952,1,0,0:0:0:0:
64,192,72952,1,0,0:0:0:0:
320,192,73065,1,0,0:0:0:0:
64,192,73065,1,0,0:0:0:0:
448,192,73121,1,0,0:0:0:0:
192,192,73121,1,0,0:0:0:0:
320,192,73177,1,0,0:0:0:0:
64,192,73177,1,0,0:0:0:0:
192,192,73234,1,0,0:0:0:0:
320,192,73290,1,0,0:0:0:0:
448,192,73347,1,0,0:0:0:0:
64,192,73403,1,0,0:0:0:0:
192,192,73403,1,0,0:0:0:0:
320,192,73460,1,0,0:0:0:0:
192,192,73516,1,0,0:0:0:0:
448,192,73572,1,0,0:0:0:0:
64,192,73629,1,0,0:0:0:0:
320,192,73629,1,0,0:0:0:0:
448,192,73854,1,0,0:0:0:0:
192,192,73854,1,0,0:0:0:0:
192,192,74080,1,0,0:0:0:0:
64,192,74080,1,0,0:0:0:0:
320,192,74192,1,0,0:0:0:0:
448,192,74305,1,0,0:0:0:0:
192,192,74305,1,0,0:0:0:0:
320,192,74418,1,0,0:0:0:0:
64,192,74531,1,0,0:0:0:0:
448,192,74644,1,0,0:0:0:0:
320,192,74757,1,0,0:0:0:0:
192,192,74757,1,0,0:0:0:0:
64,192,74869,1,0,0:0:0:0:
64,192,74982,1,0,0:0:0:0:
448,192,75095,1,0,0:0:0:0:
320,192,75207,1,0,0:0:0:0:
64,192,75207,1,0,0:0:0:0:
448,192,75320,1,0,0:0:0:0:
192,192,75433,1,0,0:0:0:0:
320,192,75546,1,0,0:0:0:0:
64,192,75659,1,0,0:0:0:0:
448,192,75659,1,0,0:0:0:0:
320,192,75772,1,0,0:0:0:0:
64,192,75772,1,0,0:0:0:0:
192,192,75884,1,0,0:0:0:0:
64,192,75884,1,0,0:0:0:0:
448,192,76110,1,0,0:0:0:0:
448,192,76166,1,0,0:0:0:0:
192,192,76222,1,0,0:0:0:0:
192,192,76279,1,0,0:0:0:0:
320,192,76335,1,0,0:0:0:0:
320,192,76448,1,0,0:0:0:0:
320,192,76561,1,0,0:0:0:0:
64,192,76561,1,0,0:0:0:0:
448,192,76674,1,0,0:0:0:0:
320,192,76674,1,0,0:0:0:0:
64,192,76787,1,0,0:0:0:0:
192,192,76787,1,0,0:0:0:0:
192,192,76900,1,0,0:0:0:0:
320,192,76900,1,0,0:0:0:0:
448,192,77012,1,0,0:0:0:0:
320,192,77012,1,0,0:0:0:0:
64,192,77125,1,0,0:0:0:0:
448,192,77125,1,0,0:0:0:0:
192,192,77237,1,0,0:0:0:0:
320,192,77237,1,0,0:0:0:0:
448,192,77463,128,0,77576:0:0:0:0:
64,192,77463,1,0,0:0:0:0:
192,192,77689,1,0,0:0:0:0:
320,192,77689,128,0,78027:0:0:0:0:
64,192,77915,1,0,0:0:0:0:
192,192,78027,128,0,78140:0:0:0:0:
320,192,78140,128,0,78478:0:0:0:0:
192,192,78478,128,0,78591:0:0:0:0:
448,192,78591,128,0,78817:0:0:0:0:
64,192,78647,1,0,0:0:0:0:
192,192,78704,1,0,0:0:0:0:
320,192,78817,128,0,79042:0:0:0:0:
192,192,79042,128,0,79267:0:0:0:0:
64,192,79098,1,0,0:0:0:0:
448,192,79155,1,0,0:0:0:0:
64,192,79267,128,0,79493:0:0:0:0:
192,192,79493,128,0,79719:0:0:0:0:
448,192,79606,1,0,0:0:0:0:
320,192,79719,128,0,79945:0:0:0:0:
64,192,79832,1,0,0:0:0:0:
192,192,79945,128,0,80170:0:0:0:0:
320,192,80170,128,0,80395:0:0:0:0:
448,192,80282,1,0,0:0:0:0:
192,192,80282,1,0,0:0:0:0:
64,192,80395,128,0,80734:0:0:0:0:
448,192,80734,5,0,0:0:0:0:
192,192,80734,1,0,0:0:0:0:
448,192,80960,1,0,0:0:0:0:
192,192,80960,1,0,0:0:0:0:
448,192,81185,1,0,0:0:0:0:
192,192,81185,1,0,0:0:0:0:
320,192,81297,128,0,81636:0:0:0:0:
192,192,81636,128,0,81749:0:0:0:0:
448,192,81749,1,0,0:0:0:0:
320,192,81749,128,0,82087:0:0:0:0:
448,192,81862,1,0,0:0:0:0:
64,192,82087,128,0,82200:0:0:0:0:
448,192,82200,128,0,82425:0:0:0:0:
192,192,82312,1,0,0:0:0:0:
64,192,82425,128,0,82651:0:0:0:0:
320,192,82538,1,0,0:0:0:0:
192,192,82651,128,0,82877:0:0:0:0:
448,192,82764,1,0,0:0:0:0:
64,192,82764,1,0,0:0:0:0:
320,192,82877,128,0,83102:0:0:0:0:
448,192,83102,128,0,83328:0:0:0:0:
64,192,83215,1,0,0:0:0:0:
320,192,83215,1,0,0:0:0:0:
192,192,83328,128,0,83553:0:0:0:0:
320,192,83553,128,0,83779:0:0:0:0:
64,192,83666,1,0,0:0:0:0:
192,192,83666,1,0,0:0:0:0:
448,192,83779,128,0,84005:0:0:0:0:
64,192,83892,1,0,0:0:0:0:
192,192,83892,1,0,0:0:0:0:
320,192,84005,128,0,84230:0:0:0:0:
64,192,84343,1,0,0:0:0:0:
192,192,84343,1,0,0:0:0:0:
320,192,84455,128,0,84681:0:0:0:0:
192,192,84455,1,0,0:0:0:0:
64,192,84455,1,0,0:0:0:0:
448,192,84681,128,0,84907:0:0:0:0:
192,192,84681,1,0,0:0:0:0:
64,192,84737,1,0,0:0:0:0:
192,192,84794,1,0,0:0:0:0:
64,192,84850,1,0,0:0:0:0:
320,192,84907,128,0,85583:0:0:0:0:
192,192,84907,1,0,0:0:0:0:
64,192,84963,1,0,0:0:0:0:
448,192,85020,1,0,0:0:0:0:
192,192,85076,1,0,0:0:0:0:
64,192,85132,1,0,0:0:0:0:
192,192,85189,1,0,0:0:0:0:
448,192,85245,1,0,0:0:0:0:
64,192,85302,1,0,0:0:0:0:
448,192,85358,1,0,0:0:0:0:
192,192,85415,1,0,0:0:0:0:
448,192,85471,1,0,0:0:0:0:
192,192,85527,1,0,0:0:0:0:
64,192,85583,1,0,0:0:0:0:
192,192,85640,1,0,0:0:0:0:
320,192,85696,1,0,0:0:0:0:
448,192,85696,1,0,0:0:0:0:
64,192,85752,1,0,0:0:0:0:
448,192,85809,1,0,0:0:0:0:
192,192,85865,1,0,0:0:0:0:
448,192,85922,1,0,0:0:0:0:
192,192,85978,1,0,0:0:0:0:
448,192,86035,1,0,0:0:0:0:
192,192,86091,1,0,0:0:0:0:
448,192,86147,1,0,0:0:0:0:
192,192,86204,1,0,0:0:0:0:
448,192,86260,128,0,86486:0:0:0:0:
64,192,86486,128,0,86711:0:0:0:0:
192,192,86542,1,0,0:0:0:0:
320,192,86598,1,0,0:0:0:0:
448,192,86655,1,0,0:0:0:0:
320,192,86711,1,0,0:0:0:0:
192,192,86711,1,0,0:0:0:0:
448,192,86767,1,0,0:0:0:0:
64,192,86824,1,0,0:0:0:0:
192,192,86824,1,0,0:0:0:0:
320,192,86880,1,0,0:0:0:0:
448,192,86937,1,0,0:0:0:0:
192,192,86937,1,0,0:0:0:0:
64,192,86993,1,0,0:0:0:0:
448,192,87050,1,0,0:0:0:0:
320,192,87050,1,0,0:0:0:0:
192,192,87106,1,0,0:0:0:0:
320,192,87162,1,0,0:0:0:0:
64,192,87162,1,0,0:0:0:0:
192,192,87219,1,0,0:0:0:0:
448,192,87275,1,0,0:0:0:0:
64,192,87275,1,0,0:0:0:0:
320,192,87332,1,0,0:0:0:0:
192,192,87388,1,0,0:0:0:0:
64,192,87388,1,0,0:0:0:0:
320,192,87445,1,0,0:0:0:0:
448,192,87501,1,0,0:0:0:0:
192,192,87501,1,0,0:0:0:0:
64,192,87557,1,0,0:0:0:0:
320,192,87614,1,0,0:0:0:0:
192,192,87614,1,0,0:0:0:0:
448,192,87670,1,0,0:0:0:0:
64,192,87726,1,0,0:0:0:0:
192,192,87726,1,0,0:0:0:0:
320,192,87782,1,0,0:0:0:0:
448,192,87839,1,0,0:0:0:0:
192,192,87839,1,0,0:0:0:0:
64,192,87895,1,0,0:0:0:0:
448,192,87952,1,0,0:0:0:0:
320,192,87952,1,0,0:0:0:0:
192,192,88008,1,0,0:0:0:0:
320,192,88065,1,0,0:0:0:0:
64,192,88065,1,0,0:0:0:0:
192,192,88121,1,0,0:0:0:0:
320,192,88177,1,0,0:0:0:0:
448,192,88234,1,0,0:0:0:0:
64,192,88290,1,0,0:0:0:0:
192,192,88290,1,0,0:0:0:0:
320,192,88347,1,0,0:0:0:0:
192,192,88403,1,0,0:0:0:0:
64,192,88403,1,0,0:0:0:0:
320,192,88460,1,0,0:0:0:0:
192,192,88516,1,0,0:0:0:0:
64,192,88516,1,0,0:0:0:0:
448,192,88516,1,0,0:0:0:0:
320,192,88572,1,0,0:0:0:0:
192,192,88629,1,0,0:0:0:0:
64,192,88685,1,0,0:0:0:0:
192,192,88741,1,0,0:0:0:0:
320,192,88741,1,0,0:0:0:0:
448,192,88741,1,0,0:0:0:0:
64,192,88797,1,0,0:0:0:0:
320,192,88854,1,0,0:0:0:0:
192,192,88910,1,0,0:0:0:0:
448,192,88967,1,0,0:0:0:0:
320,192,88967,1,0,0:0:0:0:
64,192,88967,1,0,0:0:0:0:
192,192,89023,1,0,0:0:0:0:
320,192,89080,1,0,0:0:0:0:
448,192,89136,1,0,0:0:0:0:
320,192,89192,1,0,0:0:0:0:
192,192,89192,1,0,0:0:0:0:
64,192,89192,1,0,0:0:0:0:
448,192,89249,1,0,0:0:0:0:
320,192,89305,1,0,0:0:0:0:
192,192,89362,1,0,0:0:0:0:
448,192,89418,1,0,0:0:0:0:
320,192,89418,1,0,0:0:0:0:
64,192,89418,1,0,0:0:0:0:
192,192,89475,1,0,0:0:0:0:
320,192,89531,1,0,0:0:0:0:
448,192,89587,1,0,0:0:0:0:
192,192,89644,1,0,0:0:0:0:
320,192,89700,1,0,0:0:0:0:
192,192,89757,1,0,0:0:0:0:
64,192,89757,1,0,0:0:0:0:
448,192,89757,1,0,0:0:0:0:
320,192,89812,1,0,0:0:0:0:
192,192,89869,1,0,0:0:0:0:
64,192,89925,1,0,0:0:0:0:
320,192,89982,1,0,0:0:0:0:
192,192,90038,1,0,0:0:0:0:
448,192,90095,1,0,0:0:0:0:
320,192,90151,1,0,0:0:0:0:
192,192,90207,1,0,0:0:0:0:
64,192,90264,1,0,0:0:0:0:
448,192,90320,1,0,0:0:0:0:
320,192,90320,1,0,0:0:0:0:
192,192,90320,1,0,0:0:0:0:
64,192,90377,1,0,0:0:0:0:
192,192,90433,1,0,0:0:0:0:
320,192,90433,1,0,0:0:0:0:
448,192,90490,1,0,0:0:0:0:
64,192,90546,1,0,0:0:0:0:
320,192,90546,1,0,0:0:0:0:
192,192,90602,1,0,0:0:0:0:
448,192,90659,1,0,0:0:0:0:
320,192,90659,1,0,0:0:0:0:
64,192,90715,1,0,0:0:0:0:
448,192,90772,1,0,0:0:0:0:
192,192,90772,1,0,0:0:0:0:
320,192,90828,1,0,0:0:0:0:
192,192,90884,1,0,0:0:0:0:
64,192,90884,1,0,0:0:0:0:
448,192,90940,1,0,0:0:0:0:
320,192,90997,1,0,0:0:0:0:
192,192,90997,1,0,0:0:0:0:
448,192,91053,1,0,0:0:0:0:
64,192,91110,1,0,0:0:0:0:
320,192,91110,1,0,0:0:0:0:
192,192,91166,1,0,0:0:0:0:
448,192,91222,1,0,0:0:0:0:
64,192,91222,1,0,0:0:0:0:
320,192,91279,1,0,0:0:0:0:
192,192,91335,1,0,0:0:0:0:
64,192,91335,1,0,0:0:0:0:
448,192,91392,1,0,0:0:0:0:
320,192,91448,1,0,0:0:0:0:
64,192,91448,1,0,0:0:0:0:
192,192,91505,1,0,0:0:0:0:
448,192,91561,1,0,0:0:0:0:
320,192,91561,1,0,0:0:0:0:
192,192,91617,1,0,0:0:0:0:
64,192,91674,1,0,0:0:0:0:
448,192,91674,1,0,0:0:0:0:
320,192,91730,1,0,0:0:0:0:
192,192,91787,1,0,0:0:0:0:
64,192,91843,1,0,0:0:0:0:
448,192,91900,1,0,0:0:0:0:
320,192,91900,1,0,0:0:0:0:
192,192,91955,1,0,0:0:0:0:
448,192,92012,1,0,0:0:0:0:
320,192,92012,1,0,0:0:0:0:
192,192,92068,1,0,0:0:0:0:
448,192,92125,1,0,0:0:0:0:
320,192,92125,1,0,0:0:0:0:
64,192,92125,1,0,0:0:0:0:
192,192,92181,1,0,0:0:0:0:
64,192,92237,1,0,0:0:0:0:
320,192,92294,1,0,0:0:0:0:
448,192,92350,1,0,0:0:0:0:
192,192,92350,1,0,0:0:0:0:
64,192,92350,1,0,0:0:0:0:
320,192,92407,1,0,0:0:0:0:
192,192,92463,1,0,0:0:0:0:
64,192,92520,1,0,0:0:0:0:
448,192,92576,1,0,0:0:0:0:
320,192,92576,1,0,0:0:0:0:
192,192,92576,1,0,0:0:0:0:
64,192,92632,1,0,0:0:0:0:
448,192,92689,1,0,0:0:0:0:
192,192,92745,1,0,0:0:0:0:
448,192,92802,1,0,0:0:0:0:
320,192,92802,1,0,0:0:0:0:
64,192,92802,1,0,0:0:0:0:
192,192,92858,1,0,0:0:0:0:
320,192,92915,1,0,0:0:0:0:
448,192,92971,5,0,0:0:0:0:
320,192,93027,1,0,0:0:0:0:
192,192,93027,1,0,0:0:0:0:
64,192,93027,1,0,0:0:0:0:
448,192,93083,1,0,0:0:0:0:
192,192,93140,1,0,0:0:0:0:
320,192,93196,1,0,0:0:0:0:
64,192,93252,1,0,0:0:0:0:
192,192,93309,1,0,0:0:0:0:
448,192,93365,1,0,0:0:0:0:
320,192,93365,1,0,0:0:0:0:
64,192,93365,1,0,0:0:0:0:
192,192,93422,1,0,0:0:0:0:
448,192,93478,1,0,0:0:0:0:
320,192,93478,1,0,0:0:0:0:
64,192,93478,1,0,0:0:0:0:
192,192,93535,1,0,0:0:0:0:
320,192,93591,1,0,0:0:0:0:
448,192,93647,1,0,0:0:0:0:
64,192,93704,1,0,0:0:0:0:
320,192,93760,1,0,0:0:0:0:
192,192,93817,1,0,0:0:0:0:
448,192,93873,1,0,0:0:0:0:
320,192,93930,1,0,0:0:0:0:
192,192,93930,1,0,0:0:0:0:
64,192,93930,1,0,0:0:0:0:
448,192,93986,1,0,0:0:0:0:
320,192,94042,1,0,0:0:0:0:
64,192,94042,1,0,0:0:0:0:
192,192,94098,1,0,0:0:0:0:
448,192,94155,1,0,0:0:0:0:
320,192,94155,1,0,0:0:0:0:
64,192,94211,1,0,0:0:0:0:
320,192,94267,1,0,0:0:0:0:
192,192,94267,1,0,0:0:0:0:
64,192,94324,1,0,0:0:0:0:
448,192,94380,1,0,0:0:0:0:
192,192,94380,1,0,0:0:0:0:
320,192,94437,1,0,0:0:0:0:
64,192,94493,1,0,0:0:0:0:
192,192,94493,1,0,0:0:0:0:
448,192,94550,1,0,0:0:0:0:
320,192,94606,1,0,0:0:0:0:
64,192,94606,1,0,0:0:0:0:
192,192,94662,1,0,0:0:0:0:
448,192,94719,1,0,0:0:0:0:
320,192,94719,1,0,0:0:0:0:
192,192,94775,1,0,0:0:0:0:
448,192,94832,1,0,0:0:0:0:
64,192,94832,1,0,0:0:0:0:
320,192,94888,1,0,0:0:0:0:
192,192,94945,1,0,0:0:0:0:
448,192,94945,1,0,0:0:0:0:
320,192,95001,1,0,0:0:0:0:
192,192,95057,1,0,0:0:0:0:
64,192,95057,1,0,0:0:0:0:
448,192,95114,1,0,0:0:0:0:
320,192,95170,1,0,0:0:0:0:
192,192,95170,1,0,0:0:0:0:
64,192,95226,1,0,0:0:0:0:
448,192,95282,1,0,0:0:0:0:
320,192,95282,1,0,0:0:0:0:
192,192,95339,1,0,0:0:0:0:
64,192,95395,1,0,0:0:0:0:
192,192,95452,1,0,0:0:0:0:
320,192,95508,1,0,0:0:0:0:
64,192,95508,1,0,0:0:0:0:
448,192,95565,1,0,0:0:0:0:
320,192,95621,1,0,0:0:0:0:
64,192,95621,1,0,0:0:0:0:
448,192,95677,1,0,0:0:0:0:
320,192,95734,1,0,0:0:0:0:
64,192,95734,1,0,0:0:0:0:
192,192,95734,1,0,0:0:0:0:
448,192,95790,1,0,0:0:0:0:
192,192,95847,1,0,0:0:0:0:
320,192,95903,1,0,0:0:0:0:
448,192,95960,1,0,0:0:0:0:
192,192,95960,1,0,0:0:0:0:
64,192,95960,1,0,0:0:0:0:
320,192,96016,1,0,0:0:0:0:
192,192,96072,1,0,0:0:0:0:
64,192,96129,1,0,0:0:0:0:
448,192,96185,1,0,0:0:0:0:
320,192,96185,1,0,0:0:0:0:
192,192,96185,1,0,0:0:0:0:
64,192,96241,1,0,0:0:0:0:
448,192,96297,1,0,0:0:0:0:
192,192,96354,1,0,0:0:0:0:
448,192,96410,1,0,0:0:0:0:
320,192,96410,1,0,0:0:0:0:
64,192,96410,1,0,0:0:0:0:
192,192,96467,1,0,0:0:0:0:
320,192,96523,1,0,0:0:0:0:
448,192,96580,1,0,0:0:0:0:
320,192,96636,1,0,0:0:0:0:
192,192,96636,1,0,0:0:0:0:
64,192,96636,1,0,0:0:0:0:
448,192,96692,1,0,0:0:0:0:
64,192,96749,1,0,0:0:0:0:
192,192,96805,1,0,0:0:0:0:
320,192,96862,1,0,0:0:0:0:
448,192,96918,1,0,0:0:0:0:
320,192,96975,1,0,0:0:0:0:
192,192,96975,1,0,0:0:0:0:
64,192,96975,1,0,0:0:0:0:
448,192,97031,1,0,0:0:0:0:
192,192,97087,1,0,0:0:0:0:
320,192,97144,1,0,0:0:0:0:
192,192,97200,1,0,0:0:0:0:
64,192,97257,1,0,0:0:0:0:
448,192,97312,1,0,0:0:0:0:
320,192,97369,1,0,0:0:0:0:
192,192,97425,1,0,0:0:0:0:
64,192,97482,1,0,0:0:0:0:
448,192,97538,1,0,0:0:0:0:
320,192,97538,1,0,0:0:0:0:
192,192,97538,1,0,0:0:0:0:
64,192,97595,1,0,0:0:0:0:
448,192,97651,1,0,0:0:0:0:
192,192,97651,1,0,0:0:0:0:
320,192,97707,1,0,0:0:0:0:
192,192,97764,1,0,0:0:0:0:
64,192,97764,1,0,0:0:0:0:
448,192,97820,1,0,0:0:0:0:
320,192,97877,1,0,0:0:0:0:
192,192,97877,1,0,0:0:0:0:
64,192,97933,1,0,0:0:0:0:
448,192,97990,1,0,0:0:0:0:
320,192,97990,1,0,0:0:0:0:
192,192,98046,1,0,0:0:0:0:
320,192,98102,1,0,0:0:0:0:
64,192,98102,1,0,0:0:0:0:
448,192,98159,1,0,0:0:0:0:
64,192,98215,1,0,0:0:0:0:
192,192,98215,1,0,0:0:0:0:
320,192,98272,1,0,0:0:0:0:
448,192,98328,1,0,0:0:0:0:
192,192,98328,1,0,0:0:0:0:
64,192,98384,1,0,0:0:0:0:
448,192,98440,1,0,0:0:0:0:
320,192,98440,1,0,0:0:0:0:
192,192,98497,1,0,0:0:0:0:
64,192,98553,1,0,0:0:0:0:
320,192,98553,1,0,0:0:0:0:
448,192,98610,1,0,0:0:0:0:
192,192,98666,1,0,0:0:0:0:
64,192,98666,1,0,0:0:0:0:
320,192,98722,1,0,0:0:0:0:
448,192,98779,1,0,0:0:0:0:
192,192,98779,1,0,0:0:0:0:
64,192,98835,1,0,0:0:0:0:
320,192,98892,1,0,0:0:0:0:
192,192,98892,1,0,0:0:0:0:
64,192,98948,1,0,0:0:0:0:
320,192,99005,1,0,0:0:0:0:
448,192,99061,1,0,0:0:0:0:
192,192,99117,1,0,0:0:0:0:
64,192,99117,1,0,0:0:0:0:
320,192,99174,1,0,0:0:0:0:
192,192,99230,1,0,0:0:0:0:
64,192,99230,1,0,0:0:0:0:
448,192,99287,1,0,0:0:0:0:
192,192,99343,1,0,0:0:0:0:
64,192,99343,1,0,0:0:0:0:
320,192,99343,1,0,0:0:0:0:
192,192,99455,1,0,0:0:0:0:
64,192,99455,1,0,0:0:0:0:
320,192,99455,1,0,0:0:0:0:
192,192,99681,1,0,0:0:0:0:
320,192,99737,1,0,0:0:0:0:
448,192,99794,1,0,0:0:0:0:
192,192,99794,1,0,0:0:0:0:
64,192,99794,1,0,0:0:0:0:
64,192,99907,1,0,0:0:0:0:
192,192,99907,1,0,0:0:0:0:
448,192,99907,1,0,0:0:0:0:
448,192,100132,1,0,0:0:0:0:
320,192,100132,1,0,0:0:0:0:
192,192,100245,5,0,0:0:0:0:
64,192,100245,1,0,0:0:0:0:
320,192,100358,1,0,0:0:0:0:
192,192,100358,1,0,0:0:0:0:
192,192,100471,1,0,0:0:0:0:
64,192,100471,1,0,0:0:0:0:
448,192,100583,1,0,0:0:0:0:
320,192,100583,1,0,0:0:0:0:
64,192,100696,1,0,0:0:0:0:
320,192,100696,1,0,0:0:0:0:
448,192,100922,128,0,101147:0:0:0:0:
192,192,100922,1,0,0:0:0:0:
320,192,101147,1,0,0:0:0:0:
64,192,101147,1,0,0:0:0:0:
192,192,101175,1,0,0:0:0:0:
448,192,101260,1,0,0:0:0:0:
64,192,101373,1,0,0:0:0:0:
192,192,101373,1,0,0:0:0:0:
320,192,101401,1,0,0:0:0:0:
64,192,101486,1,0,0:0:0:0:
448,192,101598,1,0,0:0:0:0:
192,192,101598,1,0,0:0:0:0:
64,192,101627,1,0,0:0:0:0:
320,192,101711,1,0,0:0:0:0:
448,192,101711,1,0,0:0:0:0:
64,192,101824,1,0,0:0:0:0:
448,192,101937,1,0,0:0:0:0:
192,192,101937,1,0,0:0:0:0:
320,192,102050,1,0,0:0:0:0:
64,192,102050,1,0,0:0:0:0:
448,192,102162,1,0,0:0:0:0:
320,192,102162,1,0,0:0:0:0:
64,192,102275,1,0,0:0:0:0:
192,192,102275,1,0,0:0:0:0:
448,192,102388,1,0,0:0:0:0:
320,192,102388,1,0,0:0:0:0:
192,192,102501,1,0,0:0:0:0:
192,192,102614,1,0,0:0:0:0:
64,192,102670,1,0,0:0:0:0:
320,192,102726,1,0,0:0:0:0:
320,192,102839,1,0,0:0:0:0:
448,192,102952,1,0,0:0:0:0:
192,192,102952,1,0,0:0:0:0:
64,192,102980,1,0,0:0:0:0:
192,192,103065,1,0,0:0:0:0:
448,192,103177,1,0,0:0:0:0:
320,192,103177,1,0,0:0:0:0:
192,192,103205,1,0,0:0:0:0:
64,192,103290,1,0,0:0:0:0:
448,192,103403,1,0,0:0:0:0:
192,192,103403,1,0,0:0:0:0:
320,192,103431,1,0,0:0:0:0:
64,192,103516,1,0,0:0:0:0:
192,192,103516,1,0,0:0:0:0:
448,192,103629,1,0,0:0:0:0:
192,192,103741,1,0,0:0:0:0:
320,192,103741,1,0,0:0:0:0:
448,192,103854,1,0,0:0:0:0:
64,192,103854,1,0,0:0:0:0:
320,192,103967,1,0,0:0:0:0:
64,192,103967,1,0,0:0:0:0:
448,192,104080,1,0,0:0:0:0:
192,192,104080,1,0,0:0:0:0:
320,192,104192,1,0,0:0:0:0:
64,192,104192,1,0,0:0:0:0:
192,192,104305,1,0,0:0:0:0:
192,192,104418,1,0,0:0:0:0:
320,192,104475,1,0,0:0:0:0:
64,192,104531,1,0,0:0:0:0:
448,192,104644,1,0,0:0:0:0:
64,192,104757,1,0,0:0:0:0:
192,192,104757,1,0,0:0:0:0:
320,192,104785,1,0,0:0:0:0:
192,192,104869,1,0,0:0:0:0:
448,192,104982,1,0,0:0:0:0:
64,192,104982,1,0,0:0:0:0:
320,192,105010,1,0,0:0:0:0:
192,192,105095,1,0,0:0:0:0:
320,192,105207,1,0,0:0:0:0:
64,192,105207,1,0,0:0:0:0:
192,192,105236,1,0,0:0:0:0:
448,192,105320,1,0,0:0:0:0:
320,192,105320,1,0,0:0:0:0:
64,192,105433,1,0,0:0:0:0:
320,192,105546,1,0,0:0:0:0:
192,192,105546,1,0,0:0:0:0:
448,192,105659,1,0,0:0:0:0:
320,192,105659,1,0,0:0:0:0:
64,192,105772,1,0,0:0:0:0:
192,192,105772,1,0,0:0:0:0:
448,192,105884,1,0,0:0:0:0:
192,192,105884,1,0,0:0:0:0:
320,192,105997,1,0,0:0:0:0:
64,192,105997,1,0,0:0:0:0:
320,192,106110,1,0,0:0:0:0:
448,192,106110,1,0,0:0:0:0:
64,192,106222,128,0,106335:0:0:0:0:
320,192,106222,128,0,106335:0:0:0:0:
192,192,106335,1,0,0:0:0:0:
320,192,106448,128,0,106561:0:0:0:0:
64,192,106448,128,0,106561:0:0:0:0:
192,192,106561,1,0,0:0:0:0:
448,192,106589,1,0,0:0:0:0:
64,192,106674,1,0,0:0:0:0:
448,192,106787,1,0,0:0:0:0:
192,192,106787,1,0,0:0:0:0:
320,192,106815,1,0,0:0:0:0:
448,192,106900,1,0,0:0:0:0:
64,192,107012,1,0,0:0:0:0:
192,192,107012,1,0,0:0:0:0:
320,192,107040,1,0,0:0:0:0:
448,192,107125,1,0,0:0:0:0:
192,192,107237,1,0,0:0:0:0:
320,192,107350,1,0,0:0:0:0:
448,192,107350,1,0,0:0:0:0:
64,192,107463,1,0,0:0:0:0:
192,192,107463,1,0,0:0:0:0:
320,192,107491,1,0,0:0:0:0:
192,192,107576,1,0,0:0:0:0:
448,192,107576,1,0,0:0:0:0:
320,192,107689,1,0,0:0:0:0:
64,192,107689,1,0,0:0:0:0:
448,192,107717,1,0,0:0:0:0:
320,192,107802,1,0,0:0:0:0:
192,192,107802,1,0,0:0:0:0:
64,192,107915,1,0,0:0:0:0:
448,192,108027,1,0,0:0:0:0:
320,192,108027,1,0,0:0:0:0:
192,192,108083,1,0,0:0:0:0:
64,192,108140,1,0,0:0:0:0:
448,192,108140,1,0,0:0:0:0:
64,192,108252,1,0,0:0:0:0:
448,192,108252,1,0,0:0:0:0:
320,192,108337,1,0,0:0:0:0:
448,192,108365,128,0,108591:0:0:0:0:
192,192,108478,1,0,0:0:0:0:
64,192,108478,1,0,0:0:0:0:
320,192,108675,1,0,0:0:0:0:
448,192,108704,128,0,109042:0:0:0:0:
192,192,108930,1,0,0:0:0:0:
64,192,108930,1,0,0:0:0:0:
192,192,109042,1,0,0:0:0:0:
320,192,109155,1,0,0:0:0:0:
64,192,109155,1,0,0:0:0:0:
448,192,109267,1,0,0:0:0:0:
320,192,109324,1,0,0:0:0:0:
192,192,109380,1,0,0:0:0:0:
64,192,109437,1,0,0:0:0:0:
448,192,109493,1,0,0:0:0:0:
64,192,109550,1,0,0:0:0:0:
320,192,109606,1,0,0:0:0:0:
192,192,109662,1,0,0:0:0:0:
448,192,109719,1,0,0:0:0:0:
192,192,109775,1,0,0:0:0:0:
320,192,109832,1,0,0:0:0:0:
64,192,109888,1,0,0:0:0:0:
448,192,109945,1,0,0:0:0:0:
192,192,110001,1,0,0:0:0:0:
320,192,110057,1,0,0:0:0:0:
192,192,110114,1,0,0:0:0:0:
448,192,110170,128,0,110339:0:0:0:0:
320,192,110226,128,0,110395:0:0:0:0:
192,192,110282,128,0,110452:0:0:0:0:
64,192,110339,128,0,110508:0:0:0:0:
448,192,110395,128,0,110565:0:0:0:0:
320,192,110452,128,0,110621:0:0:0:0:
192,192,110508,128,0,110677:0:0:0:0:
64,192,110565,128,0,110734:0:0:0:0:
448,192,110621,128,0,110790:0:0:0:0:
320,192,110677,128,0,110847:0:0:0:0:
192,192,110734,128,0,110903:0:0:0:0:
64,192,110790,128,0,110960:0:0:0:0:
448,192,110847,128,0,111016:0:0:0:0:
320,192,110903,128,0,111016:0:0:0:0:
192,192,110960,128,0,111016:0:0:0:0:
64,192,111016,1,0,0:0:0:0:
448,192,111072,1,0,0:0:0:0:
320,192,111072,1,0,0:0:0:0:
192,192,111129,1,0,0:0:0:0:
64,192,111185,1,0,0:0:0:0:
64,192,111241,1,0,0:0:0:0:
320,192,111297,1,0,0:0:0:0:
448,192,111297,1,0,0:0:0:0:
192,192,111354,1,0,0:0:0:0:
320,192,111410,1,0,0:0:0:0:
192,192,111467,1,0,0:0:0:0:
448,192,111523,1,0,0:0:0:0:
320,192,111523,1,0,0:0:0:0:
64,192,111580,1,0,0:0:0:0:
448,192,111636,1,0,0:0:0:0:
448,192,111692,1,0,0:0:0:0:
192,192,111749,1,0,0:0:0:0:
64,192,111749,1,0,0:0:0:0:
448,192,111805,1,0,0:0:0:0:
320,192,111862,1,0,0:0:0:0:
64,192,111918,1,0,0:0:0:0:
448,192,111975,1,0,0:0:0:0:
192,192,111975,1,0,0:0:0:0:
320,192,112031,1,0,0:0:0:0:
192,192,112087,1,0,0:0:0:0:
64,192,112144,1,0,0:0:0:0:
448,192,112200,1,0,0:0:0:0:
320,192,112200,1,0,0:0:0:0:
448,192,112312,1,0,0:0:0:0:
192,192,112312,1,0,0:0:0:0:
320,192,112369,1,0,0:0:0:0:
192,192,112425,1,0,0:0:0:0:
64,192,112482,1,0,0:0:0:0:
448,192,112538,1,0,0:0:0:0:
320,192,112538,1,0,0:0:0:0:
448,192,112651,1,0,0:0:0:0:
192,192,112651,1,0,0:0:0:0:
320,192,112707,1,0,0:0:0:0:
192,192,112764,1,0,0:0:0:0:
64,192,112820,1,0,0:0:0:0:
320,192,112877,1,0,0:0:0:0:
192,192,112877,1,0,0:0:0:0:
448,192,112933,1,0,0:0:0:0:
64,192,112990,1,0,0:0:0:0:
320,192,113046,1,0,0:0:0:0:
192,192,113102,1,0,0:0:0:0:
64,192,113102,1,0,0:0:0:0:
320,192,113159,1,0,0:0:0:0:
448,192,113215,1,0,0:0:0:0:
320,192,113272,1,0,0:0:0:0:
192,192,113328,1,0,0:0:0:0:
64,192,113328,1,0,0:0:0:0:
320,192,113384,1,0,0:0:0:0:
448,192,113440,1,0,0:0:0:0:
320,192,113497,1,0,0:0:0:0:
64,192,113553,1,0,0:0:0:0:
192,192,113553,1,0,0:0:0:0:
320,192,113610,1,0,0:0:0:0:
64,192,113666,1,0,0:0:0:0:
64,192,113722,1,0,0:0:0:0:
448,192,113779,1,0,0:0:0:0:
320,192,113807,1,0,0:0:0:0:
64,192,113835,1,0,0:0:0:0:
192,192,113864,1,0,0:0:0:0:
448,192,113892,1,0,0:0:0:0:
320,192,113920,1,0,0:0:0:0:
64,192,113948,1,0,0:0:0:0:
192,192,113976,1,0,0:0:0:0:
448,192,114005,1,0,0:0:0:0:
320,192,114032,1,0,0:0:0:0:
64,192,114061,1,0,0:0:0:0:
192,192,114089,1,0,0:0:0:0:
448,192,114117,1,0,0:0:0:0:
320,192,114145,1,0,0:0:0:0:
64,192,114174,1,0,0:0:0:0:
192,192,114202,1,0,0:0:0:0:
448,192,114230,1,0,0:0:0:0:
320,192,114258,1,0,0:0:0:0:
64,192,114287,1,0,0:0:0:0:
192,192,114315,1,0,0:0:0:0:
448,192,114343,1,0,0:0:0:0:
320,192,114371,1,0,0:0:0:0:
64,192,114400,1,0,0:0:0:0:
192,192,114427,1,0,0:0:0:0:
448,192,114455,1,0,0:0:0:0:
320,192,114484,1,0,0:0:0:0:
64,192,114512,1,0,0:0:0:0:
192,192,114540,1,0,0:0:0:0:
448,192,114568,1,0,0:0:0:0:
320,192,114597,1,0,0:0:0:0:
64,192,114625,1,0,0:0:0:0:
192,192,114653,1,0,0:0:0:0:
448,192,114681,1,0,0:0:0:0:
320,192,114681,1,0,0:0:0:0:
320,192,114794,1,0,0:0:0:0:
192,192,114794,1,0,0:0:0:0:
192,192,114907,1,0,0:0:0:0:
64,192,114907,1,0,0:0:0:0:
320,192,115020,1,0,0:0:0:0:
192,192,115020,1,0,0:0:0:0:
448,192,115132,1,0,0:0:0:0:
320,192,115132,1,0,0:0:0:0:
320,192,115245,1,0,0:0:0:0:
192,192,115245,1,0,0:0:0:0:
192,192,115358,1,0,0:0:0:0:
64,192,115358,1,0,0:0:0:0:
64,192,115471,1,0,0:0:0:0:
320,192,115471,1,0,0:0:0:0:
448,192,115583,1,0,0:0:0:0:
192,192,115583,1,0,0:0:0:0:
320,192,115583,128,0,115922:0:0:0:0:
192,192,115922,128,0,116035:0:0:0:0:
320,192,116035,128,0,116373:0:0:0:0:
192,192,116373,128,0,116486:0:0:0:0:
448,192,116486,128,0,116711:0:0:0:0:
320,192,116711,128,0,116937:0:0:0:0:
192,192,116937,128,0,117162:0:0:0:0:
64,192,117162,128,0,117388:0:0:0:0:
192,192,117388,128,0,117614:0:0:0:0:
320,192,117614,128,0,117839:0:0:0:0:
64,192,117839,128,0,118065:0:0:0:0:
448,192,118065,128,0,118290:0:0:0:0:
192,192,118177,1,0,0:0:0:0:
320,192,118177,1,0,0:0:0:0:
64,192,118290,128,0,118516:0:0:0:0:
448,192,118629,1,0,0:0:0:0:
320,192,118629,1,0,0:0:0:0:
448,192,118854,1,0,0:0:0:0:
320,192,118854,1,0,0:0:0:0:
448,192,119080,1,0,0:0:0:0:
320,192,119080,1,0,0:0:0:0:
192,192,119192,128,0,119531:0:0:0:0:
64,192,119531,128,0,119644:0:0:0:0:
448,192,119531,1,0,0:0:0:0:
192,192,119644,128,0,119982:0:0:0:0:
64,192,119982,128,0,120095:0:0:0:0:
448,192,119982,1,0,0:0:0:0:
320,192,120095,128,0,120320:0:0:0:0:
448,192,120207,1,0,0:0:0:0:
192,192,120320,128,0,120546:0:0:0:0:
320,192,120433,1,0,0:0:0:0:
64,192,120546,128,0,120772:0:0:0:0:
448,192,120659,1,0,0:0:0:0:
192,192,120659,1,0,0:0:0:0:
320,192,120772,128,0,120997:0:0:0:0:
64,192,120884,1,0,0:0:0:0:
448,192,120997,128,0,121222:0:0:0:0:
320,192,121110,1,0,0:0:0:0:
192,192,121110,1,0,0:0:0:0:
64,192,121222,128,0,121448:0:0:0:0:
192,192,121448,128,0,121674:0:0:0:0:
448,192,121561,1,0,0:0:0:0:
64,192,121561,1,0,0:0:0:0:
320,192,121674,128,0,121900:0:0:0:0:
64,192,121787,1,0,0:0:0:0:
192,192,121787,1,0,0:0:0:0:
448,192,121900,128,0,122125:0:0:0:0:
192,192,122012,1,0,0:0:0:0:
64,192,122125,1,0,0:0:0:0:
192,192,122237,1,0,0:0:0:0:
64,192,122237,1,0,0:0:0:0:
320,192,122350,128,0,122576:0:0:0:0:
192,192,122350,1,0,0:0:0:0:
64,192,122350,1,0,0:0:0:0:
448,192,122576,128,0,122802:0:0:0:0:
192,192,122576,1,0,0:0:0:0:
64,192,122632,1,0,0:0:0:0:
192,192,122689,1,0,0:0:0:0:
64,192,122745,1,0,0:0:0:0:
192,192,122802,128,0,123478:0:0:0:0:
320,192,122858,1,0,0:0:0:0:
448,192,122915,1,0,0:0:0:0:
320,192,122971,1,0,0:0:0:0:
64,192,123027,1,0,0:0:0:0:
448,192,123083,1,0,0:0:0:0:
320,192,123140,1,0,0:0:0:0:
448,192,123196,1,0,0:0:0:0:
64,192,123252,1,0,0:0:0:0:
320,192,123309,1,0,0:0:0:0:
448,192,123365,1,0,0:0:0:0:
320,192,123422,1,0,0:0:0:0:
64,192,123478,1,0,0:0:0:0:
192,192,123535,1,0,0:0:0:0:
320,192,123591,1,0,0:0:0:0:
192,192,123647,1,0,0:0:0:0:
64,192,123704,1,0,0:0:0:0:
448,192,123704,1,0,0:0:0:0:
320,192,123760,1,0,0:0:0:0:
192,192,123760,1,0,0:0:0:0:
448,192,123817,1,0,0:0:0:0:
64,192,123817,1,0,0:0:0:0:
320,192,123873,1,0,0:0:0:0:
192,192,123873,1,0,0:0:0:0:
448,192,123930,1,0,0:0:0:0:
64,192,123930,1,0,0:0:0:0:
320,192,123986,1,0,0:0:0:0:
192,192,123986,1,0,0:0:0:0:
448,192,124042,1,0,0:0:0:0:
64,192,124042,1,0,0:0:0:0:
320,192,124098,1,0,0:0:0:0:
192,192,124098,1,0,0:0:0:0:
448,192,124155,128,0,124606:0:0:0:0:
64,192,124155,128,0,124606:0:0:0:0:
64,192,125057,1,0,0:0:0:0:
448,192,125057,1,0,0:0:0:0:
192,192,125057,1,0,0:0:0:0:
320,192,125170,1,0,0:0:0:0:
192,192,125226,1,0,0:0:0:0:
320,192,125282,1,0,0:0:0:0:
448,192,125282,1,0,0:0:0:0:
64,192,125339,1,0,0:0:0:0:
320,192,125395,1,0,0:0:0:0:
192,192,125452,1,0,0:0:0:0:
64,192,125508,1,0,0:0:0:0:
320,192,125508,1,0,0:0:0:0:
448,192,125508,1,0,0:0:0:0:
192,192,125565,1,0,0:0:0:0:
448,192,125621,1,0,0:0:0:0:
320,192,125621,1,0,0:0:0:0:
64,192,125677,1,0,0:0:0:0:
320,192,125734,1,0,0:0:0:0:
192,192,125734,1,0,0:0:0:0:
448,192,125790,1,0,0:0:0:0:
320,192,125847,1,0,0:0:0:0:
64,192,125847,1,0,0:0:0:0:
192,192,125903,1,0,0:0:0:0:
448,192,125960,1,0,0:0:0:0:
64,192,125960,1,0,0:0:0:0:
320,192,126016,1,0,0:0:0:0:
192,192,126072,1,0,0:0:0:0:
64,192,126072,1,0,0:0:0:0:
320,192,126129,1,0,0:0:0:0:
448,192,126185,1,0,0:0:0:0:
192,192,126185,1,0,0:0:0:0:
64,192,126241,1,0,0:0:0:0:
448,192,126297,1,0,0:0:0:0:
320,192,126297,1,0,0:0:0:0:
192,192,126354,1,0,0:0:0:0:
64,192,126410,1,0,0:0:0:0:
320,192,126410,1,0,0:0:0:0:
448,192,126467,1,0,0:0:0:0:
320,192,126523,1,0,0:0:0:0:
192,192,126523,1,0,0:0:0:0:
64,192,126580,1,0,0:0:0:0:
448,192,126636,1,0,0:0:0:0:
320,192,126636,1,0,0:0:0:0:
192,192,126692,1,0,0:0:0:0:
64,192,126749,1,0,0:0:0:0:
320,192,126749,1,0,0:0:0:0:
192,192,126805,1,0,0:0:0:0:
448,192,126862,1,0,0:0:0:0:
64,192,126862,1,0,0:0:0:0:
320,192,126918,1,0,0:0:0:0:
192,192,126975,1,0,0:0:0:0:
64,192,127031,1,0,0:0:0:0:
448,192,127087,1,0,0:0:0:0:
320,192,127087,1,0,0:0:0:0:
192,192,127144,1,0,0:0:0:0:
320,192,127200,1,0,0:0:0:0:
448,192,127200,1,0,0:0:0:0:
192,192,127257,1,0,0:0:0:0:
448,192,127312,1,0,0:0:0:0:
320,192,127312,1,0,0:0:0:0:
64,192,127312,1,0,0:0:0:0:
192,192,127369,1,0,0:0:0:0:
320,192,127425,1,0,0:0:0:0:
448,192,127482,1,0,0:0:0:0:
320,192,127538,1,0,0:0:0:0:
192,192,127538,1,0,0:0:0:0:
64,192,127538,1,0,0:0:0:0:
448,192,127595,1,0,0:0:0:0:
192,192,127651,1,0,0:0:0:0:
320,192,127707,1,0,0:0:0:0:
448,192,127764,1,0,0:0:0:0:
192,192,127764,1,0,0:0:0:0:
64,192,127764,1,0,0:0:0:0:
320,192,127820,1,0,0:0:0:0:
192,192,127877,1,0,0:0:0:0:
64,192,127933,1,0,0:0:0:0:
448,192,127990,1,0,0:0:0:0:
320,192,127990,1,0,0:0:0:0:
192,192,127990,1,0,0:0:0:0:
64,192,128046,1,0,0:0:0:0:
448,192,128102,1,0,0:0:0:0:
192,192,128159,1,0,0:0:0:0:
448,192,128215,1,0,0:0:0:0:
320,192,128215,1,0,0:0:0:0:
64,192,128215,1,0,0:0:0:0:
192,192,128272,1,0,0:0:0:0:
320,192,128328,1,0,0:0:0:0:
448,192,128384,1,0,0:0:0:0:
192,192,128440,1,0,0:0:0:0:
448,192,128497,1,0,0:0:0:0:
320,192,128553,1,0,0:0:0:0:
192,192,128553,1,0,0:0:0:0:
64,192,128553,1,0,0:0:0:0:
448,192,128610,1,0,0:0:0:0:
64,192,128666,1,0,0:0:0:0:
192,192,128722,1,0,0:0:0:0:
320,192,128779,1,0,0:0:0:0:
64,192,128835,1,0,0:0:0:0:
448,192,128892,1,0,0:0:0:0:
192,192,128948,1,0,0:0:0:0:
320,192,129005,1,0,0:0:0:0:
448,192,129061,1,0,0:0:0:0:
64,192,129117,1,0,0:0:0:0:
320,192,129117,1,0,0:0:0:0:
192,192,129117,1,0,0:0:0:0:
448,192,129174,1,0,0:0:0:0:
320,192,129230,1,0,0:0:0:0:
192,192,129230,1,0,0:0:0:0:
448,192,129287,1,0,0:0:0:0:
64,192,129343,1,0,0:0:0:0:
320,192,129343,1,0,0:0:0:0:
192,192,129400,1,0,0:0:0:0:
448,192,129455,1,0,0:0:0:0:
320,192,129455,1,0,0:0:0:0:
192,192,129512,1,0,0:0:0:0:
320,192,129568,1,0,0:0:0:0:
64,192,129568,1,0,0:0:0:0:
448,192,129625,1,0,0:0:0:0:
192,192,129681,1,0,0:0:0:0:
64,192,129681,1,0,0:0:0:0:
320,192,129737,1,0,0:0:0:0:
448,192,129794,1,0,0:0:0:0:
192,192,129794,1,0,0:0:0:0:
64,192,129850,1,0,0:0:0:0:
448,192,129907,1,0,0:0:0:0:
320,192,129907,1,0,0:0:0:0:
192,192,129963,1,0,0:0:0:0:
448,192,130020,1,0,0:0:0:0:
64,192,130020,1,0,0:0:0:0:
320,192,130076,1,0,0:0:0:0:
192,192,130132,1,0,0:0:0:0:
448,192,130132,1,0,0:0:0:0:
64,192,130189,1,0,0:0:0:0:
320,192,130245,1,0,0:0:0:0:
192,192,130245,1,0,0:0:0:0:
64,192,130302,1,0,0:0:0:0:
448,192,130358,1,0,0:0:0:0:
320,192,130358,1,0,0:0:0:0:
192,192,130415,1,0,0:0:0:0:
320,192,130471,1,0,0:0:0:0:
64,192,130471,1,0,0:0:0:0:
192,192,130527,1,0,0:0:0:0:
320,192,130583,1,0,0:0:0:0:
192,192,130640,1,0,0:0:0:0:
448,192,130696,1,0,0:0:0:0:
64,192,130696,1,0,0:0:0:0:
320,192,130752,1,0,0:0:0:0:
64,192,130809,1,0,0:0:0:0:
448,192,130809,1,0,0:0:0:0:
320,192,130865,1,0,0:0:0:0:
448,192,130922,1,0,0:0:0:0:
64,192,130922,1,0,0:0:0:0:
192,192,130922,1,0,0:0:0:0:
320,192,130978,1,0,0:0:0:0:
192,192,131035,1,0,0:0:0:0:
448,192,131091,1,0,0:0:0:0:
64,192,131147,1,0,0:0:0:0:
192,192,131147,1,0,0:0:0:0:
320,192,131147,1,0,0:0:0:0:
448,192,131204,1,0,0:0:0:0:
320,192,131260,1,0,0:0:0:0:
64,192,131317,1,0,0:0:0:0:
192,192,131373,1,0,0:0:0:0:
320,192,131373,1,0,0:0:0:0:
448,192,131373,1,0,0:0:0:0:
64,192,131430,1,0,0:0:0:0:
320,192,131486,1,0,0:0:0:0:
192,192,131542,1,0,0:0:0:0:
448,192,131598,1,0,0:0:0:0:
320,192,131598,1,0,0:0:0:0:
64,192,131598,1,0,0:0:0:0:
192,192,131655,1,0,0:0:0:0:
64,192,131711,1,0,0:0:0:0:
320,192,131767,1,0,0:0:0:0:
448,192,131824,1,0,0:0:0:0:
192,192,131824,1,0,0:0:0:0:
64,192,131824,1,0,0:0:0:0:
320,192,131880,5,0,0:0:0:0:
192,192,131937,1,0,0:0:0:0:
64,192,131993,1,0,0:0:0:0:
320,192,132050,1,0,0:0:0:0:
192,192,132106,1,0,0:0:0:0:
448,192,132162,1,0,0:0:0:0:
320,192,132162,1,0,0:0:0:0:
64,192,132162,1,0,0:0:0:0:
192,192,132219,1,0,0:0:0:0:
64,192,132275,1,0,0:0:0:0:
320,192,132275,1,0,0:0:0:0:
448,192,132275,1,0,0:0:0:0:
192,192,132332,1,0,0:0:0:0:
320,192,132388,1,0,0:0:0:0:
448,192,132445,1,0,0:0:0:0:
64,192,132501,1,0,0:0:0:0:
320,192,132557,1,0,0:0:0:0:
192,192,132614,1,0,0:0:0:0:
448,192,132670,1,0,0:0:0:0:
320,192,132726,1,0,0:0:0:0:
192,192,132726,1,0,0:0:0:0:
64,192,132726,1,0,0:0:0:0:
448,192,132782,1,0,0:0:0:0:
320,192,132839,1,0,0:0:0:0:
64,192,132839,1,0,0:0:0:0:
192,192,132895,1,0,0:0:0:0:
448,192,132952,1,0,0:0:0:0:
320,192,132952,1,0,0:0:0:0:
64,192,133008,1,0,0:0:0:0:
320,192,133065,1,0,0:0:0:0:
192,192,133065,1,0,0:0:0:0:
448,192,133121,1,0,0:0:0:0:
64,192,133177,1,0,0:0:0:0:
192,192,133177,1,0,0:0:0:0:
320,192,133234,1,0,0:0:0:0:
448,192,133290,1,0,0:0:0:0:
192,192,133290,1,0,0:0:0:0:
320,192,133347,1,0,0:0:0:0:
64,192,133403,1,0,0:0:0:0:
448,192,133403,1,0,0:0:0:0:
320,192,133460,1,0,0:0:0:0:
192,192,133516,1,0,0:0:0:0:
64,192,133516,1,0,0:0:0:0:
320,192,133572,1,0,0:0:0:0:
448,192,133629,1,0,0:0:0:0:
192,192,133629,1,0,0:0:0:0:
64,192,133685,1,0,0:0:0:0:
448,192,133741,1,0,0:0:0:0:
320,192,133741,1,0,0:0:0:0:
192,192,133797,1,0,0:0:0:0:
320,192,133854,1,0,0:0:0:0:
64,192,133854,1,0,0:0:0:0:
192,192,133910,1,0,0:0:0:0:
448,192,133967,1,0,0:0:0:0:
64,192,133967,1,0,0:0:0:0:
320,192,134023,1,0,0:0:0:0:
192,192,134080,1,0,0:0:0:0:
64,192,134080,1,0,0:0:0:0:
448,192,134136,1,0,0:0:0:0:
320,192,134192,1,0,0:0:0:0:
448,192,134249,1,0,0:0:0:0:
64,192,134305,1,0,0:0:0:0:
192,192,134305,1,0,0:0:0:0:
448,192,134362,1,0,0:0:0:0:
64,192,134418,1,0,0:0:0:0:
192,192,134418,1,0,0:0:0:0:
448,192,134475,1,0,0:0:0:0:
192,192,134531,1,0,0:0:0:0:
64,192,134531,1,0,0:0:0:0:
320,192,134531,1,0,0:0:0:0:
448,192,134587,1,0,0:0:0:0:
192,192,134644,1,0,0:0:0:0:
320,192,134700,1,0,0:0:0:0:
448,192,134757,1,0,0:0:0:0:
192,192,134757,1,0,0:0:0:0:
64,192,134757,1,0,0:0:0:0:
320,192,134812,1,0,0:0:0:0:
192,192,134869,1,0,0:0:0:0:
64,192,134925,1,0,0:0:0:0:
192,192,134982,1,0,0:0:0:0:
320,192,134982,1,0,0:0:0:0:
448,192,134982,1,0,0:0:0:0:
64,192,135038,1,0,0:0:0:0:
320,192,135095,1,0,0:0:0:0:
448,192,135151,1,0,0:0:0:0:
320,192,135207,1,0,0:0:0:0:
192,192,135207,1,0,0:0:0:0:
64,192,135207,1,0,0:0:0:0:
448,192,135264,1,0,0:0:0:0:
320,192,135320,1,0,0:0:0:0:
192,192,135377,1,0,0:0:0:0:
448,192,135433,1,0,0:0:0:0:
320,192,135433,1,0,0:0:0:0:
64,192,135433,1,0,0:0:0:0:
192,192,135490,1,0,0:0:0:0:
320,192,135546,1,0,0:0:0:0:
64,192,135602,1,0,0:0:0:0:
448,192,135659,1,0,0:0:0:0:
320,192,135715,1,0,0:0:0:0:
192,192,135772,1,0,0:0:0:0:
448,192,135772,1,0,0:0:0:0:
64,192,135772,1,0,0:0:0:0:
320,192,135828,1,0,0:0:0:0:
192,192,135884,1,0,0:0:0:0:
448,192,135940,1,0,0:0:0:0:
64,192,135997,1,0,0:0:0:0:
320,192,136053,1,0,0:0:0:0:
192,192,136110,1,0,0:0:0:0:
448,192,136166,1,0,0:0:0:0:
64,192,136222,1,0,0:0:0:0:
192,192,136279,1,0,0:0:0:0:
448,192,136335,1,0,0:0:0:0:
320,192,136335,1,0,0:0:0:0:
64,192,136335,1,0,0:0:0:0:
192,192,136392,1,0,0:0:0:0:
448,192,136448,1,0,0:0:0:0:
320,192,136448,1,0,0:0:0:0:
192,192,136505,1,0,0:0:0:0:
64,192,136561,1,0,0:0:0:0:
448,192,136561,1,0,0:0:0:0:
320,192,136617,1,0,0:0:0:0:
64,192,136674,1,0,0:0:0:0:
192,192,136674,1,0,0:0:0:0:
320,192,136730,1,0,0:0:0:0:
448,192,136787,1,0,0:0:0:0:
192,192,136787,1,0,0:0:0:0:
64,192,136843,1,0,0:0:0:0:
320,192,136900,1,0,0:0:0:0:
192,192,136900,1,0,0:0:0:0:
64,192,136955,1,0,0:0:0:0:
448,192,137012,1,0,0:0:0:0:
320,192,137012,1,0,0:0:0:0:
192,192,137068,1,0,0:0:0:0:
320,192,137125,1,0,0:0:0:0:
64,192,137125,1,0,0:0:0:0:
192,192,137181,1,0,0:0:0:0:
448,192,137237,1,0,0:0:0:0:
64,192,137237,1,0,0:0:0:0:
320,192,137294,1,0,0:0:0:0:
192,192,137350,1,0,0:0:0:0:
64,192,137350,1,0,0:0:0:0:
320,192,137407,1,0,0:0:0:0:
448,192,137463,1,0,0:0:0:0:
192,192,137463,1,0,0:0:0:0:
64,192,137520,1,0,0:0:0:0:
320,192,137576,1,0,0:0:0:0:
192,192,137576,1,0,0:0:0:0:
448,192,137632,1,0,0:0:0:0:
192,192,137689,1,0,0:0:0:0:
64,192,137689,1,0,0:0:0:0:
320,192,137745,1,0,0:0:0:0:
448,192,137802,1,0,0:0:0:0:
192,192,137858,1,0,0:0:0:0:
320,192,137915,1,0,0:0:0:0:
448,192,137915,1,0,0:0:0:0:
192,192,137971,1,0,0:0:0:0:
320,192,138027,1,0,0:0:0:0:
448,192,138027,1,0,0:0:0:0:
192,192,138083,1,0,0:0:0:0:
448,192,138140,1,0,0:0:0:0:
320,192,138140,1,0,0:0:0:0:
64,192,138140,1,0,0:0:0:0:
448,192,138252,1,0,0:0:0:0:
320,192,138252,1,0,0:0:0:0:
64,192,138252,1,0,0:0:0:0:
192,192,138478,1,0,0:0:0:0:
320,192,138535,1,0,0:0:0:0:
448,192,138591,1,0,0:0:0:0:
192,192,138591,1,0,0:0:0:0:
64,192,138591,1,0,0:0:0:0:
448,192,138704,1,0,0:0:0:0:
64,192,138704,1,0,0:0:0:0:
192,192,138704,1,0,0:0:0:0:
192,192,138930,1,0,0:0:0:0:
64,192,138986,1,0,0:0:0:0:
320,192,139042,1,0,0:0:0:0:
448,192,139042,1,0,0:0:0:0:
448,192,139155,1,0,0:0:0:0:
320,192,139155,1,0,0:0:0:0:
192,192,139155,1,0,0:0:0:0:
448,192,139267,1,0,0:0:0:0:
320,192,139267,1,0,0:0:0:0:
192,192,139267,1,0,0:0:0:0:
448,192,139380,1,0,0:0:0:0:
320,192,139380,1,0,0:0:0:0:
192,192,139380,1,0,0:0:0:0:
448,192,139493,1,0,0:0:0:0:
320,192,139493,1,0,0:0:0:0:
192,192,139493,1,0,0:0:0:0:
192,192,139719,1,0,0:0:0:0:
448,192,139719,128,0,139832:0:0:0:0:
320,192,139945,1,0,0:0:0:0:
192,192,139945,1,0,0:0:0:0:
64,192,139945,1,0,0:0:0:0:
320,192,140057,1,0,0:0:0:0:
192,192,140057,1,0,0:0:0:0:
64,192,140057,1,0,0:0:0:0:
64,192,140339,1,0,0:0:0:0:
448,192,140395,1,0,0:0:0:0:
320,192,140395,1,0,0:0:0:0:
192,192,140452,1,0,0:0:0:0:
320,192,140508,1,0,0:0:0:0:
64,192,140565,1,0,0:0:0:0:
448,192,140621,128,0,140847:0:0:0:0:
320,192,140621,128,0,140847:0:0:0:0:
192,192,140847,1,0,0:0:0:0:
64,192,140847,1,0,0:0:0:0:
64,192,140903,1,0,0:0:0:0:
320,192,140960,1,0,0:0:0:0:
192,192,141016,1,0,0:0:0:0:
448,192,141072,1,0,0:0:0:0:
320,192,141072,1,0,0:0:0:0:
64,192,141129,1,0,0:0:0:0:
192,192,141185,1,0,0:0:0:0:
320,192,141241,1,0,0:0:0:0:
192,192,141297,1,0,0:0:0:0:
64,192,141297,1,0,0:0:0:0:
320,192,141354,1,0,0:0:0:0:
64,192,141410,1,0,0:0:0:0:
192,192,141467,1,0,0:0:0:0:
448,192,141523,1,0,0:0:0:0:
320,192,141523,1,0,0:0:0:0:
320,192,141580,1,0,0:0:0:0:
192,192,141636,1,0,0:0:0:0:
448,192,141692,1,0,0:0:0:0:
320,192,141749,1,0,0:0:0:0:
64,192,141749,1,0,0:0:0:0:
64,192,141805,1,0,0:0:0:0:
448,192,141862,1,0,0:0:0:0:
192,192,141918,1,0,0:0:0:0:
448,192,141975,1,0,0:0:0:0:
64,192,141975,1,0,0:0:0:0:
320,192,142031,1,0,0:0:0:0:
192,192,142087,1,0,0:0:0:0:
64,192,142087,1,0,0:0:0:0:
320,192,142144,1,0,0:0:0:0:
448,192,142200,1,0,0:0:0:0:
192,192,142200,1,0,0:0:0:0:
320,192,142257,1,0,0:0:0:0:
192,192,142312,1,0,0:0:0:0:
64,192,142369,1,0,0:0:0:0:
448,192,142425,1,0,0:0:0:0:
320,192,142425,1,0,0:0:0:0:
192,192,142482,1,0,0:0:0:0:
320,192,142538,1,0,0:0:0:0:
64,192,142595,1,0,0:0:0:0:
448,192,142651,1,0,0:0:0:0:
192,192,142651,1,0,0:0:0:0:
448,192,142707,1,0,0:0:0:0:
64,192,142764,1,0,0:0:0:0:
320,192,142820,1,0,0:0:0:0:
192,192,142877,1,0,0:0:0:0:
64,192,142877,1,0,0:0:0:0:
64,192,142933,1,0,0:0:0:0:
320,192,142990,1,0,0:0:0:0:
448,192,143046,1,0,0:0:0:0:
320,192,143102,1,0,0:0:0:0:
64,192,143102,1,0,0:0:0:0:
192,192,143159,1,0,0:0:0:0:
320,192,143215,1,0,0:0:0:0:
448,192,143272,1,0,0:0:0:0:
320,192,143328,1,0,0:0:0:0:
192,192,143328,1,0,0:0:0:0:
320,192,143384,1,0,0:0:0:0:
64,192,143440,1,0,0:0:0:0:
448,192,143497,1,0,0:0:0:0:
320,192,143553,1,0,0:0:0:0:
64,192,143553,1,0,0:0:0:0:
64,192,143610,1,0,0:0:0:0:
448,192,143666,1,0,0:0:0:0:
192,192,143722,1,0,0:0:0:0:
320,192,143779,1,0,0:0:0:0:
448,192,143779,1,0,0:0:0:0:
64,192,143835,1,0,0:0:0:0:
320,192,143892,1,0,0:0:0:0:
448,192,143892,1,0,0:0:0:0:
192,192,143948,1,0,0:0:0:0:
320,192,144005,1,0,0:0:0:0:
448,192,144005,1,0,0:0:0:0:
64,192,144061,1,0,0:0:0:0:
448,192,144117,1,0,0:0:0:0:
320,192,144117,1,0,0:0:0:0:
192,192,144174,1,0,0:0:0:0:
448,192,144230,1,0,0:0:0:0:
320,192,144230,1,0,0:0:0:0:
64,192,144287,1,0,0:0:0:0:
448,192,144343,1,0,0:0:0:0:
320,192,144343,1,0,0:0:0:0:
192,192,144400,1,0,0:0:0:0:
64,192,144455,1,0,0:0:0:0:
320,192,144455,1,0,0:0:0:0:
320,192,144512,1,0,0:0:0:0:
192,192,144568,1,0,0:0:0:0:
448,192,144625,1,0,0:0:0:0:
192,192,144681,1,0,0:0:0:0:
64,192,144681,1,0,0:0:0:0:
320,192,144737,1,0,0:0:0:0:
448,192,144794,1,0,0:0:0:0:
192,192,144850,1,0,0:0:0:0:
448,192,144907,1,0,0:0:0:0:
320,192,144907,1,0,0:0:0:0:
64,192,144963,1,0,0:0:0:0:
320,192,145020,1,0,0:0:0:0:
448,192,145076,1,0,0:0:0:0:
64,192,145132,1,0,0:0:0:0:
192,192,145132,1,0,0:0:0:0:
64,192,145189,1,0,0:0:0:0:
448,192,145245,1,0,0:0:0:0:
192,192,145302,1,0,0:0:0:0:
448,192,145358,1,0,0:0:0:0:
320,192,145358,1,0,0:0:0:0:
448,192,145415,1,0,0:0:0:0:
192,192,145471,1,0,0:0:0:0:
320,192,145527,1,0,0:0:0:0:
64,192,145583,1,0,0:0:0:0:
448,192,145583,1,0,0:0:0:0:
320,192,145640,1,0,0:0:0:0:
192,192,145696,1,0,0:0:0:0:
64,192,145696,1,0,0:0:0:0:
320,192,145752,1,0,0:0:0:0:
448,192,145809,1,0,0:0:0:0:
192,192,145809,1,0,0:0:0:0:
320,192,145865,1,0,0:0:0:0:
192,192,145922,1,0,0:0:0:0:
64,192,145978,1,0,0:0:0:0:
448,192,146035,1,0,0:0:0:0:
320,192,146035,1,0,0:0:0:0:
192,192,146091,1,0,0:0:0:0:
320,192,146147,1,0,0:0:0:0:
448,192,146204,1,0,0:0:0:0:
320,192,146260,1,0,0:0:0:0:
64,192,146260,1,0,0:0:0:0:
64,192,146317,1,0,0:0:0:0:
320,192,146373,1,0,0:0:0:0:
192,192,146430,1,0,0:0:0:0:
448,192,146486,1,0,0:0:0:0:
64,192,146486,1,0,0:0:0:0:
448,192,146542,1,0,0:0:0:0:
192,192,146598,1,0,0:0:0:0:
320,192,146655,1,0,0:0:0:0:
192,192,146711,1,0,0:0:0:0:
64,192,146711,1,0,0:0:0:0:
448,192,146767,1,0,0:0:0:0:
320,192,146824,1,0,0:0:0:0:
192,192,146880,1,0,0:0:0:0:
448,192,146937,1,0,0:0:0:0:
320,192,146937,1,0,0:0:0:0:
192,192,146993,1,0,0:0:0:0:
64,192,147050,1,0,0:0:0:0:
192,192,147106,1,0,0:0:0:0:
448,192,147162,1,0,0:0:0:0:
320,192,147162,1,0,0:0:0:0:
448,192,147275,1,0,0:0:0:0:
320,192,147275,1,0,0:0:0:0:
448,192,147388,1,0,0:0:0:0:
320,192,147388,1,0,0:0:0:0:
448,192,147501,1,0,0:0:0:0:
320,192,147501,1,0,0:0:0:0:
192,192,147501,128,0,147614:0:0:0:0:
448,192,147614,1,0,0:0:0:0:
320,192,147614,1,0,0:0:0:0:
64,192,147614,128,0,147726:0:0:0:0:
64,192,147839,128,0,147952:0:0:0:0:
448,192,147839,1,0,0:0:0:0:
448,192,148065,1,0,0:0:0:0:
320,192,148065,1,0,0:0:0:0:
192,192,148065,1,0,0:0:0:0:
448,192,148121,1,0,0:0:0:0:
64,192,148177,1,0,0:0:0:0:
320,192,148234,1,0,0:0:0:0:
192,192,148290,1,0,0:0:0:0:
64,192,148290,1,0,0:0:0:0:
448,192,148347,1,0,0:0:0:0:
320,192,148403,1,0,0:0:0:0:
192,192,148460,1,0,0:0:0:0:
448,192,148516,1,0,0:0:0:0:
320,192,148516,1,0,0:0:0:0:
192,192,148572,1,0,0:0:0:0:
64,192,148629,1,0,0:0:0:0:
448,192,148685,1,0,0:0:0:0:
192,192,148741,1,0,0:0:0:0:
320,192,148741,1,0,0:0:0:0:
192,192,148797,1,0,0:0:0:0:
320,192,148854,1,0,0:0:0:0:
64,192,148910,1,0,0:0:0:0:
448,192,148967,1,0,0:0:0:0:
192,192,148967,1,0,0:0:0:0:
448,192,149023,1,0,0:0:0:0:
64,192,149080,1,0,0:0:0:0:
320,192,149136,1,0,0:0:0:0:
192,192,149192,1,0,0:0:0:0:
448,192,149192,1,0,0:0:0:0:
320,192,149249,1,0,0:0:0:0:
64,192,149305,1,0,0:0:0:0:
192,192,149305,1,0,0:0:0:0:
320,192,149362,1,0,0:0:0:0:
448,192,149418,1,0,0:0:0:0:
192,192,149418,1,0,0:0:0:0:
320,192,149475,1,0,0:0:0:0:
192,192,149531,1,0,0:0:0:0:
64,192,149587,1,0,0:0:0:0:
448,192,149644,1,0,0:0:0:0:
320,192,149644,1,0,0:0:0:0:
192,192,149700,1,0,0:0:0:0:
320,192,149757,1,0,0:0:0:0:
192,192,149812,1,0,0:0:0:0:
448,192,149869,1,0,0:0:0:0:
64,192,149869,1,0,0:0:0:0:
64,192,149925,1,0,0:0:0:0:
320,192,149982,1,0,0:0:0:0:
192,192,150038,1,0,0:0:0:0:
448,192,150095,1,0,0:0:0:0:
320,192,150095,1,0,0:0:0:0:
448,192,150151,1,0,0:0:0:0:
192,192,150207,1,0,0:0:0:0:
320,192,150264,1,0,0:0:0:0:
64,192,150320,1,0,0:0:0:0:
192,192,150320,1,0,0:0:0:0:
448,192,150377,1,0,0:0:0:0:
320,192,150433,1,0,0:0:0:0:
192,192,150490,1,0,0:0:0:0:
448,192,150546,1,0,0:0:0:0:
320,192,150546,1,0,0:0:0:0:
320,192,150602,1,0,0:0:0:0:
192,192,150659,1,0,0:0:0:0:
64,192,150715,1,0,0:0:0:0:
320,192,150772,1,0,0:0:0:0:
192,192,150772,1,0,0:0:0:0:
192,192,150828,1,0,0:0:0:0:
448,192,150884,1,0,0:0:0:0:
192,192,150940,1,0,0:0:0:0:
320,192,150997,1,0,0:0:0:0:
448,192,150997,1,0,0:0:0:0:
192,192,151053,1,0,0:0:0:0:
64,192,151110,1,0,0:0:0:0:
320,192,151110,1,0,0:0:0:0:
448,192,151166,1,0,0:0:0:0:
64,192,151222,1,0,0:0:0:0:
320,192,151222,1,0,0:0:0:0:
192,192,151279,1,0,0:0:0:0:
320,192,151335,1,0,0:0:0:0:
64,192,151335,1,0,0:0:0:0:
448,192,151392,1,0,0:0:0:0:
320,192,151448,1,0,0:0:0:0:
64,192,151448,1,0,0:0:0:0:
192,192,151505,1,0,0:0:0:0:
320,192,151561,1,0,0:0:0:0:
64,192,151561,1,0,0:0:0:0:
448,192,151617,1,0,0:0:0:0:
64,192,151674,1,0,0:0:0:0:
192,192,151674,1,0,0:0:0:0:
320,192,151674,1,0,0:0:0:0:
64,192,151730,1,0,0:0:0:0:
448,192,151787,1,0,0:0:0:0:
320,192,151843,1,0,0:0:0:0:
192,192,151900,1,0,0:0:0:0:
448,192,151900,1,0,0:0:0:0:
64,192,151955,1,0,0:0:0:0:
320,192,152012,1,0,0:0:0:0:
192,192,152068,1,0,0:0:0:0:
320,192,152125,1,0,0:0:0:0:
448,192,152125,1,0,0:0:0:0:
192,192,152181,1,0,0:0:0:0:
64,192,152237,1,0,0:0:0:0:
448,192,152294,1,0,0:0:0:0:
192,192,152350,1,0,0:0:0:0:
320,192,152350,1,0,0:0:0:0:
192,192,152407,1,0,0:0:0:0:
448,192,152463,1,0,0:0:0:0:
64,192,152520,1,0,0:0:0:0:
192,192,152576,1,0,0:0:0:0:
448,192,152576,1,0,0:0:0:0:
448,192,152632,1,0,0:0:0:0:
64,192,152689,1,0,0:0:0:0:
320,192,152745,1,0,0:0:0:0:
192,192,152802,1,0,0:0:0:0:
64,192,152802,1,0,0:0:0:0:
448,192,152858,1,0,0:0:0:0:
320,192,152915,1,0,0:0:0:0:
192,192,152915,1,0,0:0:0:0:
64,192,152971,1,0,0:0:0:0:
448,192,153027,1,0,0:0:0:0:
192,192,153083,1,0,0:0:0:0:
320,192,153140,1,0,0:0:0:0:
448,192,153196,1,0,0:0:0:0:
320,192,153252,1,0,0:0:0:0:
64,192,153252,1,0,0:0:0:0:
192,192,153309,1,0,0:0:0:0:
320,192,153365,1,0,0:0:0:0:
64,192,153422,1,0,0:0:0:0:
448,192,153478,1,0,0:0:0:0:
192,192,153478,1,0,0:0:0:0:
448,192,153535,1,0,0:0:0:0:
64,192,153591,1,0,0:0:0:0:
320,192,153647,1,0,0:0:0:0:
64,192,153704,1,0,0:0:0:0:
192,192,153704,1,0,0:0:0:0:
192,192,153760,1,0,0:0:0:0:
448,192,153817,1,0,0:0:0:0:
320,192,153873,1,0,0:0:0:0:
64,192,153930,1,0,0:0:0:0:
448,192,153930,1,0,0:0:0:0:
192,192,153986,1,0,0:0:0:0:
64,192,154042,1,0,0:0:0:0:
320,192,154098,1,0,0:0:0:0:
64,192,154155,1,0,0:0:0:0:
448,192,154155,1,0,0:0:0:0:
448,192,154211,1,0,0:0:0:0:
192,192,154267,1,0,0:0:0:0:
448,192,154324,1,0,0:0:0:0:
320,192,154380,1,0,0:0:0:0:
64,192,154380,1,0,0:0:0:0:
64,192,154437,1,0,0:0:0:0:
448,192,154493,1,0,0:0:0:0:
192,192,154550,1,0,0:0:0:0:
448,192,154606,1,0,0:0:0:0:
320,192,154606,1,0,0:0:0:0:
64,192,154662,1,0,0:0:0:0:
192,192,154719,1,0,0:0:0:0:
320,192,154719,1,0,0:0:0:0:
64,192,154775,1,0,0:0:0:0:
448,192,154832,1,0,0:0:0:0:
320,192,154832,1,0,0:0:0:0:
192,192,154888,1,0,0:0:0:0:
64,192,154945,1,0,0:0:0:0:
320,192,155001,1,0,0:0:0:0:
192,192,155057,1,0,0:0:0:0:
64,192,155057,1,0,0:0:0:0:
320,192,155114,1,0,0:0:0:0:
448,192,155170,1,0,0:0:0:0:
192,192,155226,1,0,0:0:0:0:
448,192,155282,1,0,0:0:0:0:
320,192,155395,1,0,0:0:0:0:
192,192,155452,1,0,0:0:0:0:
64,192,155508,1,0,0:0:0:0:
320,192,155621,1,0,0:0:0:0:
64,192,155734,1,0,0:0:0:0:
448,192,155960,1,0,0:0:0:0:
320,192,155960,1,0,0:0:0:0:
