osu file format v14

[General]
AudioFilename: audio.mp3
AudioLeadIn: 0
PreviewTime: 70022
Countdown: 0
SampleSet: Soft
StackLeniency: 0.7
Mode: 0
LetterboxInBreaks: 0
WidescreenStoryboard: 0

[Editor]
Bookmarks: 20714,37414,54109,70801
DistanceSpacing: 0.3
BeatDivisor: 4
GridSize: 4
TimelineZoom: 1.6

[Metadata]
Title:Iwanai kedo ne (TV-size)
TitleUnicode:『からかい上手の高木さん』 OP 「言わないけどね。」
Artist:Yuiko Oohara
ArtistUnicode:大原ゆい子
Creator:FabOmega22
Version:Secret
Source:Karakai Jouzu no Takagi-san
Tags:op tease cute takagi
BeatmapID:1536634
BeatmapSetID:727771

[Difficulty]
HPDrainRate:6.5
CircleSize:3.8
OverallDifficulty:5.5
ApproachRate:6.8
SliderMultiplier:1.6
SliderTickRate:1

[Events]
//Background and Video events
0,0,"ozc2jZB.png",0,0
//Break Periods
//Storyboard Layer 0 (Background)
//Storyboard Layer 1 (Fail)
//Storyboard Layer 2 (Pass)
//Storyboard Layer 3 (Foreground)
//Storyboard Sound Samples

[TimingPoints]
631,521.739130434783,4,2,0,100,1,0
631,-80,4,2,0,70,0,0
1414,521.739130434783,4,2,0,100,1,0
1414,-80,4,2,0,70,0,0
18109,-80,4,2,0,70,0,1
19674,-66.6666666666667,4,2,0,70,0,0
20718,-80,4,2,0,70,0,1
20979,-80,4,2,0,70,0,0
37414,-80,4,2,0,70,0,1
37674,-80,4,2,0,70,0,0
45761,-80,4,2,0,70,0,1
49153,-80,4,2,0,70,0,0
66631,-80,4,2,0,70,0,0
69240,-66.6666666666667,4,2,0,70,0,0
70022,-80,4,2,0,70,0,0
70805,-80,4,2,0,70,0,1
85414,-80,4,2,0,70,0,0
87761,-66.6666666666667,4,2,0,70,0,1
88544,-66.6666666666667,4,2,0,70,0,0

[Colours]
Combo1 : 245,137,188
Combo2 : 231,198,137
Combo3 : 253,255,255
Combo4 : 79,106,202

[HitObjects]
400,180,631,6,0,L|362:146,1,50
316,218,892,2,0,L|277:248,1,50
271,147,1152,2,0,L|233:113,1,50
161,88,1414,6,0,B|147:126|170:160|170:160|156:185|156:185|192:226|167:280,1,200
130,346,2457,2,0,L|177:395,1,50
238,200,2718,1,0,0:0:0:0:
238,200,2848,2,0,P|270:250|257:313,1,100
87,212,3370,5,0,0:0:0:0:
100,290,3500,2,0,B|135:285|157:250|157:250|208:325|302:273,1,200
266,355,4544,2,0,L|293:313,1,50
382,191,4805,1,0,0:0:0:0:
382,191,4935,2,0,P|358:246|382:306,1,100
438,252,5457,5,0,0:0:0:0:
509,368,5587,2,0,B|495:344|463:334|463:334|537:291|509:213,1,200
310,69,6631,2,0,L|326:136,1,50
191,257,6892,1,0,0:0:0:0:
191,257,7022,2,0,L|214:159,1,100
352,74,7544,5,0,0:0:0:0:
352,74,7674,2,0,B|342:146|342:146|352:189,1,100
429,281,8196,2,0,P|381:318|317:310,1,100
319,128,8718,1,0,0:0:0:0:
360,242,8979,1,0,0:0:0:0:
182,280,9240,2,0,P|183:230|213:191,1,100
451,266,9761,6,0,B|407:288|355:261|355:261|302:235|258:257,1,200
130,342,10544,1,0,0:0:0:0:
273,240,10805,2,0,P|306:303|270:242,1,200
306,96,11587,5,0,0:0:0:0:
306,96,11718,1,0,0:0:0:0:
306,96,11848,2,0,P|320:143|305:190,1,100
211,244,12370,2,0,P|195:197|209:149,1,100
306,96,12892,2,0,B|330:137|312:177|312:177|351:155|398:156|439:200|423:259|376:279|336:255|336:215|366:185,1,300
240,143,13935,1,0,0:0:0:0:
156,311,14196,5,0,0:0:0:0:
237,317,14457,2,0,P|226:268|190:234,1,100
13,155,14848,2,0,P|54:181|103:180,1,100
269,87,15240,2,0,P|220:97|186:133,1,100
262,167,15761,1,0,0:0:0:0:
195,319,16022,6,0,B|209:281|186:247|186:247|200:222|200:222|164:181|189:127,1,200
332,96,17066,6,0,L|250:177,1,100
347,116,17457,2,0,L|247:173,1,100
347,194,17848,1,0,0:0:0:0:
213,223,18109,6,0,P|197:176|211:128,1,100
287,181,18500,2,0,P|301:229|286:276,1,100
197,306,18892,2,0,P|153:283|129:240,1,100
262,173,19414,6,0,L|214:220,1,66.6666666666667
204,207,19674,1,0,0:0:0:0:
192,195,19848,1,0,0:0:0:0:
352,101,20066,5,0,0:0:0:0:
321,117,20196,1,0,0:0:0:0:
304,146,20326,1,0,0:0:0:0:
304,181,20457,1,0,0:0:0:0:
323,210,20587,1,0,0:0:0:0:
323,210,20718,6,0,L|228:166,1,100
173,145,21240,2,0,P|189:193|165:241,1,100
107,300,21631,2,0,L|222:242,1,100
309,208,22022,1,0,0:0:0:0:
309,208,22153,1,0,0:0:0:0:
309,208,22283,2,0,L|218:165,1,100
128,64,22674,2,0,L|143:111,3,50
179,218,23327,6,0,P|210:256|257:271,1,100
352,164,23718,2,0,L|255:193,1,100
162,304,24109,5,0,0:0:0:0:
162,304,24240,1,0,0:0:0:0:
162,304,24370,2,0,L|246:276,1,50
282,194,24631,2,0,L|234:208,1,50
147,92,24892,2,0,P|136:139|154:185,1,100
229,23,25414,6,0,B|239:95|239:95|229:138,1,100
232,121,25805,1,0,0:0:0:0:
232,121,25936,1,0,0:0:0:0:
121,281,26196,2,0,L|229:260,1,100
420,215,26718,5,0,0:0:0:0:
420,215,26848,1,0,0:0:0:0:
420,215,26979,2,0,P|443:170|436:121,1,100
295,201,27500,1,0,0:0:0:0:
236,304,27761,2,0,P|190:288|160:249,2,100
353,308,28544,5,0,0:0:0:0:
353,308,28674,2,0,B|373:280|373:280|394:166,1,150
232,111,29327,2,0,P|247:158|232:204,1,100
141,254,29848,1,0,0:0:0:0:
141,254,29979,1,0,0:0:0:0:
141,254,30109,2,0,P|129:206|148:160,1,100
256,231,30631,2,0,L|346:282,2,100
92,141,31414,5,0,0:0:0:0:
70,35,31674,1,0,0:0:0:0:
170,92,31935,1,0,0:0:0:0:
170,92,32066,2,0,P|184:168|128:223,1,150
67,54,32718,6,0,B|94:121|94:121|124:153,1,100
221,231,33240,2,0,P|244:187|237:138,1,100
113,170,33761,2,0,P|86:211|89:260,1,100
272,155,34283,5,0,0:0:0:0:
272,155,34414,1,0,0:0:0:0:
272,155,34544,2,0,L|230:182,1,50
187,303,34805,2,0,L|228:275,1,50
351,287,35066,2,0,L|309:314,1,50
144,375,35327,6,0,P|111:338|107:289,1,100
203,177,35718,1,0,0:0:0:0:
203,177,35848,2,0,L|229:278,1,100
351,287,36240,2,0,B|370:270|370:270|384:191,1,100
383,197,36631,1,0,0:0:0:0:
435,375,36892,5,0,0:0:0:0:
435,375,37022,2,0,L|413:265,1,100
338,304,37414,6,0,P|335:254|361:213,1,100
445,25,37935,2,0,B|442:97|442:97|425:137,1,100
345,71,38326,2,0,L|413:143,1,100
483,220,38717,1,0,0:0:0:0:
483,220,38848,1,0,0:0:0:0:
483,220,38979,2,0,P|447:186|398:179,1,100
311,136,39369,2,0,L|280:96,3,50
208,21,40022,6,0,P|189:66|198:115,1,100
242,175,40413,2,0,L|264:76,1,100
287,22,40804,5,0,0:0:0:0:
287,22,40935,1,0,0:0:0:0:
287,21,41065,2,0,L|292:109,1,50
248,234,41327,2,0,L|236:185,1,50
199,114,41587,2,0,P|246:107|291:129,1,100
325,286,42109,2,0,L|354:190,1,100
354,190,42500,1,0,0:0:0:0:
354,190,42631,1,0,0:0:0:0:
80,207,42892,5,0,0:0:0:0:
176,71,43153,2,0,L|184:119,1,50
216,279,43413,5,0,0:0:0:0:
216,279,43543,1,0,0:0:0:0:
216,279,43674,2,0,P|227:229|264:196,1,100
261,197,44066,1,0,0:0:0:0:
261,197,44195,1,0,0:0:0:0:
70,204,44457,2,0,B|118:229|167:205|167:205|217:176|262:197,1,200
323,332,45240,6,0,L|298:266,1,50
223,265,45500,2,0,L|248:199,1,50
294,69,45761,1,0,0:0:0:0:
372,227,46022,1,0,0:0:0:0:
356,119,46283,5,0,0:0:0:0:
278,277,46544,1,0,0:0:0:0:
220,122,46805,5,0,0:0:0:0:
403,184,47066,1,0,0:0:0:0:
236,224,47327,5,0,0:0:0:0:
424,186,47588,1,0,0:0:0:0:
268,68,47848,5,0,0:0:0:0:
352,238,48109,1,0,0:0:0:0:
164,71,48370,5,0,0:0:0:0:
319,175,48631,1,0,0:0:0:0:
153,158,48892,5,0,0:0:0:0:
323,74,49153,1,0,0:0:0:0:
242,268,49414,5,0,0:0:0:0:
242,268,49544,1,0,0:0:0:0:
242,268,49674,2,0,L|258:152,1,100
220,85,50196,2,0,P|270:78|314:101,1,100
241,268,50718,6,0,L|252:218,1,50
330,198,50979,2,0,L|307:71,1,100
225,138,51500,2,0,P|184:169|170:216,1,100
279,309,51892,5,0,0:0:0:0:
279,309,52022,2,0,L|245:185,1,100
253,212,52414,1,0,0:0:0:0:
253,212,52544,1,0,0:0:0:0:
357,97,52805,2,0,P|329:140|332:189,1,100
331,187,53196,1,0,0:0:0:0:
331,187,53327,1,0,0:0:0:0:
246,117,53587,2,0,L|214:69,2,50
270,295,54109,6,0,P|296:253|292:204,1,100
367,192,54500,2,0,P|343:148|299:126,1,100
329,54,54892,2,0,P|279:52|238:79,1,100
172,262,56196,6,0,P|196:218|240:196,1,100
213,126,56587,2,0,P|263:124|304:151,1,100
352,90,56979,2,0,P|379:131|375:180,2,100
188,35,57761,2,0,P|186:85|213:126,1,100
454,241,58283,6,0,P|431:197|387:175,1,100
414,105,58674,2,0,P|365:103|324:130,1,100
275,69,59066,2,0,P|249:110|253:159,1,100
51,163,60370,6,0,P|100:161|141:188,1,100
189,131,60761,2,0,P|215:172|211:221,1,100
290,233,61153,2,0,P|266:276|222:298,2,100
254,63,61935,2,0,P|210:86|188:130,1,100
250,238,62327,5,0,0:0:0:0:
250,238,62457,2,0,L|268:139,1,100
348,22,62979,2,0,P|362:69|346:115,1,100
139,185,63500,6,0,L|186:171,1,50
336,192,63761,2,0,L|289:206,1,50
179,323,64022,2,0,L|226:309,2,50
67,190,64414,5,0,0:0:0:0:
67,190,64544,2,0,P|53:237|70:284,1,100
198,367,65066,2,0,P|214:321|201:274,1,100
132,199,65587,6,0,L|143:151,1,50
236,32,65848,2,0,L|224:79,1,50
270,233,66109,2,0,L|281:185,2,50
352,343,66500,5,0,0:0:0:0:
352,343,66631,2,0,P|400:333|433:297,1,100
260,135,67153,5,0,0:0:0:0:
212,299,67414,1,0,0:0:0:0:
181,189,67674,5,0,0:0:0:0:
331,300,67935,1,0,0:0:0:0:
295,97,68196,5,0,0:0:0:0:
271,300,68457,1,0,0:0:0:0:
192,199,68718,6,0,P|204:177|204:152,1,50
319,241,68979,2,0,P|306:219|304:195,1,50
145,236,69240,6,0,P|166:195|166:150,1,60.0000022888184
373,310,69501,2,0,P|349:269|346:226,1,60.0000022888184
256,191,69761,1,0,0:0:0:0:
256,191,69892,1,0,0:0:0:0:
256,191,70022,6,0,L|244:239,1,50
359,151,70283,2,0,L|372:199,1,50
296,55,70544,2,0,L|284:103,1,50
312,175,70805,6,0,B|274:190|239:168|239:168|215:183|215:183|173:148|119:175,1,200
192,279,71848,2,0,L|164:237,1,50
56,79,72109,1,0,0:0:0:0:
56,79,72239,2,0,P|33:134|56:194,1,100
136,279,72761,5,0,0:0:0:0:
199,131,72892,2,0,B|177:175|203:228|203:228|230:280|208:324,1,200
269,175,73935,2,0,L|287:221,1,50
344,375,74196,1,0,0:0:0:0:
344,375,74326,2,0,P|337:326|360:282,1,100
438,354,74848,5,0,0:0:0:0:
452,253,74979,2,0,B|402:236|366:275|366:275|357:231|357:231|319:221|302:181,1,200
416,123,76022,2,0,L|358:160,1,50
208,247,76283,1,0,0:0:0:0:
208,247,76414,2,0,P|241:210|247:162,1,100
137,79,76935,5,0,0:0:0:0:
137,79,77065,2,0,B|176:187,1,100
218,308,77587,2,0,P|255:260|247:196,1,100
164,228,78109,1,0,0:0:0:0:
328,287,78370,1,0,0:0:0:0:
164,228,78631,2,0,P|165:178|195:139,1,100
244,204,79153,6,0,B|180:200|136:148|136:148|144:196|120:228,1,200
84,296,79935,1,0,0:0:0:0:
270,131,80196,2,0,P|314:229|209:275,1,200
150,233,80978,5,0,0:0:0:0:
150,233,81109,1,0,0:0:0:0:
150,233,81239,2,0,P|189:203|238:201,1,100
401,231,81761,2,0,P|362:262|312:265,1,100
183,200,82283,2,0,B|222:210|253:188|287:176|297:138|263:110|224:125|220:168|253:188|253:188|260:252|332:272,1,300
338,189,83326,1,0,0:0:0:0:
445,260,83587,5,0,0:0:0:0:
280,313,83848,2,0,P|240:282|224:235,1,100
227,42,84239,2,0,P|233:90|211:134,1,100
57,245,84631,2,0,P|86:204|133:189,1,100
313,171,85152,1,0,0:0:0:0:
246,323,85413,6,0,B|260:285|237:251|237:251|251:226|251:226|215:185|240:131,1,200
105,369,86457,6,0,L|187:288,1,100
90,349,86848,2,0,L|190:292,1,100
90,271,87239,1,0,0:0:0:0:
256,271,87761,6,0,B|312:247|344:191|304:143|256:212|256:212|208:143|168:191|200:247|256:271,1,360.000013732911
