osu file format v14

[General]
AudioFilename: audio.mp3
AudioLeadIn: 0
PreviewTime: 69540
Countdown: 0
SampleSet: Soft
StackLeniency: 0.6
Mode: 0
LetterboxInBreaks: 0
WidescreenStoryboard: 1

[Editor]
Bookmarks: 45264,48395,53612,61438,69786,87264,87916
DistanceSpacing: 1.1
BeatDivisor: 4
GridSize: 4
TimelineZoom: 1.4

[Metadata]
Title:Iwanai kedo ne.
TitleUnicode:言わないけどね。
Artist:Yuiko Ohara
ArtistUnicode:大原ゆい子
Creator:-Mikan
Version:Zt83's Easy
Source:からかい上手の高木さん
Tags:karakai jouzu no takagi-san skilled teaser 言わないけどね anime opening op tv size winter 2018 Ohwow Garden Zyl Trent83
BeatmapID:1545599
BeatmapSetID:720223

[Difficulty]
HPDrainRate:2
CircleSize:2
OverallDifficulty:2
ApproachRate:3
SliderMultiplier:1.05
SliderTickRate:1

[Events]
//Background and Video events
0,0,"ohwowbg.jpg",0,0
Video,-335,"Karakai Jouzu no Takagi-san.flv"
//Break Periods
//Storyboard Layer 0 (Background)
//Storyboard Layer 1 (Fail)
//Storyboard Layer 2 (Pass)
//Storyboard Layer 3 (Foreground)
//Storyboard Sound Samples

[TimingPoints]
-1143,521.739130434783,4,2,50,50,1,0
19204,500,4,2,50,50,1,0
19596,521.739130434783,4,2,50,50,1,0
20236,521.739130434783,4,2,50,60,1,0
53627,-100,4,2,50,50,0,0
61975,-100,4,2,50,60,0,0
70322,-100,4,2,50,80,0,1
84931,-100,4,2,50,70,0,0

[Colours]
Combo1 : 51,153,255
Combo2 : 0,111,221
Combo3 : 184,112,112
Combo4 : 255,128,64

[HitObjects]
124,165,943,6,0,P|123:278|211:335,1,210,2|0,0:0|0:0,0:0:0:0:
410,251,3030,2,0,P|417:141|323:81,1,210,2|0,0:0|0:0,0:0:0:0:
115,110,5117,6,0,L|99:331,1,210,2|2,0:0|0:0,0:0:0:0:
320,249,7204,2,0,L|304:28,1,210,2|0,0:0|0:0,0:0:0:0:
189,32,8770,1,2,0:0:0:0:
74,46,9291,6,0,B|65:115|86:148|86:148|76:178|76:178|86:267,1,210,2|2,0:0|0:0,0:0:0:0:
291,351,11378,2,0,B|300:282|279:249|279:249|289:219|289:219|279:130,1,210,2|2,0:0|0:0,0:0:0:0:
63,68,13465,6,0,P|126:96|250:42,1,210,2|0,0:0|0:0,0:0:0:0:
427,190,15552,2,0,P|339:137|241:165,1,210,2|0,0:0|0:0,0:0:0:0:
145,229,17117,1,0,0:0:0:0:
72,318,17639,6,0,L|172:329,2,78.75,4|8|12,0:0|0:0|0:0,0:0:0:0:
235,260,19204,1,2,0:0:0:0:
447,351,20236,6,0,L|466:129,1,210,4|0,3:2|0:0,0:0:0:0:
362,88,21801,1,8,0:0:0:0:
250,56,22322,2,0,B|198:63|198:63|129:50,2,105,0|8|0,3:0|0:0|0:0,0:0:0:0:
352,109,23888,1,8,0:0:0:0:
444,180,24409,6,0,L|428:295,2,105,0|8|0,3:0|0:0|0:0,0:0:0:0:
337,225,25975,1,8,0:0:0:0:
231,272,26496,2,0,B|223:214|223:214|232:166|232:166|203:123|228:53,1,210,12|0,0:0|0:0,0:0:0:0:
453,43,28583,6,0,B|461:101|461:101|452:149|452:149|481:192|456:262,1,210,4|0,3:2|0:0,0:0:0:0:
380,331,30149,1,8,0:0:0:0:
264,332,30670,2,0,L|96:321,2,157.5,0|0|8,3:0|0:0|0:0,0:0:0:0:
369,285,32757,6,0,B|386:202|386:202|368:165|368:165|394:66,1,210,0|0,3:0|0:0,0:0:0:0:
288,28,34322,1,8,0:0:0:0:
180,71,34844,2,0,B|119:94|119:94|20:80,2,157.5,12|12|8,0:0|0:0|0:0,0:0:0:0:
251,161,36931,6,0,B|194:197|194:197|175:345,1,210,4|0,3:2|0:0,0:0:0:0:
288,313,38496,1,8,0:0:0:0:
399,343,39018,2,0,P|399:288|375:232,1,105,0|8,3:0|0:0,0:0:0:0:
286,174,40062,2,0,P|267:125|268:72,1,105,0|8,0:0|0:0,0:0:0:0:
377,35,41105,6,0,L|150:26,1,210,0|0,3:0|0:0,0:0:0:0:
80,103,42670,1,8,0:0:0:0:
144,198,43192,2,0,P|157:237|115:352,2,157.5,0|8|8,3:0|0:0|0:0,0:0:0:0:
87,97,45279,6,0,P|137:83|201:98,1,105,12|8,0:2|0:0,0:0:0:0:
285,154,46322,2,0,P|335:168|399:153,1,105,8|8,0:0|0:0,0:0:0:0:
467,241,47366,2,0,L|474:354,1,105,12|8,0:0|0:0,0:0:0:0:
358,360,48409,2,0,L|365:247,1,105,8|8,0:0|0:0,0:0:0:0:
284,171,49453,6,0,B|170:153|170:153|67:178,1,210,4|4,3:2|3:2,0:0:0:0:
58,289,51018,1,8,0:0:0:0:
162,337,51540,2,0,L|333:349,2,157.5,4|12|8,3:2|0:0|0:0,0:0:0:0:
71,264,53627,6,0,B|52:177|52:177|68:147|68:147|48:41,1,210,6|10,3:2|0:0,0:0:0:0:
269,138,55714,2,0,B|250:224|250:224|266:255|266:255|246:361,1,210,0|10,3:2|0:0,0:0:0:0:
171,123,57801,6,0,P|221:52|346:78,1,210,4|10,3:2|0:0,0:0:0:0:
475,246,59888,2,0,P|425:317|300:291,1,210,0|10,3:2|0:0,0:0:0:0:
259,202,61453,1,14,0:0:0:0:
175,281,61975,6,0,L|161:157,2,105,4|8|0,3:2|0:0|3:0,0:0:0:0:
355,136,64062,2,0,P|409:129|471:144,2,105,0|8|0,3:0|0:0|3:0,0:0:0:0:
123,137,66149,6,0,L|101:21,2,105,4|0|0,3:2|3:0|3:0,0:0:0:0:
223,200,67714,1,0,3:0:0:0:
330,157,68236,2,0,L|445:167,2,105,2|2|2,3:2|3:2|3:2,0:0:0:0:
139,287,70322,6,0,P|230:335|352:319,1,210,14|10,0:0|0:0,0:0:0:0:
416,245,71888,1,8,0:0:0:0:
385,133,72409,2,0,P|294:85|172:101,1,210,10|10,0:0|0:0,0:0:0:0:
117,183,73975,1,8,0:0:0:0:
180,279,74496,6,0,L|394:307,1,210,14|10,0:0|0:0,0:0:0:0:
488,247,76062,1,8,0:0:0:0:
418,155,76583,2,0,L|314:137,1,105,14|10,0:0|0:0,0:0:0:0:
282,25,77627,2,0,L|178:43,1,105,10|10,0:0|0:0,0:0:0:0:
101,128,78670,6,0,B|90:182|90:182|101:222|101:222|66:278|110:341,1,210,14|10,0:0|0:0,0:0:0:0:
214,358,80236,1,8,0:0:0:0:
326,331,80757,2,0,B|337:277|337:277|326:237|326:237|361:181|317:118,1,210,8|14,0:0|0:0,0:0:0:0:
228,65,82322,1,0,3:0:0:0:
150,150,82844,6,0,L|158:259,1,105,4|10,3:2|0:0,0:0:0:0:
45,282,83888,2,0,L|53:173,1,105,0|10,0:0|0:0,0:0:0:0:
92,68,84931,2,0,P|140:53|208:72,1,105,4|0,3:2|0:0,0:0:0:0:
273,145,85975,2,0,L|353:162,2,78.75,0|0|0,3:0|3:0|3:0,0:0:0:0:
189,224,87279,6,0,P|166:187|187:69,1,157.5,4|2,3:2|0:0,0:0:0:0:
