osu file format v14

[General]
AudioFilename: audio.mp3
AudioLeadIn: 0
PreviewTime: 69540
Countdown: 0
SampleSet: Soft
StackLeniency: 0.6
Mode: 0
LetterboxInBreaks: 0
WidescreenStoryboard: 0

[Editor]
Bookmarks: 45264,48395,53612,61438,69786,87264,87916
DistanceSpacing: 1.3
BeatDivisor: 4
GridSize: 4
TimelineZoom: 2.4

[Metadata]
Title:Iwanai kedo ne.
TitleUnicode:言わないけどね。
Artist:Yuiko Ohara
ArtistUnicode: 大原ゆい子
Creator:-Mikan
Version:Normal
Source:からかい上手の高木さん
Tags:karakai jouzu no takagi-san skilled teaser 言わないけどね anime opening op tv size winter 2018 Ohwow Garden Zyl Trent83
BeatmapID:1538067
BeatmapSetID:720223

[Difficulty]
HPDrainRate:3
CircleSize:3
OverallDifficulty:4
ApproachRate:5
SliderMultiplier:1.25
SliderTickRate:1

[Events]
//Background and Video events
Video,-335,"Karakai Jouzu no Takagi-san.flv"
0,0,"kawaii loli.jpg",0,0
//Break Periods
//Storyboard Layer 0 (Background)
//Storyboard Layer 1 (Fail)
//Storyboard Layer 2 (Pass)
//Storyboard Layer 3 (Foreground)
//Storyboard Sound Samples

[TimingPoints]
-1143,521.739130434783,4,2,50,50,1,0
19204,500,4,2,50,50,1,0
19204,-98.0392156862745,4,2,50,50,0,0
19596,521.739130434783,4,2,50,50,1,0
20236,521.739130434783,4,2,50,60,1,0
53627,-100,4,2,50,50,0,0
61975,-100,4,2,50,60,0,0
70322,-100,4,2,50,80,0,1
84931,-100,4,2,50,70,0,0

[Colours]
Combo1 : 51,153,255
Combo2 : 0,111,221
Combo3 : 184,112,112
Combo4 : 255,128,64

[HitObjects]
45,103,943,6,0,P|119:114|270:28,1,250,2|2,3:2|0:0,0:0:0:0:
266,32,3030,6,0,L|271:285,1,250,2|2,3:2|0:0,0:0:0:0:
270,281,5117,6,0,P|298:215|341:317,1,250,2|2,3:2|0:0,0:0:0:0:
349,313,7204,6,0,P|379:210|513:112,1,250,2|2,3:2|0:0,0:0:0:0:
485,120,8770,1,2,0:0:0:0:
340,46,9291,6,0,L|204:39,1,125,2|0,0:0|0:0,0:0:0:0:
182,114,10074,1,0,0:0:0:0:
112,73,10335,2,0,P|109:151|161:192,1,125,2|0,0:0|0:0,0:0:0:0:
218,185,11117,5,2,0:0:0:0:
173,253,11378,2,0,P|200:317|276:326,1,125,2|0,0:0|0:0,0:0:0:0:
325,303,12161,1,0,0:0:0:0:
404,317,12422,6,0,B|419:253|419:253|395:182,1,125,2|2,0:0|0:0,0:0:0:0:
343,138,13204,1,0,0:0:0:0:
280,191,13465,1,2,0:0:0:0:
280,191,15552,6,0,B|216:258|112:174|64:170|10:222|20:283|77:313|146:279,1,375,2|12,0:0|0:3,0:0:0:0:
296,282,17639,6,0,P|341:255|366:211,2,93.75,4|0|4,0:0|1:0|0:1,0:0:0:0:
133,284,18943,5,0,0:0:0:0:
138,202,19204,2,0,L|144:66,1,133,2|0,1:2|1:0,0:0:0:0:
217,33,19987,1,4,0:3:0:0:
237,109,20236,6,0,P|288:144|364:136,1,125,4|0,0:0|1:0,0:0:0:0:
428,164,21018,1,0,0:0:0:0:
431,246,21279,2,0,L|454:379,1,125,0|0,0:0|1:0,0:0:0:0:
370,367,22062,1,0,0:0:0:0:
307,312,22322,6,0,P|244:292|176:332,1,125,2|0,0:0|1:0,0:0:0:0:
111,328,23105,1,0,0:0:0:0:
49,275,23366,2,0,L|66:124,1,125,0|0,0:0|1:0,0:0:0:0:
121,93,24149,1,0,0:0:0:0:
177,150,24409,6,0,P|201:115|162:20,1,125,2|0,0:0|1:0,0:0:0:0:
258,0,25192,1,0,0:0:0:0:
302,68,25453,2,0,P|356:81|382:72,1,62.5,0|0,0:0|3:0,0:0:0:0:
436,45,25975,1,0,1:0:0:0:
436,45,26496,6,0,B|441:107|441:107|429:168,1,125,4|2,1:2|0:0,0:0:0:0:
356,206,27279,2,0,P|286:189|218:224,1,125,4|0,1:2|3:0,0:0:0:0:
176,259,28062,1,0,1:0:0:0:
60,372,28583,6,0,L|196:385,1,125,4|0,0:0|1:0,0:0:0:0:
259,352,29366,2,0,L|412:361,1,125,0|2,0:0|3:2,0:0:0:0:
464,347,30149,1,0,1:0:0:0:
465,266,30409,1,2,0:0:0:0:
463,185,30670,6,0,P|397:208|378:276,1,125,2|0,0:0|1:0,0:0:0:0:
303,220,31453,2,0,L|176:164,1,125,2|2,0:0|0:0,0:0:0:0:
111,196,32236,1,0,1:0:0:0:
52,43,32757,6,0,P|104:32|211:52,1,125,2|0,0:0|1:0,0:0:0:0:
233,95,33540,2,0,P|286:101|323:86,1,62.5,0|0,0:0|0:0,0:0:0:0:
367,62,34062,2,0,P|397:58|428:66,1,62.5,2|0,3:2|1:0,0:0:0:0:
500,103,34583,1,2,0:0:0:0:
434,151,34844,6,0,P|413:210|450:281,1,125,4|0,1:2|3:0,0:0:0:0:
398,338,35627,2,0,B|333:324|333:324|267:339,1,125,4|0,1:2|3:0,0:0:0:0:
197,359,36409,1,0,1:0:0:0:
35,376,36931,6,0,L|25:221,1,125,4|0,0:0|1:0,0:0:0:0:
56,175,37714,2,0,P|92:144|67:62,1,125,0|2,0:0|3:2,0:0:0:0:
147,25,38496,2,0,L|229:27,1,62.5,0|0,1:0|0:0,0:0:0:0:
267,84,39018,6,0,L|394:67,1,125,2|0,0:0|1:0,0:0:0:0:
457,114,39801,1,0,0:0:0:0:
393,164,40062,2,0,P|344:179|315:249,1,125,0|0,0:0|1:0,0:0:0:0:
385,283,40844,5,0,0:0:0:0:
335,347,41105,2,0,P|277:360|206:345,1,125,2|0,0:0|1:0,0:0:0:0:
142,307,41888,2,0,L|161:233,1,62.5,0|0,0:0|0:0,0:0:0:0:
81,217,42409,2,0,L|67:132,1,62.5,0|0,3:0|1:0,0:0:0:0:
115,87,42931,1,2,0:0:0:0:
189,118,43192,6,0,P|269:121|320:93,1,125,4|2,1:2|1:2,0:0:0:0:
377,59,43975,2,0,B|403:118|403:118|417:202,1,125,4|0,1:2|3:0,0:0:0:0:
394,257,44757,1,0,1:0:0:0:
394,257,45279,6,0,L|260:258,1,125,4|0,1:2|1:0,0:0:0:0:
139,159,46322,2,0,L|273:160,1,125,0|0,1:0|1:0,0:0:0:0:
388,55,47366,2,0,L|254:56,1,125,4|0,1:2|1:0,0:0:0:0:
100,55,48409,5,0,1:0:0:0:
100,55,48931,1,0,1:0:0:0:
41,206,49453,6,0,P|26:262|48:348,1,125,6|0,1:2|1:0,0:0:0:0:
116,344,50236,1,0,0:0:0:0:
191,313,50496,2,0,L|359:332,1,125,6|0,1:2|1:0,0:0:0:0:
396,319,51279,1,2,0:0:0:0:
427,244,51540,6,0,B|414:213|414:213|423:98,1,125,4|0,1:2|3:0,0:0:0:0:
500,102,52322,2,0,P|454:45|369:65,1,125,4|0,1:2|3:0,0:0:0:0:
340,89,53105,1,0,3:0:0:0:
232,210,53627,6,0,P|169:245|188:131,1,250,4|2,1:0|3:2,0:0:0:0:
179,130,55192,1,0,0:0:0:0:
336,90,55714,6,0,L|318:341,1,250,0|0,3:0|3:0,0:0:0:0:
318,339,57279,1,2,3:2:0:0:
155,339,57801,6,0,B|121:274|158:209|158:209|194:150|149:77,1,250,4|0,0:0|3:0,0:0:0:0:
161,100,59366,1,2,0:0:0:0:
304,22,59888,6,0,B|335:86|335:86|534:121,1,250,2|0,3:2|1:0,0:0:0:0:
511,116,61453,1,14,0:0:0:0:
363,183,61975,6,0,L|486:204,2,125,4|0|0,1:2|1:0|1:0,0:0:0:0:
283,165,63279,1,0,0:0:0:0:
210,202,63540,2,0,L|201:277,1,62.5,0|0,0:0|0:0,0:0:0:0:
187,344,64062,6,0,P|126:297|134:224,2,125,4|0|0,1:2|1:0|1:0,0:0:0:0:
258,304,65366,1,0,0:0:0:0:
332,335,65627,2,0,P|384:343|414:334,1,62.5,0|0,0:0|0:0,0:0:0:0:
465,303,66149,6,0,P|483:239|446:187,1,125,4|0,1:2|1:0,0:0:0:0:
375,213,66931,1,0,1:0:0:0:
296,234,67192,2,0,P|262:190|282:114,1,125,2|0,1:2|1:0,0:0:0:0:
350,101,67975,1,0,1:0:0:0:
429,82,68236,6,0,L|429:16,1,62.5,6|2,1:2|1:2,0:0:0:0:
349,3,68757,2,0,L|264:3,1,62.5,2|2,1:2|1:2,0:0:0:0:
218,48,69279,1,0,1:0:0:0:
46,323,70322,6,0,L|57:179,1,125,4|0,1:2|1:0,0:0:0:0:
104,132,71105,1,0,0:0:0:0:
177,167,71366,2,0,P|220:229|204:278,1,125,0|0,1:0|1:0,0:0:0:0:
144,323,72149,1,0,0:0:0:0:
217,357,72409,6,0,L|364:338,1,125,4|0,1:2|1:0,0:0:0:0:
422,350,73192,1,0,0:0:0:0:
388,275,73453,2,0,P|358:217|385:140,1,125,0|0,1:0|1:0,0:0:0:0:
494,57,74496,6,0,P|396:70|364:52,1,125,4|0,1:2|1:0,0:0:0:0:
309,12,75279,1,0,0:0:0:0:
242,59,75540,2,0,L|98:48,1,125,0|0,1:0|1:0,0:0:0:0:
43,82,76322,1,0,0:0:0:0:
2,152,76583,6,0,L|2:220,1,62.5,4|2,1:2|0:0,0:0:0:0:
82,229,77105,2,0,L|82:165,1,62.5,2|2,1:2|0:0,0:0:0:0:
157,134,77627,5,4,1:2:0:0:
200,202,77888,1,0,1:0:0:0:
160,272,78149,1,4,1:0:0:0:
33,373,78670,6,0,P|109:357|161:372,1,125,4|2,1:2|1:2,0:0:0:0:
230,340,79453,1,0,0:0:0:0:
304,371,79714,2,0,P|380:355|432:370,1,125,2|0,1:2|1:0,0:0:0:0:
506,226,80757,6,0,L|511:163,1,62.5,2|2,1:2|1:2,0:0:0:0:
481,87,81279,2,0,P|448:77|407:81,1,62.5,2|2,1:2|1:2,0:0:0:0:
340,93,81801,6,0,P|283:106|219:62,1,125,4|2,1:2|0:0,0:0:0:0:
194,0,82583,1,2,0:0:0:0:
115,22,82844,6,0,L|126:163,1,125,6|0,1:2|1:2,0:0:0:0:
179,206,83627,2,0,P|219:211|255:199,2,62.5,0|0|2,0:0|0:0|0:0,0:0:0:0:
99,223,84409,2,0,L|62:276,1,62.5,0|2,1:0|0:0,0:0:0:0:
58,355,84931,6,0,P|151:384|237:325,1,187.5,6|0,0:0|0:0,0:0:0:0:
269,274,85975,6,0,P|307:244|372:236,2,93.75,4|2|2,1:2|1:2|1:2,0:0:0:0:
429,297,87279,6,0,L|431:99,1,187.5,6|2,0:0|0:0,0:0:0:0:
