osu file format v14

[General]
AudioFilename: audio.mp3
AudioLeadIn: 0
PreviewTime: 69540
Countdown: 0
SampleSet: Soft
StackLeniency: 0.3
Mode: 0
LetterboxInBreaks: 0
WidescreenStoryboard: 1

[Editor]
Bookmarks: 45264,48395,53612,61438,69786,87264,87916
DistanceSpacing: 1.3
BeatDivisor: 6
GridSize: 8
TimelineZoom: 3.599999

[Metadata]
Title:Iwanai kedo ne.
TitleUnicode:言わないけどね。
Artist:Yuiko Ohara
ArtistUnicode:大原ゆい子
Creator:-Mikan
Version:Jouzu
Source:からかい上手の高木さん
Tags:karakai jouzu no takagi-san skilled teaser 言わないけどね anime opening op tv size winter 2018 Ohwow Garden Zyl Trent83
BeatmapID:1520611
BeatmapSetID:720223

[Difficulty]
HPDrainRate:5.4
CircleSize:4
OverallDifficulty:7.8
ApproachRate:9
SliderMultiplier:1.15
SliderTickRate:1

[Events]
//Background and Video events
Video,-335,"Karakai Jouzu no Takagi-san.flv"
0,0,"kawaii loli.jpg",0,0
//Break Periods
//Storyboard Layer 0 (Background)
//Storyboard Layer 1 (Fail)
//Storyboard Layer 2 (Pass)
//Storyboard Layer 3 (Foreground)
//Storyboard Sound Samples

[TimingPoints]
-1143,521.739130434783,4,2,50,50,1,0
4074,-100,4,2,50,25,0,0
4987,-100,4,2,50,50,0,0
6030,-100,4,2,50,10,0,0
6161,-100,4,2,50,50,0,0
7074,-100,4,2,50,10,0,0
7204,-100,4,2,50,50,0,0
8770,-100,4,2,50,65,0,0
9291,-100,4,2,50,50,0,0
9943,-100,4,2,50,5,0,0
10074,-100,4,2,50,50,0,0
14509,-100,4,2,50,25,0,0
15552,-100,4,2,50,50,0,0
17291,-125,4,2,50,40,0,0
17639,-83.3333333333333,4,2,50,80,0,0
19204,500,4,2,50,80,1,0
19596,521.739130434783,4,2,50,80,1,0
19987,-133.333333333333,4,2,50,60,0,0
20183,-133.333333333333,4,2,50,10,0,0
20236,521.739130434783,4,2,50,50,1,0
20236,-100,4,2,50,50,0,0
21714,-100,4,2,50,5,0,0
21801,-100,4,2,50,50,0,0
22236,-100,4,2,50,5,0,0
22322,-100,4,2,50,50,0,0
24322,-100,4,2,50,5,0,0
24409,-100,4,2,50,50,0,0
26496,-111.111111111111,4,2,50,50,0,0
27018,-100,4,2,50,50,0,0
27279,-90.9090909090909,4,2,50,50,0,0
28322,-133.333333333333,4,2,50,50,0,0
28583,-100,4,2,50,50,0,0
30583,-100,4,2,50,5,0,0
30670,-100,4,2,50,50,0,0
32149,-100,4,2,50,5,0,0
32236,-100,4,2,50,50,0,0
34844,-125,4,2,50,50,0,0
35627,-142.857142857143,4,2,50,50,0,0
36409,-100,4,2,50,70,0,0
36931,-100,4,2,50,50,0,0
43062,-117.647058823529,4,2,50,50,0,0
43714,-100,4,2,50,50,0,0
43975,-142.857142857143,4,2,50,50,0,0
44757,-100,4,2,50,50,0,0
49192,-133.333333333333,4,2,50,50,0,0
49388,-133.333333333333,4,2,50,10,0,0
49453,-100,4,2,50,50,0,0
52236,-100,4,2,50,5,0,0
52322,-100,4,2,50,50,0,0
53627,-100,4,2,50,40,0,0
60670,-133.333333333333,4,2,50,40,0,0
60931,-100,4,2,50,50,0,0
61192,-100,4,2,50,40,0,0
61453,-83.3333333333333,4,2,50,60,0,0
61844,-80,4,2,50,60,0,0
63018,-100,4,2,50,60,0,0
63409,-66.6666666666667,4,2,50,60,0,0
63931,-80,4,2,50,60,0,0
65105,-100,4,2,50,60,0,0
65496,-66.6666666666667,4,2,50,60,0,0
66149,-57.1428571428571,4,2,50,70,0,0
68236,-50,4,2,50,90,0,0
68431,-50,4,2,50,10,0,0
68496,-50,4,2,50,90,0,0
68692,-50,4,2,50,10,0,0
68757,-50,4,2,50,90,0,0
68953,-50,4,2,50,10,0,0
69018,-50,4,2,50,90,0,0
69214,-50,4,2,50,10,0,0
69279,-50,4,2,50,100,0,0
69540,-100,4,2,50,35,0,0
70322,-50,4,2,50,80,0,1
84931,-100,4,2,50,60,0,0
85975,-100,4,2,50,80,0,0
86366,-100,4,2,50,70,0,0
86757,-100,4,2,50,60,0,0
87279,-100,4,2,50,90,0,0
88062,-100,4,2,50,40,0,0

[Colours]
Combo1 : 51,153,255
Combo2 : 0,111,221
Combo3 : 184,112,112
Combo4 : 255,128,64

[HitObjects]
87,43,813,5,0,0:0:0:0:
87,43,878,1,0,0:0:0:0:
87,43,943,2,0,B|127:27|139:-5|139:-5|131:75|143:155,1,230,2|0,0:0|0:0,0:0:0:0:
142,151,2900,5,0,0:0:0:0:
142,151,3030,2,0,B|226:183|290:135|290:135|282:175|234:195,1,230,2|0,0:0|0:0,0:0:0:0:
244,190,4987,5,0,0:0:0:0:
244,190,5117,2,0,B|236:154|252:122|252:122|267:155|257:207|257:207|250:229|251:259,1,201.25,2|0,0:0|0:0,0:0:0:0:
250,251,6161,6,0,B|314:304|378:261|378:261|414:239|445:264,1,201.25,2|0,0:0|0:0,0:0:0:0:
437,258,7204,6,0,B|449:166|449:166|417:248|350:275,1,230,2|2,0:0|0:0,0:0:0:0:
363,269,8770,1,2,0:0:0:0:
232,331,9291,6,0,L|211:268,1,57.5,2|0,0:0|0:0,0:0:0:0:
278,233,9683,2,0,L|287:167,1,57.5,0|0,0:0|0:0,0:0:0:0:
208,165,10074,1,0,0:0:0:0:
208,165,10335,6,0,P|237:117|344:127,1,172.5,2|0,0:0|0:0,0:0:0:0:
324,109,11248,1,0,0:0:0:0:
309,98,11378,5,2,0:0:0:0:
159,239,11639,1,0,0:0:0:0:
407,212,11900,5,2,0:0:0:0:
191,87,12161,1,0,0:0:0:0:
292,315,12422,6,0,L|270:263,1,28.75,2|0,0:0|0:0,0:0:0:0:
330,203,12683,2,0,L|324:246,1,28.75,2|0,0:0|0:0,0:0:0:0:
384,327,12943,2,0,L|391:279,1,28.75,2|0,0:0|0:0,0:0:0:0:
398,163,13204,2,0,L|409:189,1,28.75,2|0,0:0|0:0,0:0:0:0:
466,273,13465,6,0,B|429:212|369:212|320:250|320:250|286:276|251:259,1,230,2|0,0:0|0:0,0:0:0:0:
264,263,15552,5,2,0:0:0:0:
256,192,15639,12,0,17117,0:0:0:0:
89,330,17291,6,0,L|69:329,1,15.3333333333333,2|2,0:0|0:3,0:0:0:0:
45,311,17639,6,0,L|125:315,1,68.9999978942872,4|0,0:0|3:0,0:0:0:0:
165,222,18030,2,0,L|97:234,1,68.9999978942872,8|0,0:0|3:0,0:0:0:0:
217,290,18422,2,0,P|244:260|223:158,1,137.999995788574,12|0,0:0|0:0,0:0:0:0:
165,222,19204,5,2,3:2:0:0:
351,171,19370,1,2,3:2:0:0:
156,55,19596,5,8,0:0:0:0:
181,59,19661,1,8,0:0:0:0:
206,64,19726,1,8,0:0:0:0:
85,100,19900,1,0,3:0:0:0:
85,100,19987,2,0,P|74:82|71:63,1,32.3437512338162,4|0,0:3|0:0,0:0:0:0:
70,59,20236,6,0,L|76:123,1,57.5,4|0,3:2|0:0,0:0:0:0:
196,155,20627,1,0,0:0:0:0:
115,187,20757,2,0,L|109:251,1,57.5,8|0,0:0|0:0,0:0:0:0:
157,64,21192,6,0,L|160:84,1,19.1666666666667,0|0,3:0|0:0,0:0:0:0:
192,193,21453,1,0,0:0:0:0:
192,193,21540,2,0,L|195:155,1,38.3333333333333,0|0,3:0|0:0,0:0:0:0:
246,85,21801,6,0,P|268:82|294:85,1,38.3333333333333,8|0,0:0|0:0,0:0:0:0:
356,106,22062,2,0,P|378:109|404:106,1,38.3333333333333,0|0,3:0|0:0,0:0:0:0:
470,59,22322,6,0,L|468:125,1,57.5,0|0,3:0|3:0,0:0:0:0:
417,186,22714,1,0,0:0:0:0:
474,251,22844,2,0,L|481:329,1,57.5,8|0,0:0|0:0,0:0:0:0:
419,365,23268,2,0,L|394:361,1,21.5625,0|0,3:0|0:0,0:0:0:0:
245,345,23540,5,0,0:0:0:0:
245,344,23627,2,0,P|246:324|246:305,1,38.3333333333333,0|0,3:0|0:0,0:0:0:0:
198,232,23888,1,8,0:0:0:0:
287,215,24018,1,0,0:0:0:0:
238,146,24149,2,0,P|236:126|237:107,1,38.3333333333333,0|0,3:0|0:0,0:0:0:0:
321,91,24409,6,0,P|315:64|297:41,1,57.5,0|0,3:0|3:0,0:0:0:0:
237,107,24801,1,0,0:0:0:0:
313,167,24931,2,0,P|353:161|375:139,1,57.5,8|0,0:0|0:0,0:0:0:0:
229,193,25322,2,0,L|229:229,1,28.75,0|0,3:0|0:0,0:0:0:0:
138,272,25627,5,0,0:0:0:0:
138,272,25714,2,0,P|119:269|98:275,1,28.75,0|0,3:0|0:0,0:0:0:0:
29,307,25975,2,0,L|24:260,1,38.3333333333333,8|0,0:0|0:0,0:0:0:0:
62,201,26236,6,0,L|64:166,1,28.75,0|0,3:0|0:0,0:0:0:0:
67,95,26496,2,0,L|63:191,1,77.6249976310731,12|0,0:0|3:0,0:0:0:0:
149,181,27018,6,0,L|156:143,1,28.75,0|0,3:0|0:0,0:0:0:0:
176,50,27279,2,0,L|153:164,1,105.416669883728,12|0,0:0|0:0,0:0:0:0:
155,153,27801,1,0,3:0:0:0:
67,95,27931,1,0,0:0:0:0:
260,90,28062,5,8,0:0:0:0:
96,243,28236,1,8,0:0:0:0:
96,243,28322,2,0,L|96:272,1,21.5625008225441
97,349,28583,6,0,P|133:343|169:362,1,57.5,4|0,3:2|3:0,0:0:0:0:
229,376,28975,1,0,0:0:0:0:
267,304,29105,2,0,P|276:274|303:252,1,57.5,8|0,0:0|0:0,0:0:0:0:
364,331,29529,2,0,L|364:356,1,21.5625,0|0,3:0|0:0,0:0:0:0:
404,242,29801,5,0,0:0:0:0:
404,242,29888,2,0,L|404:194,1,38.3333333333333,0|0,3:0|0:0,0:0:0:0:
370,133,30149,2,0,P|353:131|336:133,1,28.75,8|0,0:0|0:0,0:0:0:0:
258,164,30409,2,0,P|238:165|220:162,1,38.3333333333333,0|0,3:0|0:0,0:0:0:0:
165,109,30670,6,0,P|161:80|168:52,1,57.5,0|0,3:0|3:0,0:0:0:0:
248,14,31062,1,0,0:0:0:0:
331,45,31192,2,0,L|404:38,1,57.5,8|0,0:0|0:0,0:0:0:0:
508,27,31627,5,0,3:0:0:0:
508,27,31714,2,0,L|502:76,1,38.3333333333333
499,139,31975,2,0,L|493:188,1,38.3333333333333,0|0,3:0|0:0,0:0:0:0:
411,204,32236,2,0,L|418:139,1,57.5,8|0,0:0|0:0,0:0:0:0:
442,285,32670,5,0,0:0:0:0:
442,285,32757,2,0,P|416:296|387:295,1,57.5,0|0,3:0|3:0,0:0:0:0:
313,246,33149,1,0,0:0:0:0:
247,298,33279,2,0,L|247:326,1,28.75,8|0,0:0|0:0,0:0:0:0:
207,218,33540,6,0,L|207:166,1,38.3333333333333,0|0,0:0|3:0,0:0:0:0:
267,123,33801,2,0,L|267:84,1,38.3333333333333
352,56,34062,6,0,L|422:48,1,57.5,0|8,3:0|0:0,0:0:0:0:
470,117,34453,1,0,0:0:0:0:
445,197,34583,1,0,3:0:0:0:
488,273,34714,1,0,0:0:0:0:
446,347,34844,6,0,L|396:330,1,46,12|0,0:0|0:0,0:0:0:0:
488,273,35236,5,0,3:0:0:0:
332,360,35366,1,2,0:0:0:0:
12,259,35627,5,12,0:0:0:0:
101,228,35757,2,0,L|122:222,1,20.1249993858338
64,160,36018,5,0,0:0:0:0:
212,232,36149,1,0,3:0:0:0:
80,320,36409,5,8,0:0:0:0:
168,104,36583,1,4,3:0:0:0:
168,104,36931,6,0,P|197:109|232:101,1,57.5,4|0,3:2|0:0,0:0:0:0:
196,29,37322,1,0,0:0:0:0:
95,77,37453,2,0,P|90:105|95:133,1,57.5,8|0,0:0|0:0,0:0:0:0:
198,125,37888,5,0,3:0:0:0:
198,125,37975,2,0,L|243:129,1,38.3333333333333
324,208,38236,2,0,L|257:200,1,57.5,0|8,3:0|0:0,0:0:0:0:
348,132,38627,1,0,0:0:0:0:
406,197,38757,1,0,3:0:0:0:
372,276,38888,1,0,0:0:0:0:
266,201,39018,6,0,L|324:208,1,57.5,0|0,3:0|3:0,0:0:0:0:
372,276,39409,1,0,0:0:0:0:
290,125,39540,2,0,L|347:131,1,57.5,8|0,0:0|0:0,0:0:0:0:
461,18,39975,5,0,3:0:0:0:
461,18,40062,2,0,L|466:61,1,38.3333333333333
373,45,40322,2,0,L|315:38,1,57.5,0|8,3:0|0:0,0:0:0:0:
236,73,40714,1,0,0:0:0:0:
154,40,40844,1,0,3:0:0:0:
81,88,40975,1,0,0:0:0:0:
109,6,41105,6,0,P|129:14|158:51,1,57.5,0|0,3:0|3:0,0:0:0:0:
81,88,41496,1,0,0:0:0:0:
226,55,41627,2,0,P|218:75|181:105,1,57.5,8|0,0:0|0:0,0:0:0:0:
168,183,42062,5,0,3:0:0:0:
168,183,42149,2,0,L|182:229,1,43.125
255,181,42409,2,0,L|263:145,1,28.75,0|0,3:0|0:0,0:0:0:0:
130,273,42670,6,0,P|159:293|192:293,1,57.5,8|0,0:0|0:0,0:0:0:0:
57,299,43062,1,0,0:0:0:0:
180,295,43192,2,0,P|220:286|246:259,1,73.312501398325,0|0,3:0|0:0,0:0:0:0:
134,359,43714,2,0,L|150:392,1,28.75,8|0,0:0|0:0,0:0:0:0:
242,264,43975,2,0,P|256:232|252:200,1,67.0833312861125,0|8,3:0|0:0,0:0:0:0:
184,223,44496,1,0,3:0:0:0:
364,369,44757,6,0,L|356:300,1,57.5,8|0,0:0|3:0,0:0:0:0:
347,233,45149,1,0,0:0:0:0:
252,200,45279,6,0,L|262:281,1,57.5,12|0,0:2|3:0,0:0:0:0:
321,146,45670,1,0,0:0:0:0:
180,226,45801,6,0,L|190:307,1,57.5,8|0,0:2|3:0,0:0:0:0:
248,172,46192,1,0,0:0:0:0:
109,253,46322,6,0,L|119:334,1,57.5,8|0,0:2|3:0,0:0:0:0:
177,199,46714,1,0,0:0:0:0:
35,281,46844,6,0,L|45:362,1,57.5,8|0,0:2|3:0,0:0:0:0:
190,117,47366,6,0,L|197:59,1,57.5,8|0,0:2|3:0,0:0:0:0:
238,215,47757,1,0,0:0:0:0:
238,215,47888,6,0,L|245:272,1,57.5,8|0,0:2|3:0,0:0:0:0:
316,144,48279,1,0,0:0:0:0:
316,144,48409,6,0,L|351:136,1,28.75,8|0,0:0|0:0,0:0:0:0:
352,64,48670,1,0,3:0:0:0:
283,225,48801,1,0,0:0:0:0:
441,188,48931,5,8,0:0:0:0:
224,163,49105,1,8,3:0:0:0:
224,163,49192,2,0,P|212:174|206:189,1,32.3437512338162,0|0,3:0|0:0,0:0:0:0:
204,203,49453,6,0,L|199:133,1,57.5,4|0,3:2|3:0,0:0:0:0:
128,192,49844,1,0,0:0:0:0:
283,225,49975,2,0,L|287:282,1,57.5,8|0,0:0|0:0,0:0:0:0:
318,347,50409,5,8,0:0:0:0:
318,347,50496,2,0,P|287:356|256:347,1,57.5,4|0,3:2|3:0,0:0:0:0:
427,292,51018,6,0,P|458:283|489:292,1,57.5,8|0,0:0|0:0,0:0:0:0:
355,282,51453,1,0,0:0:0:0:
355,282,51540,6,0,L|357:242,1,28.75,4|0,3:2|0:0,0:0:0:0:
435,122,51801,1,0,0:0:0:0:
491,212,51931,1,0,0:0:0:0:
491,212,51996,1,0,3:0:0:0:
491,212,52062,2,0,P|460:212|440:207,1,38.3333333333333,2|0,0:3|0:0,0:0:0:0:
363,105,52322,6,0,P|384:64|446:51,1,95.8333333333333,12|0,0:0|3:0,0:0:0:0:
444,70,52844,2,0,L|442:98,1,28.75,0|0,3:0|0:0,0:0:0:0:
491,212,53105,5,8,0:0:0:0:
364,199,53279,1,0,0:0:0:0:
364,199,53366,1,8,0:3:0:0:
282,280,53627,6,0,B|267:239|267:239|271:160,1,115,6|0,3:2|0:0,0:0:0:0:
235,88,54279,1,0,0:0:0:0:
181,155,54409,1,0,3:0:0:0:
270,167,54540,1,0,0:0:0:0:
327,104,54670,1,10,0:0:0:0:
148,79,55192,5,0,0:0:0:0:
463,291,55714,6,0,P|407:279|360:324,1,115,0|10,3:2|0:0,0:0:0:0:
267,352,56409,1,2,0:0:0:0:
184,295,56583,1,2,0:0:0:0:
374,328,56757,5,10,0:0:0:0:
261,375,56931,1,2,0:0:0:0:
164,307,57105,1,2,0:0:0:0:
283,213,57279,5,10,0:0:0:0:
89,149,57801,6,0,B|69:138|69:138|118:150|168:147,1,115,4|0,3:2|0:0,0:0:0:0:
140,238,58583,1,0,3:0:0:0:
122,64,58844,1,10,0:0:0:0:
361,152,59105,6,0,L|325:171,1,28.75
264,205,59366,1,0,0:0:0:0:
255,50,59627,1,0,3:0:0:0:
444,144,59888,6,0,P|400:115|360:154,1,115,4|0,3:2|0:0,0:0:0:0:
489,79,60670,6,0,L|483:53,1,21.5625008225441
444,144,60931,2,0,L|456:200,1,57.5,10|0,0:0|3:0,0:0:0:0:
396,80,61322,5,0,0:0:0:0:
360,151,61453,2,0,L|376:222,1,68.9999978942872,14|0,0:0|3:0,0:0:0:0:
252,76,61844,5,8,0:3:0:0:
243,81,61909,1,0,0:0:0:0:
235,87,61975,2,0,P|269:94|311:81,2,71.875,4|0|8,3:2|3:0|0:0,0:0:0:0:
375,218,62757,1,0,0:0:0:0:
174,192,63018,6,0,L|179:229,2,28.75,0|0|0,3:0|0:0|0:0,0:0:0:0:
168,149,63409,6,0,L|174:196,1,43.1250016450883,8|0,0:0|0:0,0:0:0:0:
162,106,63670,2,0,L|168:153,1,43.1250016450883,8|0,0:0|0:0,0:0:0:0:
87,119,63931,5,0,3:0:0:0:
235,87,64062,2,0,P|221:56|187:36,2,71.875,0|0|8,3:0|3:0|0:0,0:0:0:0:
40,27,64844,1,0,0:0:0:0:
304,136,65105,6,0,L|316:97,2,28.75,0|0|0,3:0|3:0|0:0,0:0:0:0:
291,177,65496,6,0,L|307:122,1,43.1250016450883,8|0,0:0|0:0,0:0:0:0:
278,218,65757,2,0,L|294:163,1,43.1250016450883,8|0,0:0|0:0,0:0:0:0:
353,244,66018,5,0,0:0:0:0:
204,231,66149,2,0,P|212:260|233:279,1,50.3125004798174,4|0,3:2|0:0,0:0:0:0:
218,158,66409,2,0,P|205:130|181:115,1,50.3125004798174,8|0,0:0|0:0,0:0:0:0:
182,233,66670,6,0,P|176:268|189:299,1,50.3125004798174,0|0,3:0|0:0,0:0:0:0:
234,159,66931,2,0,P|233:123|215:95,1,50.3125004798174,8|0,0:0|0:0,0:0:0:0:
353,244,67192,6,0,L|406:237,1,50.3125004798174,0|0,3:0|0:0,0:0:0:0:
284,166,67453,2,0,L|231:159,1,50.3125004798174,8|0,0:0|0:0,0:0:0:0:
374,154,67714,6,0,L|364:80,1,50.3125004798174,0|0,3:0|0:0,0:0:0:0:
265,249,67975,2,0,L|255:322,1,50.3125004798174,8|0,0:0|0:0,0:0:0:0:
437,91,68236,6,0,P|408:45|358:36,1,86.25,2|0,3:2|0:0,0:0:0:0:
442,117,68496,6,0,P|492:96|509:48,1,86.25,2|0,3:2|0:0,0:0:0:0:
417,121,68757,6,0,P|428:174|472:199,1,86.25,2|0,3:2|0:0,0:0:0:0:
413,95,69018,6,0,P|358:97|325:135,1,86.25,2|0,3:2|0:0,0:0:0:0:
292,180,69279,5,2,3:2:0:0:
292,180,69540,6,0,L|296:212,2,19.1666666666667,2|0|0,0:0|0:0|0:0,0:0:0:0:
215,242,69801,2,0,L|218:209,2,19.1666666666667,2|0|0,0:0|0:0|0:0,0:0:0:0:
137,260,70062,2,0,L|145:296,2,19.1666666666667,2|0|0,0:0|0:0|0:0,0:0:0:0:
216,144,70322,6,0,L|233:18,1,115,14|0,0:0|3:0,0:0:0:0:
292,180,70714,1,0,0:0:0:0:
127,52,70844,2,0,P|186:21|238:34,1,115,10|0,0:0|0:0,0:0:0:0:
33,31,71236,5,0,0:0:0:0:
33,31,71366,2,0,L|49:100,1,57.5,10|2,0:0|0:0,0:0:0:0:
76,209,71627,1,0,3:0:0:0:
76,209,71757,2,0,L|87:152,1,57.5,2|8,0:0|0:0,0:0:0:0:
149,253,72018,2,0,L|160:196,1,57.5,2|0,0:0|3:0,0:0:0:0:
222,297,72279,5,2,0:0:0:0:
222,297,72409,2,0,L|256:131,1,115,10|0,0:0|3:0,0:0:0:0:
148,338,72801,1,0,0:0:0:0:
304,272,72931,2,0,P|278:202|215:182,1,115,10|0,0:0|0:0,0:0:0:0:
372,312,73322,5,0,0:0:0:0:
372,312,73453,2,0,L|443:278,1,57.5,10|2,0:0|0:0,0:0:0:0:
399,153,73714,1,0,3:0:0:0:
399,153,73844,2,0,L|385:208,1,57.5,2|8,0:0|0:0,0:0:0:0:
480,141,74105,2,0,L|466:196,1,57.5,2|0,0:0|3:0,0:0:0:0:
428,74,74366,5,2,0:0:0:0:
428,74,74496,2,0,P|351:83|325:111,1,115,14|0,0:0|3:0,0:0:0:0:
399,153,74888,1,0,0:0:0:0:
274,55,75018,2,0,L|296:200,1,115,10|0,0:0|0:0,0:0:0:0:
269,278,75409,5,0,0:0:0:0:
269,278,75540,2,0,P|300:285|346:268,1,57.5,10|2,0:0|0:0,0:0:0:0:
196,255,75801,5,0,3:0:0:0:
196,255,75931,2,0,P|191:284|200:311,1,57.5,2|8,0:0|0:0,0:0:0:0:
390,313,76192,2,0,P|398:285|394:257,1,57.5,2|0,0:0|3:0,0:0:0:0:
293,143,76453,5,0,0:0:0:0:
220,125,76583,2,0,P|215:153|224:180,1,57.5,14|0,0:0|0:0,0:0:0:0:
367,169,76844,2,0,P|371:140|362:113,1,57.5,2|0,3:2|0:0,0:0:0:0:
188,112,77105,2,0,L|121:136,1,57.5,10|0,0:0|0:0,0:0:0:0:
399,185,77366,2,0,L|466:161,1,57.5,2|0,3:2|0:0,0:0:0:0:
293,143,77627,5,10,0:0:0:0:
294,159,77888,1,10,0:0:0:0:
295,171,78149,1,4,1:0:0:0:
168,43,78322,5,0,3:0:0:0:
188,112,78409,1,4,0:3:0:0:
387,148,78540,5,2,0:0:0:0:
391,128,78605,1,0,0:0:0:0:
394,109,78670,2,0,B|363:89|363:89|279:88,1,115,12|0,0:0|3:0,0:0:0:0:
296,181,79062,5,2,0:0:0:0:
416,113,79192,2,0,P|419:70|406:45,1,57.5,8|0,0:0|0:0,0:0:0:0:
188,112,79453,2,0,L|250:112,1,57.5,2|0,3:2|0:0,0:0:0:0:
111,90,79714,6,0,P|112:141|174:190,1,115,10|0,0:0|3:0,0:0:0:0:
188,112,80105,1,0,0:0:0:0:
103,216,80236,2,0,L|211:205,1,86.25,8|0,0:0|0:0,0:0:0:0:
210,207,80496,6,0,L|201:276,1,57.5,2|2,3:2|0:0,0:0:0:0:
148,368,80757,6,0,L|139:299,1,57.5,10|0,0:0|0:0,0:0:0:0:
230,195,81018,6,0,L|221:264,1,57.5,10|0,0:0|0:0,0:0:0:0:
130,379,81279,6,0,L|121:310,1,57.5,10|0,0:0|0:0,0:0:0:0:
103,216,81540,5,10,0:0:0:0:
287,293,81670,1,2,0:0:0:0:
305,291,81736,1,0,0:0:0:0:
323,283,81801,2,0,P|359:240|337:166,1,115,14|0,0:0|0:0,0:0:0:0:
283,217,82236,5,0,1:0:0:0:
283,217,82322,1,2,3:2:0:0:
459,233,82496,5,0,1:0:0:0:
459,233,82583,1,2,3:2:0:0:
442,78,82757,5,8,1:3:0:0:
442,78,82844,2,0,B|409:87|378:67|386:65|355:58|326:68,1,115,6|2,3:2|3:2,0:0:0:0:
503,118,83279,5,0,0:0:0:0:
512,109,83366,2,0,P|517:57|459:5,1,115,10|0,0:0|0:0,0:0:0:0:
268,24,83801,6,0,B|229:65|229:65|155:70,1,115,10|0,0:0|0:0,0:0:0:0:
143,57,84149,2,0,P|164:104|159:150,1,76.6666666666667,2|0,3:2|0:0,0:0:0:0:
143,205,84409,1,10,0:0:0:0:
442,78,84670,5,4,0:3:0:0:
64,236,84931,6,0,P|91:272|210:254,1,172.5,4|0,3:2|0:0,0:0:0:0:
143,205,85975,5,10,3:0:0:0:
301,336,86366,1,10,3:0:0:0:
355,136,86757,1,10,3:0:0:0:
205,259,87279,5,4,3:2:0:0:
256,192,87322,12,2,88062,0:0:0:0:
