osu file format v14

[General]
AudioFilename: hoshi woooooo tadoreba.mp3
AudioLeadIn: 0
PreviewTime: -1
Countdown: 1
SampleSet: None
StackLeniency: 0.7
Mode: 0
LetterboxInBreaks: 0
WidescreenStoryboard: 0

[Editor]
DistanceSpacing: 1
BeatDivisor: 4
GridSize: 8
TimelineZoom: 1

[Metadata]
Title:Hoshi wo Tadoreba
TitleUnicode:星を辿れば
Artist:Yuiko Ohara
ArtistUnicode:大原ゆい子
Creator:[ZN]
Version:Witch
Source:リトルウィッチアカデミア
Tags:cocytus little witch academia tv size ed ending trigger アツコ・カガリ atsuko kagari akko ロッテ・ヤンソン lotte jansson スーシィ・マンババラン sucy manbavaran ダイアナ・キャベンディッシュ lkx_Shore
BeatmapID:1296177
BeatmapSetID:614445

[Difficulty]
HPDrainRate:7
CircleSize:4
OverallDifficulty:8
ApproachRate:9
SliderMultiplier:2.1
SliderTickRate:1

[Events]
//Background and Video events
//Break Periods
//Storyboard Layer 0 (Background)
//Storyboard Layer 1 (Fail)
//Storyboard Layer 2 (Pass)
//Storyboard Layer 3 (Foreground)
//Storyboard Sound Samples

[TimingPoints]
556,458.015267175573,4,2,0,30,1,0
15212,-100,4,2,0,30,0,0
46357,-100,4,2,0,30,0,1
53685,-100,4,2,0,30,0,0
56433,-66.6666666666667,4,2,0,30,0,0
57120,-100,4,2,0,30,0,0
58494,-50,4,2,0,30,0,0
58838,-100,4,2,0,5,0,0
58952,-50,4,2,0,30,0,0
59296,-100,4,2,0,5,0,0
59639,-100,4,2,0,30,0,0
61014,-100,4,2,0,30,0,1
68342,-100,4,2,0,30,0,0
72006,-100,4,2,0,30,0,1
72464,-100,4,2,0,30,0,0
73838,-100,4,2,0,30,0,1
75441,-100,4,2,0,30,0,0
79334,-100,4,2,0,30,0,1
86204,-100,4,2,0,30,0,0

[Colours]
Combo1 : 0,0,0
Combo2 : 0,255,255
Combo3 : 128,0,255
Combo4 : 255,0,128

[HitObjects]
144,240,556,5,0,0:0:0:0:
144,240,1243,2,0,B|208:200|208:200|288:208|352:160|352:160|416:96,1,315
136,120,2388,1,0,0:0:0:0:
312,264,3075,1,0,0:0:0:0:
120,264,3533,5,0,0:0:0:0:
168,304,3647,1,0,0:0:0:0:
232,312,3762,1,0,0:0:0:0:
296,296,3876,1,0,0:0:0:0:
344,256,3991,1,0,0:0:0:0:
392,216,4105,1,0,0:0:0:0:
424,160,4220,2,0,B|376:80|376:80|248:96|192:32|192:32|120:40,1,315
192,192,5365,5,0,0:0:0:0:
256,176,5479,1,0,0:0:0:0:
304,136,5594,1,0,0:0:0:0:
328,80,5708,1,0,0:0:0:0:
328,16,5823,2,0,L|256:0,1,52.5
48,128,6052,1,0,0:0:0:0:
136,296,6281,1,0,0:0:0:0:
344,328,6510,1,0,0:0:0:0:
464,184,6739,1,0,0:0:0:0:
152,184,7426,5,0,0:0:0:0:
216,168,7540,1,0,0:0:0:0:
280,152,7655,1,0,0:0:0:0:
336,120,7769,1,0,0:0:0:0:
392,80,7884,2,0,B|400:136|360:288|360:288|288:296|248:352,1,315
336,120,9258,1,0,0:0:0:0:
104,192,9716,2,0,B|152:280|288:304|288:304|392:240,1,315
176,96,10861,1,0,0:0:0:0:
224,136,10975,1,0,0:0:0:0:
264,184,11090,1,0,0:0:0:0:
296,240,11204,1,0,0:0:0:0:
320,296,11319,1,0,0:0:0:0:
336,352,11433,1,0,0:0:0:0:
128,296,11548,6,0,L|232:248,2,105
104,184,12235,2,0,B|176:144|264:160|264:160|312:184,1,210
328,248,13151,1,0,0:0:0:0:
368,200,13265,1,0,0:0:0:0:
408,152,13380,2,0,L|392:296,1,105
80,328,13838,1,0,0:0:0:0:
144,296,13952,1,0,0:0:0:0:
120,264,14067,1,0,0:0:0:0:
176,232,14181,1,0,0:0:0:0:
160,192,14296,1,0,0:0:0:0:
136,128,14525,1,0,0:0:0:0:
208,288,14754,2,0,L|264:264,1,52.5
248,128,14983,2,0,L|224:80,1,52.5
464,144,15212,5,0,0:0:0:0:
288,360,15441,1,0,0:0:0:0:
336,320,15556,1,0,0:0:0:0:
384,280,15670,1,0,0:0:0:0:
304,192,15899,1,0,0:0:0:0:
352,152,16014,1,0,0:0:0:0:
400,112,16128,1,0,0:0:0:0:
176,128,16357,2,0,L|232:256,2,105
104,240,17044,5,0,0:0:0:0:
264,344,17273,1,0,0:0:0:0:
432,264,17502,1,0,0:0:0:0:
504,176,17731,2,0,L|344:192,1,157.5
312,240,18189,2,0,L|384:272,1,52.5
280,184,18418,2,0,B|224:192|224:192|175:184,1,105
128,280,18876,5,0,0:0:0:0:
272,320,19105,1,0,0:0:0:0:
320,304,19220,1,0,0:0:0:0:
368,288,19334,1,0,0:0:0:0:
208,192,19563,1,0,0:0:0:0:
256,232,19678,1,0,0:0:0:0:
296,176,19792,2,0,L|352:176,1,52.5
368,48,20021,2,0,L|432:48,1,52.5
216,48,20250,2,0,L|288:16,1,52.5
112,112,20479,2,0,L|72:146,1,52.5
64,304,20708,6,0,L|232:360,1,157.5
96,240,21166,2,0,L|136:80,1,157.5
152,272,21624,2,0,L|320:288,1,157.5
168,120,22082,1,0,0:0:0:0:
224,112,22197,1,0,0:0:0:0:
264,88,22311,1,0,0:0:0:0:
312,56,22426,1,0,0:0:0:0:
360,80,22540,1,0,0:0:0:0:
40,208,22998,6,0,L|104:192,1,52.5
264,184,23227,2,0,L|280:128,1,52.5
416,328,23456,2,0,L|416:256,1,52.5
368,144,23685,2,0,L|312:304,1,157.5
64,312,24143,2,0,B|136:320|136:320|192:288|192:288|304:296,1,210
88,144,24830,5,0,0:0:0:0:
144,128,24945,1,0,0:0:0:0:
200,112,25059,2,0,L|416:64,1,210
416,200,25746,1,0,0:0:0:0:
360,320,25975,1,0,0:0:0:0:
120,200,26204,2,0,L|248:296,1,157.5
360,104,26662,2,0,L|360:208,1,105
336,304,27349,1,0,0:0:0:0:
160,232,27807,5,0,0:0:0:0:
192,184,27922,1,0,0:0:0:0:
232,144,28036,2,0,L|408:128,1,157.5
288,256,28494,1,0,0:0:0:0:
256,200,28609,1,0,0:0:0:0:
232,144,28723,2,0,L|32:152,1,157.5
74,150,29410,1,0,0:0:0:0:
144,160,29525,1,0,0:0:0:0:
208,176,29639,1,0,0:0:0:0:
272,184,29754,1,0,0:0:0:0:
336,192,29868,1,0,0:0:0:0:
416,304,30097,6,0,L|488:280,1,52.5
400,200,30326,2,0,L|392:144,1,52.5
200,216,30556,1,0,0:0:0:0:
256,248,30670,1,0,0:0:0:0:
312,280,30785,2,0,L|304:336,1,52.5
128,312,31014,2,0,L|32:240,1,105
168,136,31472,1,0,0:0:0:0:
224,120,31586,1,0,0:0:0:0:
272,104,31701,1,0,0:0:0:0:
376,160,32159,2,0,L|312:200,1,52.5
104,248,32388,2,0,L|48:136,1,105
176,216,32846,5,0,0:0:0:0:
240,200,32960,1,0,0:0:0:0:
296,200,33075,1,0,0:0:0:0:
352,224,33189,1,0,0:0:0:0:
392,264,33304,1,0,0:0:0:0:
448,248,33418,1,0,0:0:0:0:
488,208,33533,2,0,L|416:112,2,105
32,192,34220,2,0,L|96:160,1,52.5
168,240,34449,1,0,0:0:0:0:
280,176,34678,1,0,0:0:0:0:
400,216,34907,1,0,0:0:0:0:
328,312,35136,5,0,0:0:0:0:
392,296,35250,1,0,0:0:0:0:
456,280,35365,2,0,L|472:152,1,105
64,136,35823,2,0,L|16:176,1,52.5
96,96,36052,2,0,L|45:83,1,52.5
120,128,36281,2,0,L|232:120,1,105
344,136,36739,1,0,0:0:0:0:
360,184,36853,1,0,0:0:0:0:
344,232,36968,1,0,0:0:0:0:
352,288,37082,1,0,0:0:0:0:
384,328,37197,1,0,0:0:0:0:
200,328,37426,1,0,0:0:0:0:
88,192,37655,1,0,0:0:0:0:
120,32,37884,2,0,L|280:64,1,157.5
368,144,38342,5,0,0:0:0:0:
256,264,38571,2,0,L|312:216,1,52.5
368,144,38800,1,0,0:0:0:0:
304,152,38914,1,0,0:0:0:0:
240,160,39029,1,0,0:0:0:0:
320,328,39258,1,0,0:0:0:0:
488,288,39487,2,0,L|432:224,1,52.5
368,144,39716,1,0,0:0:0:0:
104,136,39945,6,0,L|152:88,1,52.5
200,80,40174,1,0,0:0:0:0:
264,72,40288,1,0,0:0:0:0:
328,88,40403,1,0,0:0:0:0:
376,136,40517,1,0,0:0:0:0:
408,192,40632,1,0,0:0:0:0:
416,256,40746,1,0,0:0:0:0:
384,312,40861,6,0,B|328:328|304:368|216:352,1,157.5
296,384,41319,2,0,B|264:344|208:336|176:232,1,157.5
152,304,41777,2,0,B|184:272|264:248|288:200,1,157.5
296,288,42235,2,0,L|376:296,1,52.5
440,336,42464,2,0,L|448:280,1,52.5
432,224,42693,1,0,0:0:0:0:
400,168,42807,1,0,0:0:0:0:
360,120,42922,1,0,0:0:0:0:
96,144,43151,1,0,0:0:0:0:
136,200,43265,1,0,0:0:0:0:
184,248,43380,1,0,0:0:0:0:
240,288,43494,1,0,0:0:0:0:
296,320,43609,1,0,0:0:0:0:
360,328,43723,1,0,0:0:0:0:
424,320,43838,1,0,0:0:0:0:
256,192,44067,12,0,44983,0:0:0:0:
248,264,45441,5,0,0:0:0:0:
312,280,45556,1,0,0:0:0:0:
376,272,45670,1,0,0:0:0:0:
432,240,45785,1,0,0:0:0:0:
472,192,45899,1,0,0:0:0:0:
40,136,46357,6,0,L|88:104,1,52.5,2|0,0:0|0:0,0:0:0:0:
216,192,46586,2,0,L|288:184,1,52.5,2|0,0:0|0:0,0:0:0:0:
440,144,46815,2,4,B|424:184|424:184|392:200|392:200|376:240,1,105,12|4,0:0|0:0,0:0:0:0:
176,336,47273,2,0,L|120:328,1,52.5
80,288,47502,1,8,0:0:0:0:
96,232,47617,1,0,0:0:0:0:
152,208,47731,1,2,0:0:0:0:
208,224,47846,1,0,0:0:0:0:
264,208,47960,1,0,0:0:0:0:
312,176,48075,1,0,0:0:0:0:
416,240,48189,2,0,P|376:288|320:296,2,105,0|0|8,0:0|0:0|0:0,0:0:0:0:
312,176,48876,6,0,L|208:160,1,105,4|0,0:0|0:0,0:0:0:0:
136,344,49334,2,0,B|160:320|160:320|208:328|240:296,1,105,0|8,0:0|0:0,0:0:0:0:
264,216,49792,2,0,L|264:152,1,52.5
368,176,50021,2,0,P|368:232|371:251,1,52.5
432,48,50250,2,0,L|432:120,1,52.5
472,224,50479,2,0,L|512:176,1,52.5,12|0,0:0|0:0,0:0:0:0:
200,240,50708,2,0,L|200:160,1,52.5
288,120,50937,2,0,L|360:128,1,52.5
448,80,51166,2,0,L|448:152,1,52.5
336,256,51395,2,0,L|408:232,1,52.5,8|0,0:0|0:0,0:0:0:0:
352,376,51624,5,0,0:0:0:0:
408,360,51739,1,0,0:0:0:0:
456,336,51853,2,0,L|504:296,1,52.5
488,160,52082,2,0,L|440:192,1,52.5
424,48,52311,2,0,L|368:88,1,52.5,8|0,0:0|0:0,0:0:0:0:
312,272,52540,2,0,L|368:216,1,52.5
264,56,52769,2,0,L|184:72,1,52.5
176,200,52998,2,0,L|240:176,1,52.5
128,24,53227,2,0,L|88:88,1,52.5,8|0,0:0|0:0,0:0:0:0:
16,200,53456,2,0,L|80:168,1,52.5,4|0,0:0|0:0,0:0:0:0:
176,280,53685,6,0,B|144:280|144:280|120:312|80:312,2,105,0|0|8,0:0|0:0|0:0,0:0:0:0:
272,216,54372,1,0,0:0:0:0:
312,216,54487,1,0,0:0:0:0:
352,224,54601,2,0,B|408:216|408:216|448:176|520:168,1,157.5
496,304,55059,2,0,L|400:352,1,105,8|0,0:0|0:0,0:0:0:0:
112,168,55517,2,0,B|111:184|111:184|104:192|104:192|120:192|120:192|112:200|112:200|104:208|104:208|120:208|120:208|112:216|112:216|104:224|104:224|120:224|120:224|112:232|112:232|112:264,1,157.5
128,280,55975,2,0,B|144:312|144:312|184:312|184:312|216:344,1,105,8|0,0:0|0:0,0:0:0:0:
288,336,56319,1,0,0:0:0:0:
320,104,56433,2,0,B|288:152|288:152|288:256,1,157.500006008148,0|8,0:0|0:0,0:0:0:0:
288,336,56777,1,0,0:0:0:0:
408,200,56891,2,0,B|408:360,1,157.500006008148,0|8,0:0|0:0,0:0:0:0:
48,80,57235,5,0,0:0:0:0:
104,104,57349,1,0,0:0:0:0:
152,136,57464,1,0,0:0:0:0:
208,128,57578,1,0,0:0:0:0:
248,88,57693,1,0,0:0:0:0:
104,208,57807,2,0,L|144:256,1,52.5
88,360,58036,2,0,L|264:288,1,157.5,8|0,0:0|0:0,0:0:0:0:
490,59,58494,2,8,B|498:211|329:319,1,315
335,316,58952,2,0,B|312:216|232:200|232:200|144:200|56:136,1,315
176,48,59639,2,0,L|224:88,1,52.5
90,158,59868,2,0,L|160:152,1,52.5
168,264,60097,5,0,0:0:0:0:
224,256,60212,1,0,0:0:0:0:
280,240,60326,1,0,0:0:0:0:
328,208,60441,1,0,0:0:0:0:
376,176,60556,2,0,L|464:96,1,105,8|4,0:0|0:0,0:0:0:0:
432,320,61014,2,0,L|376:288,1,52.5
328,208,61243,2,0,L|408:184,1,52.5
72,288,61472,2,0,B|120:280|120:280|136:240|184:224,1,105
200,272,61815,1,0,0:0:0:0:
240,312,61930,2,0,L|312:344,1,52.5
344,352,62159,1,8,0:0:0:0:
368,296,62273,1,0,0:0:0:0:
392,240,62388,1,0,0:0:0:0:
344,200,62502,1,0,0:0:0:0:
296,160,62617,1,0,0:0:0:0:
264,112,62731,1,0,0:0:0:0:
160,136,62846,6,0,P|192:192|264:216,2,105,0|0|8,0:0|0:0|0:0,0:0:0:0:
264,112,63533,2,0,L|392:120,1,105
160,136,63991,2,0,P|192:192|256:216,1,105,0|8,0:0|0:0,0:0:0:0:
368,64,64449,2,0,L|440:64,1,52.5
328,160,64678,2,0,L|392:176,1,52.5
272,256,64907,2,0,L|336:256,1,52.5
160,136,65136,2,0,L|224:120,1,52.5,8|0,0:0|0:0,0:0:0:0:
264,104,65365,1,0,0:0:0:0:
320,80,65479,1,0,0:0:0:0:
368,48,65594,1,0,0:0:0:0:
408,8,65708,1,0,0:0:0:0:
272,256,65823,6,0,L|219:256,1,52.5
360,352,66052,2,0,L|416:360,1,52.5,8|0,0:0|0:0,0:0:0:0:
464,264,66281,1,0,0:0:0:0:
448,208,66395,1,0,0:0:0:0:
432,152,66510,2,0,B|408:104|408:104|336:64,1,105
264,112,66968,2,0,B|219:87|219:87|195:39,1,105,8|0,0:0|0:0,0:0:0:0:
184,216,67426,2,0,L|112:168,1,52.5
0,208,67655,2,0,L|56:248,1,52.5
136,320,67884,2,0,L|208:328,1,52.5,8|0,0:0|0:0,0:0:0:0:
0,376,68113,2,0,L|0:296,1,52.5
272,200,68342,6,0,P|256:280|232:312,1,105
336,200,68685,1,0,0:0:0:0:
400,200,68800,2,0,P|464:168|488:144,1,105,8|0,0:0|0:0,0:0:0:0:
384,136,69143,1,0,0:0:0:0:
328,104,69258,2,0,P|328:32|344:-16,1,105
264,120,69601,1,0,0:0:0:0:
224,168,69716,2,0,P|144:136|80:136,1,105,8|0,0:0|0:0,0:0:0:0:
80,176,70059,1,0,0:0:0:0:
40,232,70174,2,0,P|96:256|160:264,2,105,0|0|8,0:0|0:0|0:0,0:0:0:0:
8,112,70861,1,0,0:0:0:0:
464,240,71319,5,0,0:0:0:0:
440,184,71433,1,0,0:0:0:0:
416,128,71548,2,0,L|360:88,1,52.5,8|0,0:0|0:0,0:0:0:0:
264,240,71777,2,0,L|328:264,1,52.5
80,88,72006,1,0,0:0:0:0:
144,80,72120,1,0,0:0:0:0:
200,112,72235,1,0,0:0:0:0:
224,168,72349,1,0,0:0:0:0:
232,224,72464,1,8,0:0:0:0:
248,280,72578,1,0,0:0:0:0:
296,312,72693,1,0,0:0:0:0:
352,328,72807,1,0,0:0:0:0:
416,320,72922,2,0,B|336:256|392:176|288:136,1,210
309,145,73494,1,0,0:0:0:0:
312,152,73609,1,4,0:0:0:0:
256,192,73838,12,0,75212,0:0:0:0:
136,64,75441,5,12,0:0:0:0:
88,168,75670,1,0,0:0:0:0:
128,216,75785,1,0,0:0:0:0:
136,280,75899,1,8,0:0:0:0:
160,336,76014,1,0,0:0:0:0:
216,360,76128,2,0,L|272:352,1,52.5
272,224,76357,2,0,L|328:200,1,52.5
416,344,76586,2,0,L|416:288,1,52.5
456,136,76815,2,0,L|400:104,1,52.5
336,40,77044,2,0,P|264:56|216:80,1,105,8|8,0:0|0:0,0:0:0:0:
184,176,77388,1,0,0:0:0:0:
64,232,77502,2,0,P|104:280|168:304,2,105,0|0|8,0:0|0:0|0:0,0:0:0:0:
80,112,78189,2,0,L|184:40,1,105
344,168,78647,2,0,L|248:248,1,105,0|8,0:0|0:0,0:0:0:0:
141,298,79105,6,0,P|192:352|248:368,2,105
136,240,79678,1,0,0:0:0:0:
144,176,79792,1,8,0:0:0:0:
192,216,79907,1,0,0:0:0:0:
232,264,80021,1,0,0:0:0:0:
288,288,80136,1,0,0:0:0:0:
344,288,80250,1,8,0:0:0:0:
392,256,80365,1,0,0:0:0:0:
448,224,80479,2,0,B|424:184|424:184|440:144|424:112,1,105,0|8,0:0|0:0,0:0:0:0:
392,16,80937,5,0,0:0:0:0:
336,48,81052,1,0,0:0:0:0:
280,80,81166,2,0,L|272:136,1,52.5,8|0,0:0|0:0,0:0:0:0:
112,288,81395,2,0,L|152:224,1,52.5
280,336,81624,2,0,L|336:312,1,52.5,8|0,0:0|0:0,0:0:0:0:
48,128,81853,2,0,L|128:128,1,52.5
232,165,82082,2,0,L|280:125,1,52.5,8|0,0:0|0:0,0:0:0:0:
128,24,82311,2,0,P|171:39|224:80,2,105,0|8|8,0:0|0:0|0:0,0:0:0:0:
104,168,82998,5,0,0:0:0:0:
120,224,83113,1,0,0:0:0:0:
152,272,83227,1,0,0:0:0:0:
192,312,83342,1,0,0:0:0:0:
248,328,83456,1,8,0:0:0:0:
304,312,83571,1,0,0:0:0:0:
352,280,83685,2,0,L|408:256,1,52.5
264,208,83914,2,0,L|224:152,1,52.5
392,152,84143,2,0,L|429:114,1,52.5
344,32,84372,2,0,L|317:77,1,52.5
192,64,84601,2,0,L|112:40,1,52.5
16,102,84830,2,0,P|56:134|120:166,2,105,0|0|8,0:0|0:0|0:0,0:0:0:0:
72,360,85517,6,0,L|160:248,1,105
128,216,85861,1,0,0:0:0:0:
104,160,85975,1,8,0:0:0:0:
256,192,86204,12,0,88265,0:0:0:0:
