osu file format v14

[General]
AudioFilename: audio.mp3
AudioLeadIn: 0
PreviewTime: 45587
Countdown: 0
SampleSet: Soft
StackLeniency: 0.7
Mode: 2
LetterboxInBreaks: 0
WidescreenStoryboard: 1

[Editor]
Bookmarks: 14900,46045
DistanceSpacing: 2
BeatDivisor: 4
GridSize: 8
TimelineZoom: 2.3

[Metadata]
Title:Hoshi o Tadoreba
TitleUnicode:星を辿れば
Artist:Yuiko Ohara
ArtistUnicode:大原ゆい子
Creator:Yumeno Himiko
Version:Salad
Source:リトルウィッチアカデミア
Tags:examination exam 015 Cocytus Little Witch Academia tv size ed ending TRIGGER アツコ・カガリ Atsuko Kagari Akko ロッテ・ヤンソン Lotte Jansson スーシィ・マンババラン Sucy Manbavaran ダイアナ・キャベンディッシュ Diana Cavendish シャイニィシャリオ Shiny Chariot
BeatmapID:1273273
BeatmapSetID:584787

[Difficulty]
HPDrainRate:4
CircleSize:3
OverallDifficulty:7
ApproachRate:7
SliderMultiplier:1
SliderTickRate:2

[Events]
//Background and Video events
0,0,"BG.jpg",0,0
//Break Periods
//Storyboard Layer 0 (Background)
//Storyboard Layer 1 (Fail)
//Storyboard Layer 2 (Pass)
//Storyboard Layer 3 (Foreground)
//Storyboard Sound Samples

[TimingPoints]
244.399707055367,458.015267175573,4,2,0,10,1,0
3679,-100,4,2,0,5,0,0
3908,-100,4,2,0,10,0,0
7572,-100,4,2,2,20,0,0
7687,-100,4,2,0,20,0,0
13755,-100,4,2,1,30,0,0
14900,-100,4,2,1,25,0,0
20397,-100,4,2,0,25,0,0
22229,-100,4,2,2,25,0,0
22343,-100,4,2,1,25,0,0
46045,-100,4,2,1,40,0,1
46160,-100,4,2,2,40,0,1
51771,-66.6666666666667,4,2,2,40,0,1
52000,-100,4,2,2,40,0,1
57725,-100,4,2,0,40,0,1
58755,-100,4,2,2,40,0,1
59328,-100,4,2,0,40,0,1
59442,-100,4,2,2,40,0,1
59786,-100,4,2,1,40,0,0
60702,-100,4,2,1,40,0,1
60816,-100,4,2,2,40,0,1
72610,-66.6666666666667,4,2,1,40,0,1
73526,-100,4,2,1,30,0,0
74900,-100,4,2,1,40,0,0
75358,-66.6666666666667,4,2,1,40,0,1
86351,-66.6666666666667,4,2,1,40,0,0
88870,-66.6666666666667,4,2,2,40,0,0

[Colours]
Combo1 : 133,168,224
Combo2 : 172,122,124
Combo3 : 255,212,159
Combo4 : 230,203,210
Combo5 : 228,252,194

[HitObjects]
168,88,244,6,0,L|144:248,1,150,2|2,0:0|0:0,0:0:0:0:
416,160,1618,1,0,0:0:0:0:
232,256,2076,2,0,L|380:279,1,150,2|2,0:0|0:0,0:0:0:0:
256,152,3221,2,0,P|200:144|184:96,1,100,0|0,0:0|0:0,0:0:0:0:
320,56,3908,6,0,P|368:96|360:192,1,150,2|2,0:0|0:0,0:0:0:0:
104,232,5282,1,0,0:0:0:0:
280,240,5740,6,0,L|336:200,1,50,2|0,0:0|0:0,0:0:0:0:
184,176,6198,2,0,L|144:144,1,50,0|2,0:0|0:0,0:0:0:0:
448,104,7114,1,0,0:0:0:0:
440,152,7229,1,0,0:0:0:0:
408,184,7343,1,0,0:0:0:0:
360,200,7458,1,0,0:0:0:0:
288,208,7572,6,0,P|208:176|208:104,1,150,4|0,0:0|0:0,0:0:0:0:
360,88,8946,1,0,0:0:0:0:
112,80,9404,6,0,P|88:200|112:232,1,150,2|2,0:0|0:0,0:0:0:0:
432,176,10778,1,0,0:0:0:0:
216,280,11236,6,0,L|280:288,1,50,2|0,0:0|0:0,0:0:0:0:
312,360,11694,1,2,0:0:0:0:
160,352,11923,2,0,P|128:304|136:256,1,100,2|2,0:0|0:0,0:0:0:0:
256,160,12839,1,2,0:0:0:0:
424,136,13068,6,0,L|376:240,1,100,0|0,0:0|0:0,0:0:0:0:
272,264,13755,1,8,0:0:0:0:
248,256,13832,1,0,0:0:0:0:
224,248,13908,1,0,0:0:0:0:
200,240,13984,2,0,L|176:184,1,50,8|2,0:0|0:0,0:0:0:0:
272,176,14442,2,0,L|280:112,1,50,8|2,0:0|0:0,0:0:0:0:
96,128,14900,5,4,0:0:0:0:
320,112,15358,1,0,0:0:0:0:
232,112,15587,1,2,0:0:0:0:
368,192,15816,2,0,L|424:192,2,50,8|0|0,0:0|0:0|0:0,0:0:0:0:
136,240,16961,5,2,0:0:0:0:
280,296,17419,1,2,0:0:0:0:
80,296,17648,2,0,L|48:240,1,50,8|0,0:0|0:0,0:0:0:0:
168,216,18106,2,0,L|192:152,1,50
64,104,18565,5,2,0:0:0:0:
136,106,18794,1,0,0:0:0:0:
208,104,19023,1,0,0:0:0:0:
138,191,19252,1,0,0:0:0:0:
64,272,19481,1,8,0:0:0:0:
256,280,19939,1,0,0:0:0:0:
352,280,20168,1,0,0:0:0:0:
144,296,20397,6,0,P|120:248|144:192,1,100,2|2,0:0|0:0,0:0:0:0:
376,152,21313,1,10,0:0:0:0:
208,128,21771,1,2,0:0:0:0:
184,48,22000,1,2,0:0:0:0:
384,112,22229,5,4,0:0:0:0:
80,232,22916,1,2,0:0:0:0:
144,184,23145,1,8,0:0:0:0:
216,136,23374,1,0,0:0:0:0:
424,88,23832,1,0,0:0:0:0:
336,88,24061,6,0,L|272:88,1,50,0|2,0:0|0:0,0:0:0:0:
352,144,24519,1,0,0:0:0:0:
416,200,24748,1,2,0:0:0:0:
192,224,24977,1,8,0:0:0:0:
112,224,25206,1,0,0:0:0:0:
56,160,25435,1,0,0:0:0:0:
120,96,25664,1,0,0:0:0:0:
216,144,25893,6,0,P|270:146|312:176,1,100,2|0,0:0|0:0,0:0:0:0:
224,312,26580,1,2,0:0:0:0:
432,304,26809,2,0,L|392:264,1,50,8|0,0:0|0:0,0:0:0:0:
280,192,27496,1,0,0:0:0:0:
320,184,27610,1,0,0:0:0:0:
368,176,27725,6,0,L|440:176,2,50,4|0|0,0:0|0:0|0:0,0:0:0:0:
144,176,28412,1,4,0:0:0:0:
400,272,28870,1,8,0:0:0:0:
312,272,29099,1,8,0:0:0:0:
80,272,29557,6,0,L|72:160,1,100,4|0,0:0|0:0,0:0:0:0:
256,168,30244,2,0,L|320:160,2,50,0|0|0,0:0|0:0|0:0,0:0:0:0:
120,184,30931,1,8,0:0:0:0:
176,112,31389,6,0,L|288:112,1,100,2|0,0:0|0:0,0:0:0:0:
464,160,32076,2,0,P|472:208|456:272,1,100,2|0,0:0|0:0,0:0:0:0:
320,256,32763,1,8,0:0:0:0:
368,120,33221,6,0,L|256:120,1,100,2|0,0:0|0:0,0:0:0:0:
168,120,33908,1,2,0:0:0:0:
440,240,34595,1,8,0:0:0:0:
168,248,35053,6,0,P|136:224|168:176,1,100,4|0,0:0|0:0,0:0:0:0:
432,128,35969,1,0,0:0:0:0:
312,128,36198,2,0,L|200:128,1,100,0|0,0:0|0:0,0:0:0:0:
400,240,36885,6,0,L|464:240,2,50,2|0|8,0:0|0:0|0:0,0:0:0:0:
296,240,37572,2,0,L|176:240,1,100,2|0,0:0|0:0,0:0:0:0:
32,232,38259,1,8,0:0:0:0:
72,120,38488,1,0,0:0:0:0:
168,120,38717,6,0,L|232:120,1,50,2|0,0:0|0:0,0:0:0:0:
400,120,39175,1,8,0:0:0:0:
448,240,39404,2,0,P|448:280|392:336,1,100,2|0,0:0|0:0,0:0:0:0:
320,328,40091,1,8,0:0:0:0:
216,328,40320,1,0,0:0:0:0:
376,264,40549,6,0,P|400:224|376:160,1,100,2|8,0:0|0:0,0:0:0:0:
152,168,41465,2,0,L|80:168,2,50,2|0|8,0:0|0:0|0:0,0:0:0:0:
384,176,42152,1,12,0:0:0:0:
184,240,42610,2,0,L|216:296,1,50,0|8,0:0|0:0,0:0:0:0:
424,288,43068,6,0,P|440:240|400:208,1,100,12|0,0:0|0:0,0:0:0:0:
320,200,43755,1,8,0:0:0:0:
120,200,43984,1,12,0:0:0:0:
256,192,44442,12,0,45587,0:0:0:0:
408,112,46045,6,0,L|336:128,1,50,4|0,0:0|0:0,0:0:0:0:
424,200,46503,1,8,0:0:0:0:
280,152,46732,2,0,L|168:168,1,100,2|2,0:0|0:0,0:0:0:0:
280,272,47419,2,0,L|312:328,1,50,8|0,0:0|0:0,0:0:0:0:
80,352,47877,6,0,L|144:352,1,50,2|0,0:0|0:0,0:0:0:0:
232,352,48336,1,8,0:0:0:0:
328,328,48565,2,0,P|376:304|376:256,1,100,2|2,0:0|0:0,0:0:0:0:
296,200,49252,1,8,0:0:0:0:
200,184,49481,1,0,0:0:0:0:
416,112,49710,5,6,0:0:0:0:
224,112,50168,1,8,0:0:0:0:
120,112,50397,1,2,0:0:0:0:
72,112,50511,1,0,0:0:0:0:
80,184,50626,2,0,L|136:184,1,50,0|0,0:0|0:0,0:0:0:0:
232,280,51084,2,0,L|240:344,1,50,8|0,0:0|0:0,0:0:0:0:
136,328,51542,5,2,0:0:0:0:
280,328,51771,2,0,L|368:328,1,75.0000028610231,0|8,0:0|0:0,0:0:0:0:
240,224,52229,1,0,0:0:0:0:
200,208,52343,1,0,0:0:0:0:
168,176,52458,1,0,0:0:0:0:
168,128,52572,1,0,0:0:0:0:
192,88,52687,1,0,0:0:0:0:
232,72,52801,1,0,0:0:0:0:
280,64,52916,1,8,0:0:0:0:
176,64,53145,1,2,0:0:0:0:
376,64,53374,6,0,L|376:128,1,50,6|0,0:0|0:0,0:0:0:0:
256,120,53832,2,0,L|256:192,1,50,8|2,0:0|0:0,0:0:0:0:
304,176,54175,1,0,0:0:0:0:
128,176,54519,2,0,L|56:176,2,50,2|8|0,0:0|0:0|0:0,0:0:0:0:
248,176,55206,6,0,L|360:176,1,100,2|8,0:0|0:0,0:0:0:0:
112,280,56122,1,2,0:0:0:0:
200,280,56351,1,0,0:0:0:0:
288,280,56580,1,8,0:0:0:0:
80,192,56809,1,2,0:0:0:0:
144,192,57267,5,2,0:0:0:0:
344,192,57496,1,8,0:0:0:0:
320,152,57610,1,8,0:0:0:0:
296,112,57725,1,4,0:0:0:0:
464,112,58183,1,4,0:0:0:0:
120,112,58641,6,0,P|88:152|112:240,1,150,4|4,0:0|0:0,0:0:0:0:
408,240,59786,1,0,3:0:0:0:
360,240,59900,1,0,3:0:0:0:
320,240,60015,1,0,3:0:0:0:
200,328,60244,1,4,3:0:0:0:
440,320,60702,6,0,L|424:248,1,50,4|0,0:0|0:0,0:0:0:0:
344,224,61160,1,8,0:0:0:0:
248,200,61389,2,0,L|144:200,1,100,2|2,0:0|0:0,0:0:0:0:
248,208,62076,1,8,0:0:0:0:
280,128,62305,1,0,0:0:0:0:
64,136,62534,6,0,L|0:136,1,50,2|0,0:0|0:0,0:0:0:0:
136,208,62992,1,8,0:0:0:0:
24,272,63221,2,0,P|32:320|80:352,1,100,2|2,0:0|0:0,0:0:0:0:
152,352,63908,1,8,0:0:0:0:
248,352,64137,1,0,0:0:0:0:
448,336,64366,5,4,0:0:0:0:
208,184,64824,1,8,0:0:0:0:
352,144,65053,1,0,0:0:0:0:
400,152,65168,1,0,0:0:0:0:
440,160,65282,2,0,L|424:232,1,50,2|0,0:0|0:0,0:0:0:0:
304,224,65740,2,0,L|320:272,1,50,8|0,0:0|0:0,0:0:0:0:
448,288,66198,5,2,0:0:0:0:
352,288,66427,1,0,0:0:0:0:
256,288,66656,1,0,0:0:0:0:
400,224,66885,1,8,0:0:0:0:
304,224,67114,1,0,0:0:0:0:
32,224,67572,1,8,0:0:0:0:
152,128,67801,1,8,0:0:0:0:
208,128,67916,1,8,0:0:0:0:
256,128,68030,6,0,P|288:160|296:224,1,100,4|8,0:0|0:0,0:0:0:0:
208,232,68717,1,2,0:0:0:0:
112,240,68946,2,0,L|136:296,1,50,0|2,0:0|0:0,0:0:0:0:
240,288,69404,1,8,0:0:0:0:
336,288,69633,1,0,0:0:0:0:
88,328,69862,6,0,L|56:264,1,50,2|0,0:0|0:0,0:0:0:0:
160,328,70320,1,8,0:0:0:0:
256,328,70549,2,0,L|360:328,1,100,2|2,0:0|0:0,0:0:0:0:
256,248,71236,2,0,L|240:200,1,50,8|0,0:0|0:0,0:0:0:0:
480,112,71694,6,0,L|472:224,1,100,4|8,0:0|0:0,0:0:0:0:
160,128,72610,2,0,L|40:128,2,112.500004291535,2|0|0,0:0|0:0|0:0,0:0:0:0:
336,128,73526,1,0,0:0:0:0:
256,192,73755,12,0,74900,0:0:0:0:
256,272,75358,6,0,L|96:272,1,150.000005722046,4|8,0:0|0:0,0:0:0:0:
184,192,76045,1,0,0:0:0:0:
256,120,76274,1,8,0:0:0:0:
48,120,76732,1,8,0:0:0:0:
320,120,77190,6,0,L|368:272,1,150.000005722046,8|8,0:0|0:0,0:0:0:0:
264,264,77877,1,0,0:0:0:0:
160,264,78106,1,8,0:0:0:0:
416,264,78565,1,8,0:0:0:0:
208,256,79023,6,0,L|184:104,1,150.000005722046,8|8,0:0|0:0,0:0:0:0:
288,112,79710,1,0,0:0:0:0:
392,112,79939,1,8,0:0:0:0:
200,192,80397,1,8,0:0:0:0:
448,192,80855,6,0,L|432:352,1,150.000005722046,8|8,0:0|0:0,0:0:0:0:
328,336,81542,1,0,0:0:0:0:
224,328,81771,1,8,0:0:0:0:
408,104,82229,1,8,0:0:0:0:
216,104,82458,1,8,0:0:0:0:
72,104,82687,6,0,P|56:168|112:256,1,150.000005722046,4|8,0:0|0:0,0:0:0:0:
400,192,83603,2,0,P|392:272|336:336,1,150.000005722046,8|8,0:0|0:0,0:0:0:0:
240,328,84290,1,0,0:0:0:0:
112,328,84519,6,0,L|280:328,1,150.000005722046,8|8,0:0|0:0,0:0:0:0:
488,256,85435,2,0,L|464:104,1,150.000005722046,8|8,0:0|0:0,0:0:0:0:
360,112,86122,1,0,0:0:0:0:
136,112,86351,6,0,P|144:144|240:224,1,150.000005722046,4|8,0:0|0:0,0:0:0:0:
376,224,87038,1,8,0:0:0:0:
88,296,87496,1,8,0:0:0:0:
336,296,87954,2,0,P|376:256|248:96,1,300.000011444092,4|4,0:0|0:0,0:0:0:0:
