osu file format v14

[General]
AudioFilename: audio.mp3
AudioLeadIn: 0
PreviewTime: 45587
Countdown: 0
SampleSet: Soft
StackLeniency: 0.7
Mode: 2
LetterboxInBreaks: 0
WidescreenStoryboard: 1

[Editor]
Bookmarks: 14900,46045
DistanceSpacing: 1.2
BeatDivisor: 4
GridSize: 8
TimelineZoom: 2.3

[Metadata]
Title:Hoshi o Tadoreba
TitleUnicode:星を辿れば
Artist:Yuiko Ohara
ArtistUnicode:大原ゆい子
Creator:Yumeno Himiko
Version:Platter
Source:リトルウィッチアカデミア
Tags:examination exam 015 Cocytus Little Witch Academia tv size ed ending TRIGGER アツコ・カガリ Atsuko Kagari Akko ロッテ・ヤンソン Lotte Jansson スーシィ・マンババラン Sucy Manbavaran ダイアナ・キャベンディッシュ Diana Cavendish シャイニィシャリオ Shiny Chariot
BeatmapID:1237167
BeatmapSetID:584787

[Difficulty]
HPDrainRate:5
CircleSize:3.6
OverallDifficulty:7.6
ApproachRate:7.6
SliderMultiplier:1.4
SliderTickRate:2

[Events]
//Background and Video events
0,0,"BG.jpg",0,0
//Break Periods
//Storyboard Layer 0 (Background)
//Storyboard Layer 1 (Fail)
//Storyboard Layer 2 (Pass)
//Storyboard Layer 3 (Foreground)
//Storyboard Sound Samples

[TimingPoints]
244.399707055367,458.015267175573,4,2,0,10,1,0
3679,-100,4,2,0,5,0,0
3908,-100,4,2,0,10,0,0
7572,-100,4,2,2,20,0,0
7687,-100,4,2,0,20,0,0
13755,-100,4,2,1,30,0,0
14900,-100,4,2,1,25,0,0
20397,-100,4,2,0,25,0,0
22229,-100,4,2,2,25,0,0
22343,-100,4,2,1,25,0,0
46045,-100,4,2,1,40,0,1
46160,-100,4,2,2,40,0,1
51771,-66.6666666666667,4,2,2,40,0,1
52000,-100,4,2,2,40,0,1
57725,-100,4,2,0,40,0,1
58755,-100,4,2,2,40,0,1
59328,-100,4,2,0,40,0,1
59442,-100,4,2,2,40,0,1
59786,-100,4,2,1,40,0,0
60702,-100,4,2,1,40,0,1
60816,-100,4,2,2,40,0,1
72610,-66.6666666666667,4,2,1,40,0,1
73526,-100,4,2,1,30,0,0
74900,-100,4,2,1,40,0,0
75358,-66.6666666666667,4,2,1,40,0,1
86351,-66.6666666666667,4,2,1,40,0,0
88870,-66.6666666666667,4,2,2,40,0,0

[Colours]
Combo1 : 133,168,224
Combo2 : 172,122,124
Combo3 : 255,212,159
Combo4 : 230,203,210
Combo5 : 228,252,194

[HitObjects]
240,80,244,6,0,P|133:79|72:168,2,210,2|2|0,0:0|0:0|0:0,0:0:0:0:
336,288,2076,2,0,L|112:288,1,210,2|2,0:0|0:0,0:0:0:0:
328,152,3221,5,0,0:0:0:0:
304,176,3336,1,0,0:0:0:0:
280,200,3450,1,0,0:0:0:0:
256,224,3565,1,0,0:0:0:0:
232,248,3679,1,0,0:0:0:0:
208,272,3794,1,0,0:0:0:0:
264,272,3908,6,0,L|480:272,2,210,2|2|0,0:0|0:0|0:0,0:0:0:0:
424,184,5740,5,2,0:0:0:0:
336,184,5969,2,0,L|240:184,1,70,0|0,0:0|0:0,0:0:0:0:
144,184,6427,2,0,L|280:344,1,210,2|0,0:0|0:0,0:0:0:0:
376,256,7229,1,0,0:0:0:0:
432,216,7343,1,0,0:0:0:0:
392,152,7458,1,0,0:0:0:0:
248,152,7572,6,0,P|208:176|264:312,1,210,4|0,0:0|0:0,0:0:0:0:
376,304,8488,2,0,P|408:256|368:176,1,140,2|0,0:0|0:0,0:0:0:0:
144,184,9404,6,0,L|-8:184,1,140,2|0,0:0|0:0,0:0:0:0:
192,72,10091,2,0,P|248:80|248:224,1,210,2|0,0:0|0:0,0:0:0:0:
152,296,11236,6,0,L|248:296,2,70,2|0|2,0:0|0:0|0:0,0:0:0:0:
328,296,11923,2,0,P|368:272|360:168,1,140,2|2,0:0|0:0,0:0:0:0:
104,80,13068,6,0,P|112:136|192:184,1,140,2|0,0:0|0:0,0:0:0:0:
288,184,13755,1,8,0:0:0:0:
312,200,13832,1,0,0:0:0:0:
312,224,13908,1,0,0:0:0:0:
288,240,13984,1,0,0:0:0:0:
176,184,14213,2,0,L|136:248,1,70,2|8,0:0|0:0,0:0:0:0:
168,312,14671,1,2,0:0:0:0:
480,256,14900,6,0,P|480:192|424:112,1,140,4|0,0:0|0:0,0:0:0:0:
328,120,15587,1,2,0:0:0:0:
216,112,15816,2,0,L|120:144,2,70,8|0|0,0:0|0:0|0:0,0:0:0:0:
328,120,16503,1,0,0:0:0:0:
216,112,16732,6,0,L|248:208,1,70,0|2,0:0|0:0,0:0:0:0:
352,192,17190,1,0,0:0:0:0:
320,280,17419,1,2,0:0:0:0:
112,280,17648,2,0,L|88:192,1,70,8|0,0:0|0:0,0:0:0:0:
184,152,18106,1,0,0:0:0:0:
72,128,18336,1,0,0:0:0:0:
272,96,18565,6,0,P|328:104|416:144,1,140,2|0,0:0|0:0,0:0:0:0:
288,176,19252,1,0,0:0:0:0:
112,208,19481,2,0,L|136:304,1,70,8|0,0:0|0:0,0:0:0:0:
240,272,19939,2,0,L|224:360,1,70,0|0,0:0|0:0,0:0:0:0:
48,344,20397,5,2,0:0:0:0:
272,344,20855,1,2,0:0:0:0:
48,344,21313,1,10,0:0:0:0:
272,344,21771,1,2,0:0:0:0:
192,264,22000,1,2,0:0:0:0:
392,264,22229,5,4,0:0:0:0:
120,264,22916,2,0,L|136:176,1,70,2|8,0:0|0:0,0:0:0:0:
296,192,23374,2,0,P|344:160|288:104,1,140,0|0,0:0|0:0,0:0:0:0:
80,112,24290,1,2,0:0:0:0:
304,104,24748,1,2,0:0:0:0:
104,112,24977,6,0,L|128:192,1,70,8|0,0:0|0:0,0:0:0:0:
256,192,25435,2,0,L|168:192,1,70,0|0,0:0|0:0,0:0:0:0:
400,192,25893,6,0,P|440:216|400:288,1,140,2|0,0:0|0:0,0:0:0:0:
296,288,26580,1,2,0:0:0:0:
112,288,26809,1,8,0:0:0:0:
192,248,27496,1,0,0:0:0:0:
144,216,27610,1,0,0:0:0:0:
128,160,27725,6,0,P|144:112|232:72,1,140,4|0,0:0|0:0,0:0:0:0:
432,72,28412,1,4,0:0:0:0:
208,192,28870,1,8,0:0:0:0:
384,192,29099,1,8,0:0:0:0:
88,312,29557,6,0,L|200:312,2,105,4|0|0,0:0|0:0|0:0,0:0:0:0:
272,312,30473,1,0,0:0:0:0:
88,192,30931,1,8,0:0:0:0:
312,192,31389,6,0,L|472:192,1,140,2|0,0:0|0:0,0:0:0:0:
256,192,32076,1,2,0:0:0:0:
448,80,32534,1,0,0:0:0:0:
392,96,32648,1,0,0:0:0:0:
352,136,32763,1,8,0:0:0:0:
336,192,32877,1,0,0:0:0:0:
352,248,32992,1,0,0:0:0:0:
400,280,33106,1,0,0:0:0:0:
480,288,33221,6,0,L|448:152,1,140,2|0,0:0|0:0,0:0:0:0:
232,160,33908,1,2,0:0:0:0:
423,151,34595,1,8,0:0:0:0:
152,152,35053,6,0,L|296:152,1,140,4|0,0:0|0:0,0:0:0:0:
96,256,35969,1,0,0:0:0:0:
296,256,36198,2,0,L|272:104,1,140,0|0,0:0|0:0,0:0:0:0:
80,120,36885,6,0,L|64:208,1,70,2|0,0:0|0:0,0:0:0:0:
248,192,37343,1,8,0:0:0:0:
112,192,37572,1,2,0:0:0:0:
288,192,38030,2,0,L|360:192,2,70,0|8|0,0:0|0:0|0:0,0:0:0:0:
424,192,38717,6,0,L|440:280,1,70,2|0,0:0|0:0,0:0:0:0:
256,256,39175,1,8,0:0:0:0:
392,264,39404,1,2,0:0:0:0:
216,264,39862,1,0,0:0:0:0:
80,160,40091,2,0,L|176:160,1,70,8|0,0:0|0:0,0:0:0:0:
400,168,40549,6,0,L|384:320,1,140,2|8,0:0|0:0,0:0:0:0:
136,312,41465,1,2,0:0:0:0:
385,307,41923,1,8,0:0:0:0:
88,248,42152,6,0,P|40:200|72:128,1,140,12|0,0:0|0:0,0:0:0:0:
160,96,42839,1,8,0:0:0:0:
464,96,43068,1,12,0:0:0:0:
264,104,43526,2,0,L|304:192,1,70,0|8,0:0|0:0,0:0:0:0:
464,168,43984,1,12,0:0:0:0:
144,264,44671,5,4,0:0:0:0:
368,264,45129,1,4,0:0:0:0:
200,264,45473,1,0,0:0:0:0:
144,264,45587,2,0,L|104:192,1,70,0|0,3:0|0:0,0:0:0:0:
400,192,46045,6,0,L|416:112,1,70,4|0,0:0|0:0,0:0:0:0:
256,120,46503,1,8,0:0:0:0:
408,120,46732,2,0,L|368:288,1,140,2|2,0:0|0:0,0:0:0:0:
240,264,47419,2,0,L|144:264,1,70,8|0,0:0|0:0,0:0:0:0:
376,264,47877,6,0,L|360:336,1,70,2|0,0:0|0:0,0:0:0:0:
240,328,48336,1,8,0:0:0:0:
48,328,48565,2,0,L|72:168,1,140,2|2,0:0|0:0,0:0:0:0:
232,128,49252,2,0,L|136:128,1,70,8|0,0:0|0:0,0:0:0:0:
360,128,49710,5,6,0:0:0:0:
112,256,50168,1,8,0:0:0:0:
304,256,50397,1,0,0:0:0:0:
344,256,50511,1,0,0:0:0:0:
392,256,50626,2,0,L|368:328,1,70,0|0,0:0|0:0,0:0:0:0:
232,320,51084,2,0,L|256:240,1,70,8|0,0:0|0:0,0:0:0:0:
392,256,51542,6,0,P|424:224|376:144,1,140,2|8,0:0|0:0,0:0:0:0:
160,144,52229,1,0,0:0:0:0:
288,144,52458,1,0,0:0:0:0:
56,144,52916,1,8,0:0:0:0:
160,144,53145,1,2,0:0:0:0:
464,136,53374,6,0,P|480:184|448:280,1,140,6|8,0:0|0:0,0:0:0:0:
288,304,54061,2,0,L|128:304,1,140,8|0,0:0|0:0,0:0:0:0:
272,232,54748,1,0,0:0:0:0:
256,152,54977,1,0,0:0:0:0:
8,232,55206,5,2,0:0:0:0:
304,144,55664,1,8,0:0:0:0:
48,136,56122,2,0,L|32:216,1,70,8|0,0:0|0:0,0:0:0:0:
120,224,56580,1,8,0:0:0:0:
424,224,56809,2,0,P|470:191|445:53,1,210,2|8,0:0|0:0,0:0:0:0:
280,64,57725,5,4,0:0:0:0:
80,64,58183,1,4,0:0:0:0:
424,120,58641,2,0,P|416:192|360:248,1,140,4|0,0:0|0:0,0:0:0:0:
232,240,59328,2,0,L|208:160,1,70,4|0,0:0|0:0,0:0:0:0:
352,168,59786,2,0,L|408:168,2,35,0|0|0,3:0|3:0|3:0,0:0:0:0:
160,168,60244,2,0,L|104:168,2,35,4|0|0,3:0|0:0|0:0,0:0:0:0:
464,168,60702,6,0,L|448:264,1,70,4|0,0:0|0:0,0:0:0:0:
320,280,61160,1,8,0:0:0:0:
184,320,61389,2,0,L|208:160,1,140,2|2,0:0|0:0,0:0:0:0:
336,144,62076,2,0,L|256:136,1,70,8|0,0:0|0:0,0:0:0:0:
64,136,62534,6,0,L|88:288,1,140,2|8,0:0|0:0,0:0:0:0:
272,296,63221,1,2,0:0:0:0:
104,296,63679,2,0,L|48:232,1,70,2|8,0:0|0:0,0:0:0:0:
120,160,64137,1,0,0:0:0:0:
440,232,64366,5,4,0:0:0:0:
160,232,64824,1,8,0:0:0:0:
440,232,65282,2,0,L|424:144,1,70,2|0,0:0|0:0,0:0:0:0:
288,168,65740,2,0,L|304:96,1,70,8|0,0:0|0:0,0:0:0:0:
488,104,66198,6,0,P|480:144|416:232,1,140,2|8,0:0|0:0,0:0:0:0:
312,240,66885,1,2,0:0:0:0:
152,240,67114,1,0,0:0:0:0:
424,240,67572,1,8,0:0:0:0:
320,240,67801,1,8,0:0:0:0:
24,248,68030,6,0,P|32:184|104:136,1,140,4|8,0:0|0:0,0:0:0:0:
200,144,68717,1,2,0:0:0:0:
399,151,68946,2,0,P|376:216|312:272,1,140,0|8,0:0|0:0,0:0:0:0:
208,288,69633,1,0,0:0:0:0:
432,288,69862,6,0,L|392:120,1,140,2|8,0:0|0:0,0:0:0:0:
256,152,70549,1,2,0:0:0:0:
64,152,70778,2,0,L|96:248,1,70,0|2,0:0|0:0,0:0:0:0:
224,216,71236,2,0,L|208:296,1,70,8|0,0:0|0:0,0:0:0:0:
16,320,71694,6,0,P|16:264|80:216,1,140,4|8,0:0|0:0,0:0:0:0:
368,152,72610,1,2,0:0:0:0:
152,152,72954,1,0,0:0:0:0:
368,152,73297,1,0,0:0:0:0:
128,192,73526,6,0,L|352:192,1,210
72,272,74900,1,0,0:0:0:0:
176,272,75129,1,0,0:0:0:0:
472,280,75358,6,0,L|440:56,1,210.000008010865,4|8,0:0|0:0,0:0:0:0:
296,64,76045,1,0,0:0:0:0:
88,72,76274,2,0,L|120:176,1,105.000004005432,8|0,0:0|0:0,0:0:0:0:
272,176,76732,2,0,L|248:288,1,105.000004005432,8|0,0:0|0:0,0:0:0:0:
56,280,77190,6,0,L|40:176,1,105.000004005432,8|0,0:0|0:0,0:0:0:0:
152,128,77648,1,8,0:0:0:0:
352,128,77877,1,0,0:0:0:0:
448,208,78106,2,0,L|344:288,1,105.000004005432,8|0,0:0|0:0,0:0:0:0:
176,296,78565,2,0,L|264:232,1,105.000004005432,8|0,0:0|0:0,0:0:0:0:
480,232,79023,6,0,L|456:128,1,105.000004005432,8|0,0:0|0:0,0:0:0:0:
312,136,79481,2,0,L|336:24,1,105.000004005432,8|0,0:0|0:0,0:0:0:0:
456,32,79939,1,8,0:0:0:0:
264,32,80168,2,0,L|224:136,1,105.000004005432,0|8,0:0|0:0,0:0:0:0:
352,136,80626,1,0,0:0:0:0:
120,104,80855,6,0,P|80:152|184:224,1,210.000008010865,8|8,0:0|0:0,0:0:0:0:
400,192,81542,2,0,L|456:280,1,105.000004005432,0|8,0:0|0:0,0:0:0:0:
344,296,82000,1,0,0:0:0:0:
152,296,82229,1,8,0:0:0:0:
344,216,82458,1,8,0:0:0:0:
48,224,82687,6,0,L|80:88,1,105.000004005432,4|0,0:0|0:0,0:0:0:0:
200,112,83145,1,8,0:0:0:0:
80,72,83374,1,0,0:0:0:0:
264,72,83603,2,0,P|320:96|256:192,1,210.000008010865,8|8,0:0|0:0,0:0:0:0:
152,136,84290,1,0,0:0:0:0:
360,128,84519,6,0,L|336:232,1,105.000004005432,8|0,0:0|0:0,0:0:0:0:
216,280,84977,1,8,0:0:0:0:
424,280,85206,1,0,0:0:0:0:
216,208,85435,2,0,L|192:88,1,105.000004005432,8|0,0:0|0:0,0:0:0:0:
432,104,85893,2,0,L|424:224,1,105.000004005432,8|0,0:0|0:0,0:0:0:0:
128,256,86351,5,4,0:0:0:0:
384,256,86809,1,8,0:0:0:0:
256,256,87038,2,0,P|200:216|280:128,1,210.000008010865,8|8,0:0|0:0,0:0:0:0:
16,136,87954,1,4,0:0:0:0:
256,192,88183,12,4,88870,0:0:0:0:
