osu file format v14

[General]
AudioFilename: audio.mp3
AudioLeadIn: 0
PreviewTime: 48529
Countdown: 1
SampleSet: Normal
StackLeniency: 0.7
Mode: 1
LetterboxInBreaks: 0
WidescreenStoryboard: 1

[Editor]
DistanceSpacing: 0.7
BeatDivisor: 4
GridSize: 8
TimelineZoom: 2.899999

[Metadata]
Title:High Stepper (TV Size)
TitleUnicode:ハイステッパ (TV Size)
Artist:Yuiko Ohara
ArtistUnicode:Yuiko Ohara
Creator:Atreevete
Version:Muzukashii
Source:Hanebado!
Tags:ED Ending Hanebado!
BeatmapID:1719542
BeatmapSetID:818743

[Difficulty]
HPDrainRate:5
CircleSize:2
OverallDifficulty:5
ApproachRate:6
SliderMultiplier:1.3999996189499
SliderTickRate:1

[Events]
//Background and Video events
Video,592,"HANEBADO! - Official Ending .avi"
0,0,"thumb-1920-932302.png",0,0
//Break Periods
//Storyboard Layer 0 (Background)
//Storyboard Layer 1 (Fail)
//Storyboard Layer 2 (Pass)
//Storyboard Layer 3 (Foreground)
//Storyboard Sound Samples

[TimingPoints]
761,250,4,1,0,100,1,0
761,-125,4,1,0,100,0,0
49761,-133.333333333333,4,1,0,100,0,1
57817,-125,4,1,0,100,0,1
65761,-125,4,1,0,100,0,0
81771,250,4,1,0,100,1,0
81771,-125,4,1,0,100,0,0

[HitObjects]
182,187,761,5,8,0:0:0:0:
182,187,886,1,8,0:0:0:0:
182,187,1011,1,8,0:0:0:0:
212,182,1136,1,0,0:0:0:0:
212,182,1261,1,0,0:0:0:0:
212,182,1386,1,8,0:0:0:0:
212,182,1511,1,0,0:0:0:0:
218,169,1761,1,0,0:0:0:0:
218,169,1886,1,8,0:0:0:0:
218,169,2011,1,8,0:0:0:0:
218,169,2261,1,0,0:0:0:0:
218,169,2386,1,8,0:0:0:0:
218,169,2511,1,0,0:0:0:0:
222,166,2761,1,8,0:0:0:0:
222,166,2886,1,0,0:0:0:0:
222,166,3011,1,8,0:0:0:0:
222,166,3136,1,0,0:0:0:0:
222,166,3261,1,8,0:0:0:0:
222,166,3386,1,8,0:0:0:0:
222,166,3511,1,8,0:0:0:0:
221,158,3761,1,8,0:0:0:0:
221,159,3886,1,0,0:0:0:0:
221,159,4011,1,8,0:0:0:0:
214,154,4261,1,0,0:0:0:0:
214,154,4386,1,8,0:0:0:0:
214,154,4511,1,0,0:0:0:0:
214,149,4761,1,8,0:0:0:0:
214,149,4886,1,0,0:0:0:0:
214,149,5011,1,8,0:0:0:0:
214,149,5136,1,0,0:0:0:0:
214,149,5261,1,0,0:0:0:0:
214,149,5386,1,8,0:0:0:0:
214,149,5511,1,8,0:0:0:0:
199,162,5761,1,0,0:0:0:0:
199,162,5886,1,0,0:0:0:0:
199,164,6011,1,8,0:0:0:0:
199,164,6261,1,0,0:0:0:0:
199,164,6386,1,8,0:0:0:0:
199,164,6511,1,8,0:0:0:0:
205,149,6761,1,0,0:0:0:0:
205,149,6886,1,8,0:0:0:0:
205,149,7011,1,8,0:0:0:0:
205,149,7136,1,8,0:0:0:0:
205,149,7261,1,0,0:0:0:0:
205,149,7386,1,8,0:0:0:0:
214,163,7511,1,0,0:0:0:0:
209,163,7636,1,0,0:0:0:0:
209,163,7761,1,8,0:0:0:0:
209,163,7886,1,8,0:0:0:0:
209,163,8011,1,0,0:0:0:0:
205,149,8136,1,8,0:0:0:0:
205,149,8261,1,8,0:0:0:0:
196,145,8386,1,8,0:0:0:0:
191,128,8511,1,8,0:0:0:0:
178,163,8636,1,0,0:0:0:0:
186,151,8761,1,0,0:0:0:0:
186,151,8886,1,8,0:0:0:0:
186,151,9011,1,0,0:0:0:0:
186,151,9136,1,0,0:0:0:0:
186,151,9261,1,8,0:0:0:0:
186,151,9386,1,8,0:0:0:0:
187,148,9511,1,8,0:0:0:0:
187,148,9636,1,8,0:0:0:0:
186,151,9761,1,0,0:0:0:0:
176,171,10011,1,8,0:0:0:0:
176,171,10136,1,8,0:0:0:0:
176,171,10261,1,0,0:0:0:0:
185,164,10511,1,0,0:0:0:0:
186,163,10761,1,0,0:0:0:0:
190,150,10886,1,8,0:0:0:0:
190,150,11011,1,8,0:0:0:0:
190,150,11136,1,0,0:0:0:0:
190,150,11261,1,8,0:0:0:0:
190,150,11386,1,0,0:0:0:0:
190,150,11511,1,8,0:0:0:0:
186,163,11761,1,0,0:0:0:0:
187,159,11886,1,0,0:0:0:0:
187,159,12011,1,8,0:0:0:0:
180,160,12261,1,8,0:0:0:0:
180,160,12386,1,0,0:0:0:0:
180,160,12511,1,8,0:0:0:0:
180,160,12761,1,8,0:0:0:0:
180,160,12886,1,0,0:0:0:0:
180,166,13011,1,0,0:0:0:0:
180,166,13136,1,8,0:0:0:0:
180,166,13261,1,8,0:0:0:0:
180,166,13386,1,0,0:0:0:0:
180,166,13511,1,8,0:0:0:0:
187,182,13761,1,0,0:0:0:0:
193,162,13886,1,0,0:0:0:0:
193,162,14011,1,8,0:0:0:0:
193,162,14261,1,8,0:0:0:0:
193,162,14386,1,0,0:0:0:0:
193,162,14511,1,0,0:0:0:0:
193,162,14761,1,8,0:0:0:0:
193,162,14886,1,0,0:0:0:0:
193,162,15011,1,8,0:0:0:0:
193,162,15136,1,0,0:0:0:0:
196,156,15261,1,8,0:0:0:0:
196,156,15386,1,8,0:0:0:0:
196,156,15511,1,0,0:0:0:0:
199,158,15761,1,8,0:0:0:0:
199,158,15886,1,8,0:0:0:0:
199,158,16011,1,0,0:0:0:0:
199,159,16136,1,8,0:0:0:0:
199,159,16261,1,8,0:0:0:0:
199,159,16386,1,8,0:0:0:0:
199,152,16511,1,0,0:0:0:0:
183,146,16761,1,0,0:0:0:0:
193,143,16886,1,8,0:0:0:0:
193,143,17011,1,8,0:0:0:0:
193,143,17136,1,8,0:0:0:0:
193,143,17261,1,8,0:0:0:0:
180,155,17386,1,0,0:0:0:0:
193,143,17511,1,0,0:0:0:0:
153,149,17636,1,0,0:0:0:0:
194,147,17761,1,0,0:0:0:0:
181,153,18011,1,8,0:0:0:0:
187,145,18261,1,0,0:0:0:0:
187,145,18386,1,0,0:0:0:0:
181,153,18511,1,8,0:0:0:0:
187,145,18761,1,0,0:0:0:0:
181,153,19011,1,8,0:0:0:0:
192,166,19136,1,0,0:0:0:0:
200,152,19386,1,0,0:0:0:0:
181,153,19511,1,8,0:0:0:0:
201,152,19761,1,0,0:0:0:0:
181,153,20011,1,8,0:0:0:0:
200,152,20261,1,0,0:0:0:0:
200,152,20386,1,0,0:0:0:0:
181,153,20511,1,8,0:0:0:0:
177,159,20761,1,0,0:0:0:0:
181,153,21011,1,8,0:0:0:0:
176,150,21136,1,0,0:0:0:0:
182,151,21386,1,0,0:0:0:0:
181,153,21511,1,8,0:0:0:0:
174,147,21761,1,0,0:0:0:0:
181,153,22011,1,8,0:0:0:0:
171,147,22261,1,8,0:0:0:0:
171,147,22386,1,0,0:0:0:0:
181,153,22511,1,8,0:0:0:0:
163,139,22761,1,8,0:0:0:0:
181,153,23011,1,8,0:0:0:0:
163,139,23261,1,0,0:0:0:0:
181,153,23511,1,8,0:0:0:0:
163,139,23761,1,0,0:0:0:0:
163,139,23886,1,0,0:0:0:0:
181,153,24011,1,8,0:0:0:0:
163,139,24261,1,0,0:0:0:0:
166,142,24386,1,8,0:0:0:0:
181,153,24511,1,8,0:0:0:0:
166,142,24761,1,8,0:0:0:0:
181,153,25011,1,8,0:0:0:0:
142,159,25261,1,0,0:0:0:0:
166,142,25386,1,8,0:0:0:0:
181,153,25511,1,8,0:0:0:0:
166,142,25636,1,8,0:0:0:0:
142,159,25761,1,8,0:0:0:0:
181,153,26011,1,8,0:0:0:0:
158,144,26261,1,0,0:0:0:0:
158,144,26386,1,0,0:0:0:0:
181,153,26511,1,8,0:0:0:0:
158,144,26761,1,0,0:0:0:0:
181,153,27011,1,8,0:0:0:0:
158,144,27136,1,0,0:0:0:0:
158,144,27386,1,0,0:0:0:0:
181,153,27511,1,8,0:0:0:0:
158,144,27761,1,0,0:0:0:0:
181,153,28011,1,8,0:0:0:0:
158,144,28261,1,0,0:0:0:0:
158,144,28386,1,0,0:0:0:0:
181,153,28511,1,8,0:0:0:0:
158,144,28636,1,0,0:0:0:0:
160,134,28886,1,0,0:0:0:0:
181,153,29011,1,8,0:0:0:0:
160,134,29261,1,0,0:0:0:0:
160,134,29386,1,0,0:0:0:0:
181,153,29511,1,8,0:0:0:0:
202,153,29761,1,0,0:0:0:0:
181,153,30011,1,8,0:0:0:0:
202,153,30136,1,0,0:0:0:0:
202,153,30261,1,0,0:0:0:0:
181,153,30386,1,0,0:0:0:0:
202,153,30511,1,8,0:0:0:0:
208,151,30761,1,8,0:0:0:0:
181,153,31136,1,8,0:0:0:0:
181,153,31511,1,8,0:0:0:0:
181,153,31761,1,0,0:0:0:0:
181,153,32011,1,8,0:0:0:0:
185,143,32261,1,0,0:0:0:0:
181,153,32511,1,8,0:0:0:0:
181,153,32761,1,8,0:0:0:0:
169,149,32886,1,0,0:0:0:0:
181,153,33011,1,8,0:0:0:0:
149,146,33136,1,0,0:0:0:0:
181,153,33261,1,8,0:0:0:0:
178,166,33386,1,0,0:0:0:0:
181,153,33511,1,8,0:0:0:0:
142,156,33636,1,8,0:0:0:0:
181,153,33761,1,0,0:0:0:0:
181,153,34011,1,8,0:0:0:0:
181,153,34136,1,0,0:0:0:0:
160,146,34386,1,0,0:0:0:0:
181,153,34511,1,8,0:0:0:0:
192,152,34761,1,0,0:0:0:0:
192,152,34886,1,0,0:0:0:0:
181,153,35011,1,8,0:0:0:0:
192,152,35136,1,0,0:0:0:0:
192,152,35386,1,8,0:0:0:0:
181,153,35511,1,8,0:0:0:0:
180,159,35761,1,0,0:0:0:0:
181,153,36011,1,8,0:0:0:0:
180,159,36136,1,0,0:0:0:0:
180,159,36386,1,0,0:0:0:0:
181,153,36511,1,8,0:0:0:0:
181,143,36761,1,0,0:0:0:0:
181,153,37011,1,8,0:0:0:0:
171,138,37136,1,0,0:0:0:0:
171,138,37261,1,0,0:0:0:0:
181,153,37511,1,8,0:0:0:0:
185,145,37761,1,0,0:0:0:0:
181,153,38011,1,8,0:0:0:0:
178,137,38136,1,0,0:0:0:0:
178,137,38386,1,0,0:0:0:0:
181,153,38511,1,8,0:0:0:0:
185,145,38761,1,0,0:0:0:0:
172,153,38886,1,0,0:0:0:0:
181,153,39011,1,8,0:0:0:0:
182,144,39136,1,0,0:0:0:0:
170,168,39386,1,0,0:0:0:0:
181,153,39511,1,8,0:0:0:0:
172,153,39761,1,0,0:0:0:0:
181,153,40011,1,8,0:0:0:0:
172,153,40136,1,0,0:0:0:0:
172,153,40386,1,0,0:0:0:0:
172,153,40511,1,8,0:0:0:0:
179,112,40761,1,0,0:0:0:0:
181,153,40886,1,8,0:0:0:0:
181,153,41011,1,8,0:0:0:0:
181,153,41136,1,8,0:0:0:0:
190,147,41261,1,8,0:0:0:0:
171,131,41386,1,0,0:0:0:0:
181,153,41511,1,8,0:0:0:0:
171,131,41636,1,0,0:0:0:0:
181,153,41761,1,8,0:0:0:0:
183,134,42011,1,0,0:0:0:0:
181,153,42261,1,8,0:0:0:0:
183,134,42511,1,0,0:0:0:0:
181,153,42761,1,8,0:0:0:0:
183,134,43011,1,0,0:0:0:0:
181,153,43261,1,8,0:0:0:0:
183,134,43511,1,0,0:0:0:0:
181,153,43761,1,8,0:0:0:0:
183,134,44011,1,0,0:0:0:0:
181,153,44261,1,8,0:0:0:0:
183,134,44511,1,0,0:0:0:0:
181,153,44761,1,8,0:0:0:0:
183,134,45011,1,0,0:0:0:0:
181,153,45261,1,8,0:0:0:0:
164,160,45511,1,8,0:0:0:0:
205,147,45636,1,0,0:0:0:0:
181,153,45761,1,8,0:0:0:0:
185,141,46011,1,8,0:0:0:0:
191,146,46136,1,0,0:0:0:0:
188,147,46386,1,0,0:0:0:0:
188,147,46511,1,8,0:0:0:0:
181,153,46761,1,8,0:0:0:0:
188,147,47136,1,0,0:0:0:0:
181,153,47511,1,8,0:0:0:0:
181,153,47761,1,8,0:0:0:0:
181,153,48011,1,0,0:0:0:0:
181,153,48136,1,8,0:0:0:0:
181,153,48261,1,8,0:0:0:0:
181,153,48386,1,8,0:0:0:0:
157,149,48511,1,8,0:0:0:0:
157,149,48636,1,8,0:0:0:0:
157,149,48761,1,8,0:0:0:0:
167,152,49761,1,12,0:0:0:0:
167,152,50136,1,12,0:0:0:0:
184,182,50511,1,4,0:0:0:0:
167,152,50761,1,12,0:0:0:0:
181,162,51011,1,0,0:0:0:0:
167,152,51136,1,8,0:0:0:0:
167,152,51261,1,0,0:0:0:0:
167,152,51511,1,0,0:0:0:0:
167,152,51761,1,12,0:0:0:0:
179,151,52136,1,12,0:0:0:0:
179,151,52511,1,4,0:0:0:0:
167,152,52761,1,12,0:0:0:0:
188,144,53011,1,0,0:0:0:0:
188,145,53261,1,8,0:0:0:0:
188,145,53511,1,0,0:0:0:0:
192,157,53761,1,12,0:0:0:0:
177,139,54136,1,0,0:0:0:0:
175,146,54511,1,0,0:0:0:0:
192,157,54761,1,12,0:0:0:0:
200,148,55011,1,8,0:0:0:0:
186,145,55261,1,8,0:0:0:0:
186,145,55386,1,0,0:0:0:0:
186,145,55511,1,0,0:0:0:0:
186,145,55636,1,8,0:0:0:0:
192,157,55761,1,12,0:0:0:0:
186,145,56136,1,12,0:0:0:0:
186,145,56511,1,4,0:0:0:0:
192,157,56761,1,12,0:0:0:0:
192,157,57011,1,0,0:0:0:0:
192,157,57261,1,8,0:0:0:0:
191,143,57386,1,8,0:0:0:0:
191,143,57511,1,8,0:0:0:0:
191,143,57636,1,8,0:0:0:0:
204,172,57761,1,0,0:0:0:0:
204,172,58011,1,0,0:0:0:0:
192,157,58136,1,8,0:0:0:0:
200,141,58261,1,0,0:0:0:0:
188,151,58511,1,8,0:0:0:0:
200,141,58761,1,8,0:0:0:0:
178,153,59011,1,0,0:0:0:0:
200,141,59261,1,8,0:0:0:0:
191,146,59511,1,0,0:0:0:0:
191,146,59636,1,0,0:0:0:0:
200,141,59761,1,8,0:0:0:0:
180,147,60011,1,8,0:0:0:0:
200,141,60261,1,8,0:0:0:0:
180,147,60511,1,0,0:0:0:0:
200,141,60761,1,8,0:0:0:0:
200,141,61136,1,8,0:0:0:0:
200,141,61761,1,8,0:0:0:0:
216,140,61886,1,0,0:0:0:0:
216,140,62011,1,8,0:0:0:0:
216,140,62136,1,0,0:0:0:0:
200,141,62261,1,8,0:0:0:0:
200,141,62511,1,0,0:0:0:0:
200,141,62761,1,8,0:0:0:0:
197,142,63011,1,0,0:0:0:0:
197,142,63136,1,0,0:0:0:0:
200,141,63261,1,8,0:0:0:0:
200,141,63511,1,0,0:0:0:0:
200,141,63761,1,8,0:0:0:0:
191,140,64011,1,8,0:0:0:0:
200,141,64261,1,8,0:0:0:0:
173,157,64511,1,0,0:0:0:0:
200,141,64761,1,8,0:0:0:0:
189,163,64886,1,0,0:0:0:0:
189,163,65011,1,0,0:0:0:0:
189,163,65136,1,0,0:0:0:0:
200,141,65261,1,8,0:0:0:0:
192,146,65386,1,0,0:0:0:0:
192,146,65511,1,8,0:0:0:0:
192,146,65636,1,0,0:0:0:0:
204,151,65761,1,8,0:0:0:0:
194,146,66011,1,8,0:0:0:0:
189,163,66136,1,0,0:0:0:0:
191,162,66386,1,0,0:0:0:0:
193,150,66511,1,8,0:0:0:0:
191,162,66761,1,0,0:0:0:0:
191,162,66886,1,0,0:0:0:0:
215,155,67011,1,8,0:0:0:0:
191,162,67261,1,0,0:0:0:0:
191,162,67386,1,0,0:0:0:0:
215,155,67511,1,8,0:0:0:0:
191,162,67761,1,0,0:0:0:0:
215,155,68011,1,8,0:0:0:0:
191,162,68136,1,0,0:0:0:0:
191,162,68386,1,0,0:0:0:0:
215,155,68511,1,8,0:0:0:0:
191,162,68761,1,0,0:0:0:0:
191,162,68886,1,0,0:0:0:0:
215,155,69011,1,8,0:0:0:0:
200,152,69136,1,8,0:0:0:0:
191,162,69261,1,0,0:0:0:0:
191,162,69386,1,0,0:0:0:0:
215,155,69511,1,8,0:0:0:0:
191,162,69761,1,8,0:0:0:0:
191,162,69886,1,8,0:0:0:0:
215,155,70011,1,0,0:0:0:0:
191,151,70261,1,8,0:0:0:0:
215,155,70511,1,8,0:0:0:0:
205,146,70636,1,0,0:0:0:0:
205,146,70761,1,8,0:0:0:0:
215,155,71011,1,8,0:0:0:0:
205,146,71261,1,0,0:0:0:0:
215,155,71511,1,8,0:0:0:0:
193,159,71761,1,0,0:0:0:0:
193,159,71886,1,0,0:0:0:0:
215,155,72011,1,8,0:0:0:0:
193,159,72136,1,0,0:0:0:0:
193,159,72261,1,0,0:0:0:0:
193,159,72386,1,0,0:0:0:0:
204,146,72511,1,8,0:0:0:0:
204,146,72636,1,0,0:0:0:0:
204,146,72761,1,0,0:0:0:0:
204,146,72886,1,0,0:0:0:0:
215,155,73011,1,8,0:0:0:0:
193,143,73136,1,0,0:0:0:0:
193,143,73261,1,0,0:0:0:0:
193,143,73386,1,0,0:0:0:0:
215,155,73511,1,8,0:0:0:0:
240,153,73761,1,12,0:0:0:0:
212,134,74011,1,0,0:0:0:0:
240,153,74261,1,12,0:0:0:0:
228,147,74511,1,0,0:0:0:0:
240,153,74761,1,12,0:0:0:0:
228,147,75011,1,0,0:0:0:0:
240,153,75261,1,12,0:0:0:0:
228,147,75511,1,0,0:0:0:0:
240,153,75761,1,12,0:0:0:0:
228,147,76011,1,0,0:0:0:0:
240,153,76261,1,12,0:0:0:0:
228,147,76511,1,0,0:0:0:0:
240,153,76761,1,12,0:0:0:0:
228,147,77011,1,0,0:0:0:0:
240,153,77261,1,12,0:0:0:0:
228,147,77511,1,0,0:0:0:0:
240,153,77761,1,12,0:0:0:0:
228,169,78136,1,8,0:0:0:0:
228,169,78511,1,12,0:0:0:0:
228,169,78761,1,12,0:0:0:0:
228,169,79136,1,8,0:0:0:0:
228,169,79511,1,12,0:0:0:0:
228,169,80011,1,12,0:0:0:0:
187,167,80511,1,8,0:0:0:0:
152,169,80636,1,8,0:0:0:0:
199,149,80761,1,0,0:0:0:0:
199,149,80886,1,8,0:0:0:0:
199,149,81011,1,0,0:0:0:0:
187,144,81136,1,0,0:0:0:0:
192,163,81261,1,0,0:0:0:0:
187,144,81386,1,0,0:0:0:0:
183,157,81511,1,8,0:0:0:0:
164,149,81636,1,0,0:0:0:0:
206,158,81896,1,0,0:0:0:0:
192,165,82021,1,8,0:0:0:0:
190,164,82146,1,0,0:0:0:0:
192,163,82271,1,0,0:0:0:0:
192,165,82396,1,8,0:0:0:0:
192,163,82521,1,0,0:0:0:0:
190,164,82646,1,0,0:0:0:0:
190,164,82771,1,8,0:0:0:0:
174,164,83021,1,8,0:0:0:0:
174,164,83146,1,0,0:0:0:0:
174,164,83271,1,8,0:0:0:0:
174,164,83521,1,0,0:0:0:0:
163,153,83646,1,8,0:0:0:0:
168,152,83896,1,8,0:0:0:0:
168,152,84021,1,0,0:0:0:0:
168,152,84146,1,0,0:0:0:0:
168,152,84271,1,8,0:0:0:0:
172,153,84396,1,0,0:0:0:0:
173,153,84521,1,0,0:0:0:0:
173,153,84646,1,8,0:0:0:0:
168,146,84896,1,8,0:0:0:0:
168,146,85021,1,8,0:0:0:0:
168,146,85271,1,0,0:0:0:0:
168,146,85396,1,0,0:0:0:0:
168,146,85521,1,8,0:0:0:0:
168,146,85646,1,0,0:0:0:0:
180,140,85896,1,8,0:0:0:0:
180,141,86021,1,0,0:0:0:0:
180,140,86146,1,0,0:0:0:0:
180,141,86271,1,8,0:0:0:0:
180,141,86396,1,0,0:0:0:0:
183,138,86521,1,0,0:0:0:0:
199,142,86646,1,8,0:0:0:0:
194,135,86771,1,0,0:0:0:0:
194,135,86896,1,0,0:0:0:0:
192,138,87021,1,8,0:0:0:0:
191,132,87146,1,0,0:0:0:0:
193,136,87271,1,0,0:0:0:0:
201,143,87396,1,0,0:0:0:0:
201,143,87521,1,8,0:0:0:0:
189,135,87771,1,12,0:0:0:0:
192,138,87896,1,0,0:0:0:0:
189,135,88146,1,12,0:0:0:0:
193,136,88271,1,0,0:0:0:0:
181,144,88521,1,12,0:0:0:0:
191,147,88646,1,0,0:0:0:0:
180,153,88896,1,12,0:0:0:0:
201,151,89021,1,0,0:0:0:0:
180,153,89271,1,4,0:0:0:0:
181,144,89521,1,4,0:0:0:0:
