osu file format v14

[General]
AudioFilename: audio.mp3
AudioLeadIn: 0
PreviewTime: 48529
Countdown: 1
SampleSet: Normal
StackLeniency: 0.7
Mode: 1
LetterboxInBreaks: 0
WidescreenStoryboard: 1

[Editor]
DistanceSpacing: 0.7
BeatDivisor: 1
GridSize: 8
TimelineZoom: 2.899999

[Metadata]
Title:High Stepper (TV Size)
TitleUnicode:ハイステッパ (TV Size)
Artist:Yuiko Ohara
ArtistUnicode:Yuiko Ohara
Creator:Atreevete
Version:Kantan
Source:Hanebado!
Tags:ED Ending Hanebado!
BeatmapID:1719541
BeatmapSetID:818743

[Difficulty]
HPDrainRate:3
CircleSize:6
OverallDifficulty:4
ApproachRate:6
SliderMultiplier:1.3999996189499
SliderTickRate:1

[Events]
//Background and Video events
Video,592,"HANEBADO! - Official Ending .avi"
0,0,"thumb-1920-932302.png",0,0
//Break Periods
//Storyboard Layer 0 (Background)
//Storyboard Layer 1 (Fail)
//Storyboard Layer 2 (Pass)
//Storyboard Layer 3 (Foreground)
//Storyboard Sound Samples

[TimingPoints]
761,250,4,1,0,100,1,0
761,-125,4,1,0,100,0,0
49761,-133.333333333333,4,1,0,100,0,1
57817,-125,4,1,0,100,0,1
65761,-125,4,1,0,100,0,0
81771,250,4,1,0,100,1,0
81771,-125,4,1,0,100,0,0

[HitObjects]
157,185,761,5,0,0:0:0:0:
157,185,1261,1,0,0:0:0:0:
157,185,1761,1,8,0:0:0:0:
152,195,2261,1,0,0:0:0:0:
139,184,2761,1,0,0:0:0:0:
152,195,3011,1,0,0:0:0:0:
149,197,3261,1,0,0:0:0:0:
163,186,3511,1,0,0:0:0:0:
171,180,3761,1,8,0:0:0:0:
176,196,4261,1,0,0:0:0:0:
165,193,4761,1,0,0:0:0:0:
176,196,5011,1,0,0:0:0:0:
176,196,5261,1,0,0:0:0:0:
176,196,5511,1,0,0:0:0:0:
191,201,5761,1,8,0:0:0:0:
176,196,6261,1,0,0:0:0:0:
184,195,6761,1,0,0:0:0:0:
175,192,7011,1,0,0:0:0:0:
176,196,7261,1,0,0:0:0:0:
176,196,7511,1,0,0:0:0:0:
198,180,7761,1,8,0:0:0:0:
126,190,8261,1,0,0:0:0:0:
176,196,8511,1,0,0:0:0:0:
175,192,8761,1,0,0:0:0:0:
176,196,9261,1,8,0:0:0:0:
176,196,9511,1,8,0:0:0:0:
175,192,9761,1,8,0:0:0:0:
176,196,10261,1,8,0:0:0:0:
146,186,10761,1,8,0:0:0:0:
170,191,11011,1,8,0:0:0:0:
176,196,11261,1,8,0:0:0:0:
176,196,11511,1,8,0:0:0:0:
175,192,11761,1,0,0:0:0:0:
176,196,12261,1,8,0:0:0:0:
164,186,12761,1,8,0:0:0:0:
164,186,13011,1,8,0:0:0:0:
176,196,13261,1,8,0:0:0:0:
175,192,13511,1,8,0:0:0:0:
175,192,13761,1,0,0:0:0:0:
176,196,14261,1,8,0:0:0:0:
181,195,14761,1,8,0:0:0:0:
181,195,15011,1,8,0:0:0:0:
175,192,15261,1,8,0:0:0:0:
175,192,15511,1,8,0:0:0:0:
175,192,15761,1,8,0:0:0:0:
175,192,16261,1,8,0:0:0:0:
175,192,16511,1,0,0:0:0:0:
175,192,16761,1,0,0:0:0:0:
175,192,17261,1,0,0:0:0:0:
186,190,17511,1,0,0:0:0:0:
176,182,17761,1,0,0:0:0:0:
176,182,18261,1,8,0:0:0:0:
176,182,18761,1,0,0:0:0:0:
176,182,19261,1,8,0:0:0:0:
176,182,19761,1,0,0:0:0:0:
176,182,20011,1,0,0:0:0:0:
176,182,20261,1,8,0:0:0:0:
176,182,20761,1,0,0:0:0:0:
176,182,21261,1,8,0:0:0:0:
176,182,21761,1,0,0:0:0:0:
176,182,22011,1,0,0:0:0:0:
176,182,22261,1,8,0:0:0:0:
176,182,22761,1,8,0:0:0:0:
176,182,23261,1,8,0:0:0:0:
176,182,23761,1,0,0:0:0:0:
176,182,24261,1,0,0:0:0:0:
176,182,24761,1,8,0:0:0:0:
176,182,25011,1,0,0:0:0:0:
176,182,25261,1,0,0:0:0:0:
176,182,25511,1,0,0:0:0:0:
194,194,25761,1,0,0:0:0:0:
173,162,26261,1,8,0:0:0:0:
173,162,26761,1,0,0:0:0:0:
173,162,27261,1,8,0:0:0:0:
182,151,27511,1,0,0:0:0:0:
182,151,27761,1,0,0:0:0:0:
182,151,28261,1,8,0:0:0:0:
182,151,28761,1,0,0:0:0:0:
182,151,29261,1,8,0:0:0:0:
182,151,29511,1,8,0:0:0:0:
182,151,29761,1,8,0:0:0:0:
172,150,30261,1,0,0:0:0:0:
172,150,30761,1,8,0:0:0:0:
172,150,31261,1,8,0:0:0:0:
172,150,31761,1,0,0:0:0:0:
172,150,32261,1,0,0:0:0:0:
172,150,32761,1,0,0:0:0:0:
172,150,33011,1,0,0:0:0:0:
172,150,33261,1,0,0:0:0:0:
172,150,33511,1,0,0:0:0:0:
190,152,33761,1,8,0:0:0:0:
203,145,34761,1,0,0:0:0:0:
203,145,35011,1,0,0:0:0:0:
183,166,35261,1,0,0:0:0:0:
186,143,35511,1,0,0:0:0:0:
186,143,35761,1,0,0:0:0:0:
178,133,36761,1,8,0:0:0:0:
178,133,37011,1,0,0:0:0:0:
178,133,37261,1,0,0:0:0:0:
178,133,37511,1,0,0:0:0:0:
178,133,37761,1,0,0:0:0:0:
203,144,38761,1,8,0:0:0:0:
203,144,39011,1,0,0:0:0:0:
203,144,39261,1,0,0:0:0:0:
203,144,39511,1,0,0:0:0:0:
203,144,39761,1,0,0:0:0:0:
182,147,40761,1,8,0:0:0:0:
182,147,41011,1,8,0:0:0:0:
187,144,41261,1,8,0:0:0:0:
187,144,41511,1,8,0:0:0:0:
187,144,41761,1,12,0:0:0:0:
187,144,42261,1,4,0:0:0:0:
187,144,42761,1,12,0:0:0:0:
187,144,43261,1,4,0:0:0:0:
187,144,43761,1,12,0:0:0:0:
187,144,44261,1,4,0:0:0:0:
187,144,44761,1,12,0:0:0:0:
187,144,45261,1,4,0:0:0:0:
187,144,45761,1,12,0:0:0:0:
182,142,46761,1,8,0:0:0:0:
192,139,47011,1,8,0:0:0:0:
182,142,47511,1,8,0:0:0:0:
192,139,47761,1,8,0:0:0:0:
182,142,48761,1,8,0:0:0:0:
182,142,49761,1,12,0:0:0:0:
182,142,50261,1,0,0:0:0:0:
182,142,50761,1,12,0:0:0:0:
182,142,51761,1,12,0:0:0:0:
182,142,52261,1,0,0:0:0:0:
182,142,52761,1,12,0:0:0:0:
182,142,53261,1,8,0:0:0:0:
182,142,53761,1,12,0:0:0:0:
182,142,54261,1,0,0:0:0:0:
182,142,54761,1,12,0:0:0:0:
186,137,55761,1,12,0:0:0:0:
186,137,56261,1,0,0:0:0:0:
186,137,56761,1,12,0:0:0:0:
186,137,57011,1,8,0:0:0:0:
186,137,57261,1,8,0:0:0:0:
181,136,57761,1,12,0:0:0:0:
181,136,58261,1,0,0:0:0:0:
181,136,58761,1,8,0:0:0:0:
181,136,59011,1,0,0:0:0:0:
181,136,59261,1,0,0:0:0:0:
181,136,59511,1,0,0:0:0:0:
189,146,59761,1,0,0:0:0:0:
197,144,60261,1,8,0:0:0:0:
197,144,60761,1,0,0:0:0:0:
197,144,61261,1,8,0:0:0:0:
197,144,61761,1,8,0:0:0:0:
197,144,62261,1,8,0:0:0:0:
197,144,62761,1,0,0:0:0:0:
197,144,63261,1,0,0:0:0:0:
197,144,63761,1,8,0:0:0:0:
197,144,64011,1,8,0:0:0:0:
197,144,64261,1,8,0:0:0:0:
197,144,64761,1,0,0:0:0:0:
197,144,65011,1,0,0:0:0:0:
197,144,65261,1,0,0:0:0:0:
197,144,65761,1,8,0:0:0:0:
197,144,66511,1,0,0:0:0:0:
191,156,67261,1,8,0:0:0:0:
191,156,67511,1,8,0:0:0:0:
191,156,67761,1,8,0:0:0:0:
188,159,68511,1,0,0:0:0:0:
190,167,69511,1,0,0:0:0:0:
190,167,69761,1,8,0:0:0:0:
190,167,70761,1,8,0:0:0:0:
190,167,71011,1,0,0:0:0:0:
190,167,71261,1,0,0:0:0:0:
190,167,71511,1,0,0:0:0:0:
190,167,71761,1,8,0:0:0:0:
190,167,72261,1,8,0:0:0:0:
190,167,72761,1,0,0:0:0:0:
190,167,73261,1,0,0:0:0:0:
190,167,73761,1,12,0:0:0:0:
197,166,74261,1,12,0:0:0:0:
197,166,74761,1,12,0:0:0:0:
197,166,75261,1,12,0:0:0:0:
197,166,75761,1,12,0:0:0:0:
197,166,76261,1,12,0:0:0:0:
197,166,76761,1,12,0:0:0:0:
197,166,77261,1,12,0:0:0:0:
197,166,77761,1,12,0:0:0:0:
197,166,78136,1,12,0:0:0:0:
197,166,78511,1,12,0:0:0:0:
197,166,78761,1,12,0:0:0:0:
197,166,79136,1,12,0:0:0:0:
192,164,79511,1,12,0:0:0:0:
192,164,80011,1,4,0:0:0:0:
214,167,80761,1,8,0:0:0:0:
214,167,81011,1,8,0:0:0:0:
214,167,81261,1,0,0:0:0:0:
214,167,81636,1,0,0:0:0:0:
214,167,82021,1,8,0:0:0:0:
214,167,82521,1,8,0:0:0:0:
214,167,83021,1,8,0:0:0:0:
214,167,83271,1,0,0:0:0:0:
207,166,83646,1,0,0:0:0:0:
207,166,84021,1,8,0:0:0:0:
207,166,84521,1,8,0:0:0:0:
207,166,85021,1,8,0:0:0:0:
207,166,85271,1,8,0:0:0:0:
207,166,85521,1,8,0:0:0:0:
219,159,86021,1,8,0:0:0:0:
219,159,86521,1,8,0:0:0:0:
219,159,87021,1,8,0:0:0:0:
219,159,87521,1,8,0:0:0:0:
219,159,87771,1,4,0:0:0:0:
219,159,88146,1,12,0:0:0:0:
219,159,88521,1,4,0:0:0:0:
219,159,88896,1,12,0:0:0:0:
219,159,89271,1,12,0:0:0:0:
219,159,89521,1,12,0:0:0:0:
