osu file format v14

[General]
AudioFilename: audio.mp3
AudioLeadIn: 0
PreviewTime:1078
Countdown: 0
SampleSet: Soft
StackLeniency: 0.6
Mode: 0
LetterboxInBreaks: 0
WidescreenStoryboard: 1
EpilepsyWarning: 1

[Editor]
Bookmarks:35987,57078,59259,70896,88350,99987,134896,158168,169805,187259,207623,232350,243987,267259
DistanceSpacing: 1
BeatDivisor: 8
GridSize: 8
TimelineZoom: 2.6

[Metadata]
Title:Suki Dakara. (feat. Ren)
TitleUnicode:好きだから。 (feat. れん)
Artist:Yuika
ArtistUnicode:『ユイカ』
Creator:Airiesu
Version:alevi's Normal
Source:
Tags:japanese pop j-pop jpop female male vocal duo because i love you sukidakara mujina alevi xidorn
BeatmapID:3300188
BeatmapSetID:1610462

[Difficulty]
HPDrainRate:4
CircleSize:3.4
OverallDifficulty:4
ApproachRate:5
SliderMultiplier:2.2
SliderTickRate:1

[Events]
//Background and Video events
0,0,"bg.jpg",0,0
//Break Periods
2,123459,126787
2,187459,188968
2,190368,191878
2,196187,197696
2,199823,200605
2,202732,203514
2,229458,230240
//Storyboard Layer 0 (Background)
//Storyboard Layer 1 (Fail)
//Storyboard Layer 2 (Pass)
//Storyboard Layer 3 (Foreground)
//Storyboard Layer 4 (Overlay)
//Storyboard Sound Samples

[TimingPoints]
1078,727.272727272727,4,2,1,40,1,0
1078,-111.111111111111,4,2,1,40,0,0
24350,-111.111111111111,4,2,1,45,0,0
35987,-111.111111111111,4,2,1,50,0,0
36714,-111.111111111111,4,2,2,50,0,0
37805,-111.111111111111,4,2,1,50,0,0
38168,-111.111111111111,4,2,2,50,0,0
38896,-111.111111111111,4,2,1,50,0,0
39623,-111.111111111111,4,2,2,50,0,0
40714,-111.111111111111,4,2,1,50,0,0
41077,-111.111111111111,4,2,2,50,0,0
41805,-111.111111111111,4,2,1,50,0,0
42532,-111.111111111111,4,2,2,50,0,0
43623,-111.111111111111,4,2,1,50,0,0
43987,-111.111111111111,4,2,2,50,0,0
47623,-111.111111111111,4,2,1,50,0,0
48350,-111.111111111111,4,2,2,50,0,0
49441,-111.111111111111,4,2,1,50,0,0
49805,-111.111111111111,4,2,2,50,0,0
50532,-111.111111111111,4,2,1,50,0,0
51259,-111.111111111111,4,2,2,50,0,0
52350,-111.111111111111,4,2,1,50,0,0
52714,-111.111111111111,4,2,2,50,0,0
53441,-111.111111111111,4,2,1,50,0,0
54168,-111.111111111111,4,2,2,50,0,0
55259,-111.111111111111,4,2,1,50,0,0
55623,-111.111111111111,4,2,2,50,0,0
59259,-100,4,2,1,75,0,1
59987,-100,4,2,3,75,0,1
60350,-100,4,2,1,75,0,1
61441,-100,4,2,3,75,0,1
61987,-100,4,2,1,75,0,1
62896,-100,4,2,3,75,0,1
63259,-100,4,2,1,75,0,1
64350,-100,4,2,3,75,0,1
64532,-100,4,2,1,75,0,1
65805,-100,4,2,3,75,0,1
66168,-100,4,2,1,75,0,1
67259,-100,4,2,3,75,0,1
67805,-100,4,2,1,75,0,1
68714,-100,4,2,3,75,0,1
69077,-100,4,2,1,75,0,1
70168,-100,4,2,3,75,0,1
70350,-100,4,2,1,75,0,1
70714,-100,4,2,3,75,0,1
70896,-100,4,2,1,75,0,1
71623,-100,4,2,3,75,0,1
71987,-100,4,2,1,75,0,1
73077,-100,4,2,3,75,0,1
73623,-100,4,2,1,75,0,1
74532,-100,4,2,3,75,0,1
74896,-100,4,2,1,75,0,1
75987,-100,4,2,3,75,0,1
76168,-100,4,2,1,75,0,1
77441,-100,4,2,3,75,0,1
77805,-100,4,2,1,75,0,1
78896,-100,4,2,3,75,0,1
79441,-100,4,2,1,75,0,1
80350,-100,4,2,3,75,0,1
80714,-100,4,2,1,75,0,1
81805,-100,4,2,3,75,0,1
81987,-100,4,2,1,75,0,1
82350,-100,4,2,3,75,0,1
82532,-100,4,2,1,75,0,1
83259,-100,4,2,3,75,0,1
83623,-100,4,2,1,75,0,1
84714,-100,4,2,3,75,0,1
84896,-100,4,2,1,75,0,1
85259,-100,4,2,1,75,0,1
85441,-111.111111111111,4,2,1,40,0,0
88350,-111.111111111111,4,2,1,55,0,0
89805,-111.111111111111,4,2,1,55,0,0
99896,-111.111111111111,4,2,1,55,0,0
99987,-111.111111111111,4,2,1,55,0,0
123259,-111.111111111111,4,2,1,45,0,0
127623,-111.111111111111,4,2,1,55,0,0
129077,-111.111111111111,4,2,1,55,0,0
155259,-111.111111111111,4,2,1,60,0,0
156896,-111.111111111111,4,2,1,60,0,0
158168,-100,4,2,1,75,0,1
158896,-100,4,2,3,75,0,1
159259,-100,4,2,1,75,0,1
160350,-100,4,2,3,75,0,1
160896,-100,4,2,1,75,0,1
161805,-100,4,2,3,75,0,1
162168,-100,4,2,1,75,0,1
163259,-100,4,2,3,75,0,1
163441,-100,4,2,1,75,0,1
164714,-100,4,2,3,75,0,1
165077,-100,4,2,1,75,0,1
166168,-100,4,2,3,75,0,1
166714,-100,4,2,1,75,0,1
167623,-100,4,2,3,75,0,1
167987,-100,4,2,1,75,0,1
169077,-100,4,2,3,75,0,1
169259,-100,4,2,1,75,0,1
169623,-100,4,2,3,75,0,1
169805,-100,4,2,1,75,0,1
170532,-100,4,2,3,75,0,1
170896,-100,4,2,1,75,0,1
171987,-100,4,2,3,75,0,1
172532,-100,4,2,1,75,0,1
173441,-100,4,2,3,75,0,1
173805,-100,4,2,1,75,0,1
174896,-100,4,2,3,75,0,1
175077,-100,4,2,1,75,0,1
176350,-100,4,2,3,75,0,1
176714,-100,4,2,1,75,0,1
177805,-100,4,2,3,75,0,1
178350,-100,4,2,1,75,0,1
179259,-100,4,2,3,75,0,1
179623,-100,4,2,1,75,0,1
180714,-100,4,2,3,75,0,1
180896,-100,4,2,1,75,0,1
182168,-100,4,2,3,75,0,1
182532,-100,4,2,1,75,0,1
183623,-100,4,2,3,75,0,1
183805,-100,4,2,1,75,0,1
184350,-111.111111111111,4,2,1,40,0,0
187259,-111.111111111111,4,2,1,35,0,0
207623,-111.111111111111,4,2,1,35,0,0
210532,740.740740740741,4,2,1,35,1,0
210532,-111.111111111111,4,2,1,35,0,0
212013,727.272727272727,4,2,1,35,1,0
212013,-111.111111111111,4,2,1,35,0,0
213467,722.89156626506,4,2,1,35,1,0
213467,-111.111111111111,4,2,1,35,0,0
214822,-111.111111111111,4,2,1,35,0,0
214912,718.562874251497,4,2,1,35,1,0
214912,-111.111111111111,4,2,1,35,0,0
216259,-111.111111111111,4,2,1,35,0,0
216350,727.272727272727,4,2,1,35,1,0
216350,-111.111111111111,4,2,1,35,0,0
219259,-111.111111111111,4,2,1,40,0,0
224350,-111.111111111111,4,2,1,40,0,0
231440,-111.111111111111,4,2,1,60,0,0
231622,-111.111111111111,4,2,1,60,0,0
231804,-111.111111111111,4,2,1,70,0,0
232259,-111.111111111111,4,2,1,70,0,0
232350,727.272727272727,4,2,1,80,1,1
232350,-100,4,2,1,80,0,1
233077,-100,4,2,3,80,0,1
233440,-100,4,2,1,80,0,1
234531,-100,4,2,3,80,0,1
235077,-100,4,2,1,80,0,1
235986,-100,4,2,3,80,0,1
236350,-100,4,2,1,80,0,1
237440,-100,4,2,3,80,0,1
237622,-100,4,2,1,80,0,1
238895,-100,4,2,3,80,0,1
239259,-100,4,2,1,80,0,1
240350,-100,4,2,3,80,0,1
240895,-100,4,2,1,80,0,1
241804,-100,4,2,3,80,0,1
242168,-100,4,2,1,80,0,1
243259,-100,4,2,3,80,0,1
243440,-100,4,2,1,80,0,1
244713,-100,4,2,3,80,0,1
245077,-100,4,2,1,80,0,1
246168,-100,4,2,3,80,0,1
246713,-100,4,2,1,80,0,1
247622,-100,4,2,3,80,0,1
247986,-100,4,2,1,80,0,1
249077,-100,4,2,3,80,0,1
249259,-100,4,2,1,80,0,1
250531,-100,4,2,3,80,0,1
250895,-100,4,2,1,80,0,1
251986,-100,4,2,3,80,0,1
252531,-100,4,2,1,80,0,1
253440,-100,4,2,3,80,0,1
253804,-100,4,2,1,80,0,1
254895,-100,4,2,3,80,0,1
255077,-100,4,2,1,80,0,1
255440,-100,4,2,3,80,0,1
255622,-100,4,2,1,80,0,1
256350,-100,4,2,3,80,0,1
256713,-100,4,2,1,80,0,1
257804,-100,4,2,3,80,0,1
258350,-100,4,2,1,80,0,1
259259,-100,4,2,3,80,0,1
259804,-100,4,2,1,80,0,1
260713,-100,4,2,3,80,0,1
260895,-100,4,2,1,80,0,1
261440,-111.111111111111,4,2,1,75,0,0
262895,-111.111111111111,4,2,1,75,0,0
264350,-111.111111111111,4,2,1,40,0,0
266350,-111.111111111111,4,2,1,75,0,0
267986,-111.111111111111,4,2,3,75,0,0
268168,-111.111111111111,4,2,1,75,0,0
269440,-111.111111111111,4,2,3,75,0,0
269622,-111.111111111111,4,2,1,75,0,0
270895,-111.111111111111,4,2,3,75,0,0
271077,-111.111111111111,4,2,1,75,0,0
272350,-111.111111111111,4,2,3,75,0,0
272531,-111.111111111111,4,2,1,75,0,0
273804,-111.111111111111,4,2,3,75,0,0
273986,-111.111111111111,4,2,1,75,0,0
275259,-111.111111111111,4,2,3,75,0,0
275440,-111.111111111111,4,2,1,75,0,0
276713,-111.111111111111,4,2,3,75,0,0
276895,-111.111111111111,4,2,1,75,0,0
279622,-111.111111111111,4,2,3,75,0,0
279804,-111.111111111111,4,2,1,75,0,0
281077,-111.111111111111,4,2,3,75,0,0
281259,-111.111111111111,4,2,1,75,0,0
282531,-111.111111111111,4,2,3,75,0,0
282713,-111.111111111111,4,2,1,75,0,0
283986,-111.111111111111,4,2,3,75,0,0
284168,-111.111111111111,4,2,1,75,0,0
285440,-111.111111111111,4,2,3,75,0,0
285622,-111.111111111111,4,2,1,75,0,0
286895,-111.111111111111,4,2,3,75,0,0
287077,-111.111111111111,4,2,1,75,0,0
287623,784.05749754982,4,2,1,65,1,0
288015,888.888888888889,4,2,1,55,1,0
288459,960,4,2,1,45,1,0
288939,1008.40336134454,4,2,1,35,1,0
289443,727.272727272727,4,2,1,25,1,0

[Colours]
Combo1 : 166,96,149
Combo2 : 203,159,174
Combo3 : 232,156,158
Combo4 : 241,100,83

[HitObjects]
107,313,1078,6,0,P|156:305|222:296,1,98.9999969787599,2|2,2:0|2:0,0:0:0:0:
290,347,1805,1,2,2:0:0:0:
330,153,2532,2,0,P|280:159|232:167,1,98.9999969787599,2|2,2:0|2:0,0:0:0:0:
158,101,3259,1,2,2:0:0:0:
341,25,3987,6,0,P|349:80|354:129,1,98.9999969787599,2|2,2:0|2:0,0:0:0:0:
392,153,4532,1,0,0:0:0:0:
392,153,4714,2,0,P|384:208|379:257,1,98.9999969787599,2|0,2:0|0:0,0:0:0:0:
304,316,5441,2,0,P|268:283|220:284,1,98.9999969787599,2|2,2:0|2:0,0:0:0:0:
136,336,6168,2,0,L|147:386,2,49.4999984893799,2|2|2,2:0|2:0|2:0,0:0:0:0:
41,305,6896,38,0,B|27:276|27:276|43:207,1,98.9999969787599,2|2,2:0|2:0,0:0:0:0:
68,115,7623,1,2,2:0:0:0:
236,11,8350,2,0,B|250:40|250:40|234:109,1,98.9999969787599,2|2,2:0|2:0,0:0:0:0:
214,201,9077,1,2,2:0:0:0:
387,296,9805,6,0,P|429:284|494:270,1,98.9999969787599,2|2,2:0|2:0,0:0:0:0:
421,194,10532,2,0,P|370:208|309:220,1,98.9999969787599,2|0,2:0|0:0,0:0:0:0:
232,181,11259,2,0,P|203:222|213:277,1,98.9999969787599,2|2,2:0|2:0,0:0:0:0:
280,336,11987,2,0,P|273:367|269:392,2,49.4999984893799,2|2|2,2:0|0:0|2:0,0:0:0:0:
355,272,12714,38,0,P|410:261|464:253,1,98.9999969787599,2|2,2:0|2:0,0:0:0:0:
505,170,13441,1,2,2:0:0:0:
358,36,14168,2,0,P|309:43|260:53,1,98.9999969787599,2|2,2:0|2:0,0:0:0:0:
189,121,14896,1,2,2:0:0:0:
374,191,15623,6,0,P|368:248|360:298,1,98.9999969787599,2|2,2:0|2:0,0:0:0:0:
293,360,16350,1,2,2:0:0:0:
97,325,17078,2,0,P|92:275|84:226,1,98.9999969787599,2|2,2:0|2:0,0:0:0:0:
112,131,17805,2,0,L|163:121,2,49.4999984893799,2|2|2,2:0|0:0|0:0,0:0:0:0:
175,206,18532,38,0,B|236:202|204:187|276:183,1,98.9999969787599,2|2,2:0|2:0,0:0:0:0:
363,217,19259,1,2,2:0:0:0:
473,52,19987,2,0,B|412:48|444:33|372:29,1,98.9999969787599,2|2,2:0|2:0,0:0:0:0:
336,56,20532,1,0,0:0:0:0:
336,56,20714,2,0,P|279:44|220:36,1,98.9999969787599,2|0,2:0|0:0,0:0:0:0:
220,135,21441,6,0,P|268:142|317:152,1,98.9999969787599,2|2,2:0|2:0,0:0:0:0:
346,193,21987,1,0,0:0:0:0:
346,193,22168,2,0,B|365:222|365:222|354:301,1,98.9999969787599,2|0,2:0|0:0,0:0:0:0:
267,330,22896,1,2,2:0:0:0:
186,372,23259,1,2,2:0:0:0:
114,303,23623,1,2,2:0:0:0:
144,208,23987,1,2,2:0:0:0:
242,218,24350,38,0,P|294:209|350:202,1,98.9999969787599,2|2,2:0|2:0,0:0:0:0:
430,243,25078,1,2,2:0:0:0:
488,53,25805,2,0,P|437:40|376:19,1,98.9999969787599,2|2,2:0|2:0,0:0:0:0:
299,47,26532,1,2,2:0:0:0:
299,47,26714,1,2,2:0:0:0:
194,151,27259,6,0,P|140:142|77:134,1,98.9999969787599,2|2,2:0|2:0,0:0:0:0:
16,193,27987,1,2,2:0:0:0:
16,193,28168,2,0,B|39:221|39:221|27:285,1,98.9999969787599,0|2,0:0|2:0,0:0:0:0:
65,315,28714,2,0,P|99:291|156:299,1,98.9999969787599,2|2,2:0|2:0,0:0:0:0:
228,362,29441,2,0,P|255:353|296:340,1,49.4999984893799,2|2,2:0|2:0,0:0:0:0:
308,309,29805,2,0,P|335:314|363:319,1,49.4999984893799,2|2,2:0|2:0,0:0:0:0:
401,338,30168,38,0,P|440:297|432:258,1,98.9999969787599,2|2,2:0|2:0,0:0:0:0:
360,191,30896,1,2,2:0:0:0:
167,236,31623,2,0,P|128:195|136:156,1,98.9999969787599,2|2,2:0|2:0,0:0:0:0:
205,87,32351,1,2,2:0:0:0:
399,122,33078,6,0,P|437:144|439:199,1,98.9999969787599,2|2,2:0|2:0,0:0:0:0:
377,271,33805,2,0,B|287:264|327:234|231:228,1,148.49999546814,2|2,2:0|2:0,0:0:0:0:
196,257,34532,1,2,2:0:0:0:
114,201,34896,2,0,P|117:172|123:145,1,49.4999984893799,2|2,2:0|2:0,0:0:0:0:
155,116,35259,2,0,P|152:87|146:60,2,49.4999984893799,2|2|2,2:0|2:0|2:0,0:0:0:0:
258,153,35987,38,0,P|290:147|321:142,1,49.4999984893799,2|0,1:2|0:0,0:0:0:0:
338,105,36350,2,0,P|370:111|401:116,1,49.4999984893799,2|2,1:2|0:0,0:0:0:0:
426,143,36714,1,10,2:0:0:0:
295,292,37441,1,2,2:0:0:0:
213,348,37805,1,2,1:2:0:0:
127,298,38168,1,10,2:0:0:0:
150,201,38532,1,2,2:0:0:0:
248,192,38896,6,0,P|252:163|256:136,1,49.4999984893799,2|0,1:2|0:0,0:0:0:0:
296,115,39259,2,0,P|292:86|288:59,1,49.4999984893799,2|2,1:2|0:0,0:0:0:0:
264,22,39623,1,10,2:0:0:0:
66,13,40350,2,0,B|44:46|44:46|58:113,1,98.9999969787599,2|2,2:0|1:2,0:0:0:0:
128,172,41078,2,0,P|172:146|220:150,1,98.9999969787599,10|2,2:0|2:0,0:0:0:0:
295,211,41805,38,0,P|346:203|399:195,1,98.9999969787599,2|2,1:2|1:2,0:0:0:0:
425,158,42350,1,2,2:0:0:0:
425,158,42532,2,0,L|416:107,2,49.4999984893799,10|2|2,2:0|2:0|2:0,0:0:0:0:
484,237,43259,2,0,P|478:297|476:355,1,98.9999969787599,2|2,2:0|1:2,0:0:0:0:
385,376,43987,1,10,2:0:0:0:
320,301,44350,1,2,2:0:0:0:
224,325,44714,6,0,P|198:320|172:316,2,49.4999984893799,2|2|2,2:0|2:0|2:0,0:0:0:0:
349,171,45805,1,2,2:0:0:0:
285,95,46168,2,0,P|254:100|222:107,1,49.4999984893799,2|2,2:0|2:0,0:0:0:0:
197,135,46532,2,0,P|166:130|134:123,2,49.4999984893799,2|2|10,2:0|2:0|2:0,0:0:0:0:
235,226,47259,1,2,2:0:0:0:
322,272,47623,38,0,P|351:263|386:255,1,49.4999984893799,2|2,1:2|0:0,0:0:0:0:
407,226,47987,2,0,P|403:194|399:170,1,49.4999984893799,2|2,1:2|0:0,0:0:0:0:
367,140,48350,1,10,2:0:0:0:
169,118,49078,1,2,2:0:0:0:
97,49,49441,1,2,1:2:0:0:
7,91,49805,1,10,2:0:0:0:
29,187,50168,1,2,2:0:0:0:
127,200,50532,6,0,P|158:194|190:190,1,49.4999984893799,2|2,1:2|0:0,0:0:0:0:
211,156,50896,2,0,P|242:162|274:166,1,49.4999984893799,2|2,1:2|0:0,0:0:0:0:
299,194,51259,1,10,2:0:0:0:
426,345,51987,2,0,P|373:334|316:324,1,98.9999969787599,2|2,2:0|1:2,0:0:0:0:
236,362,52714,2,0,P|195:338|195:286,1,98.9999969787599,10|2,2:0|2:0,0:0:0:0:
220,249,53259,1,2,2:0:0:0:
220,249,53441,38,0,P|216:215|211:182,1,49.4999984893799,2|0,1:2|0:0,0:0:0:0:
177,166,53805,2,0,P|181:132|186:99,1,49.4999984893799,2|0,1:2|0:0,0:0:0:0:
216,80,54168,1,10,2:0:0:0:
402,11,54896,1,2,2:0:0:0:
478,73,55259,1,2,1:2:0:0:
441,165,55623,1,10,2:0:0:0:
345,140,55987,1,2,2:0:0:0:
266,200,56350,6,0,P|274:257|281:313,1,98.9999969787599,2|2,2:0|2:0,0:0:0:0:
203,362,57078,2,0,P|196:312|189:263,1,98.9999969787599,2|2,2:0|2:0,0:0:0:0:
120,192,57805,1,2,2:0:0:0:
120,192,59259,38,0,B|190:182|141:166|225:157,1,110,6|2,1:2|1:2,0:0:0:0:
320,208,59987,2,0,P|366:160|363:108,1,110,10|0,2:0|1:2,0:0:0:0:
326,81,60532,1,10,2:0:0:0:
326,81,60714,2,0,P|329:46|333:17,2,55,0|8|2,1:2|2:0|1:2,0:0:0:0:
232,139,61441,2,0,P|173:125|119:115,1,110,10|2,2:0|2:0,0:0:0:0:
76,143,61987,1,8,2:0:0:0:
76,143,62168,6,0,B|49:182|49:182|71:258,1,110,2|2,1:2|1:2,0:0:0:0:
151,312,62896,2,0,P|204:299|258:288,1,110,10|0,2:0|1:2,0:0:0:0:
302,322,63441,1,10,2:0:0:0:
302,322,63623,2,0,P|298:358|297:380,2,55,0|8|2,1:2|2:0|1:2,0:0:0:0:
401,369,64350,1,10,2:0:0:0:
484,297,64714,1,2,1:2:0:0:
484,297,64896,1,8,2:0:0:0:
484,297,65078,38,0,B|475:246|475:246|477:235|477:235|466:175,1,110,6|2,1:2|1:2,0:0:0:0:
373,133,65805,2,0,P|307:120|257:112,1,110,10|2,2:0|1:2,0:0:0:0:
220,145,66350,1,10,2:0:0:0:
220,145,66532,2,0,P|188:152|157:159,2,55,0|8|2,1:2|2:0|1:2,0:0:0:0:
159,52,67259,2,0,P|125:14|66:10,1,110,10|2,2:0|2:0,0:0:0:0:
21,38,67805,1,8,2:0:0:0:
21,38,67987,6,0,P|30:94|36:161,1,110,2|2,1:2|1:2,0:0:0:0:
112,225,68714,2,0,P|146:217|169:214,2,55,10|2|2,2:0|2:0|1:2,0:0:0:0:
73,264,69259,1,10,2:0:0:0:
73,264,69441,2,0,P|64:320|58:387,1,110,0|2,1:2|1:2,0:0:0:0:
162,336,70168,1,10,2:0:0:0:
265,374,70532,1,2,1:2:0:0:
265,374,70714,1,10,2:0:0:0:
265,374,70896,38,0,P|319:364|380:355,1,110,6|2,1:2|1:2,0:0:0:0:
480,381,71623,2,0,P|507:352|492:281,1,110,10|0,2:0|1:2,0:0:0:0:
459,247,72168,1,10,2:0:0:0:
459,247,72350,2,0,P|462:220|467:188,2,55,0|8|2,1:2|2:0|1:2,0:0:0:0:
355,284,73078,2,0,P|297:272|231:261,1,110,10|2,2:0|2:0,0:0:0:0:
213,226,73623,1,8,2:0:0:0:
213,226,73805,6,0,B|191:188|191:188|212:112|212:111,1,110,2|2,1:2|1:2,0:0:0:0:
294,54,74532,2,0,P|341:87|395:75,1,110,10|0,2:0|1:2,0:0:0:0:
422,33,75078,1,10,2:0:0:0:
422,33,75259,2,0,P|455:40|486:49,2,55,2|8|2,1:2|2:0|1:2,0:0:0:0:
452,138,75987,2,0,P|449:175|446:207,1,55,10|2,2:0|1:2,0:0:0:0:
487,230,76350,2,0,P|490:267|493:299,1,55,2|10,1:2|2:0,0:0:0:0:
466,334,76714,38,0,P|427:300|362:303,1,110,6|2,1:2|1:2,0:0:0:0:
288,369,77441,1,10,2:0:0:0:
288,369,77623,1,2,2:0:0:0:
288,369,77805,2,0,P|254:363|214:358,1,55,2|10,1:2|2:0,0:0:0:0:
193,322,78168,2,0,P|198:291|202:265,2,55,0|8|2,1:2|2:0|1:2,0:0:0:0:
100,262,78896,2,0,P|92:202|82:146,1,110,10|2,2:0|2:0,0:0:0:0:
110,105,79441,1,8,2:0:0:0:
110,105,79623,6,0,B|156:99|156:99|179:109|179:109|224:103,1,110,2|2,1:2|1:2,0:0:0:0:
304,36,80350,2,0,P|367:44|424:54,1,110,10|2,2:0|1:2,0:0:0:0:
442,98,80896,1,10,2:0:0:0:
442,98,81078,2,0,P|436:131|432:156,2,55,0|10|2,1:2|2:0|1:2,0:0:0:0:
345,150,81805,1,10,2:0:0:0:
246,101,82168,1,2,1:2:0:0:
246,101,82350,1,10,2:0:0:0:
246,101,82532,38,0,P|180:89|132:83,1,110,6|2,1:2|1:2,0:0:0:0:
212,2,83259,2,0,P|266:9|320:19,1,110,10|2,2:0|1:2,0:0:0:0:
353,63,83805,1,10,2:0:0:0:
353,63,83987,2,0,P|383:57|408:54,2,55,0|8|2,1:2|2:0|1:2,0:0:0:0:
294,159,84714,1,10,2:0:0:0:
294,159,84896,1,10,2:0:0:0:
294,159,85078,2,0,P|292:196|291:225,1,55,10|10,1:2|2:0,0:0:0:0:
371,330,88350,5,2,1:2:0:0:
293,268,88714,1,2,1:2:0:0:
330,176,89078,1,10,2:0:0:0:
141,235,89805,1,2,2:0:0:0:
104,143,90168,2,0,P|109:110|115:78,1,49.4999984893799,2|2,1:2|2:0,0:0:0:0:
150,62,90532,1,10,2:0:0:0:
231,118,90896,1,2,2:0:0:0:
316,168,91259,37,2,1:2:0:0:
389,101,91623,1,2,1:2:0:0:
357,6,91987,1,10,2:0:0:0:
208,136,92714,1,2,2:0:0:0:
137,65,93078,1,2,1:2:0:0:
50,113,93441,2,0,P|44:142|42:165,1,49.4999984893799,10|10,2:0|2:0,0:0:0:0:
6,196,93805,2,0,P|12:225|14:248,1,49.4999984893799,2|8,2:0|2:0,0:0:0:0:
55,272,94168,6,0,B|92:255|92:255|159:273,1,98.9999969787599,10|10,1:2|2:0,0:0:0:0:
186,238,94714,1,8,1:2:0:0:
186,238,94896,1,10,2:0:0:0:
356,338,95623,1,2,2:0:0:0:
415,258,95987,2,0,P|411:229|406:205,1,49.4999984893799,2|2,1:2|1:2,0:0:0:0:
376,169,96350,1,10,2:0:0:0:
392,71,96714,1,2,2:0:0:0:
309,16,97078,37,2,1:2:0:0:
222,63,97441,2,0,P|168:53|118:47,2,98.9999969787599,2|10|2,1:2|2:0|2:0,0:0:0:0:
285,139,98532,2,0,P|314:132|339:128,2,49.4999984893799,2|2|2,2:0|2:0|1:2,0:0:0:0:
214,208,99259,1,10,2:0:0:0:
253,298,99623,1,8,2:3:0:0:
184,369,99987,38,0,P|153:364|121:360,1,49.4999984893799,2|0,1:2|0:0,0:0:0:0:
96,330,100350,2,0,P|65:335|33:339,1,49.4999984893799,2|0,1:2|0:0,0:0:0:0:
12,372,100714,1,10,2:0:0:0:
90,190,101441,2,0,P|138:199|196:213,1,98.9999969787599,2|2,2:0|1:2,0:0:0:0:
227,181,101987,1,2,2:0:0:0:
227,181,102168,1,10,2:0:0:0:
377,52,102896,38,0,P|373:83|370:110,1,49.4999984893799,2|2,1:2|2:0,0:0:0:0:
337,137,103259,2,0,P|341:168|344:195,1,49.4999984893799,2|2,1:2|2:0,0:0:0:0:
383,215,103623,1,10,2:0:0:0:
239,350,104350,2,0,P|201:315|148:316,1,98.9999969787599,2|2,2:0|1:2,0:0:0:0:
110,302,104896,1,2,2:0:0:0:
110,302,105078,2,0,P|112:273|115:242,2,49.4999984893799,10|10|2,2:0|2:0|1:2,0:0:0:0:
16,269,105805,6,0,P|14:240|11:209,1,49.4999984893799,2|2,1:2|2:0,0:0:0:0:
37,177,106168,2,0,P|39:148|42:117,1,49.4999984893799,2|2,1:2|2:0,0:0:0:0:
11,87,106532,1,10,2:0:0:0:
204,46,107259,2,0,P|195:91|187:147,1,98.9999969787599,2|2,2:0|1:2,0:0:0:0:
179,195,107805,1,0,0:0:0:0:
179,195,107987,1,10,2:0:0:0:
357,109,108714,38,0,P|390:103|417:98,1,49.4999984893799,2|0,1:2|0:0,0:0:0:0:
454,108,109078,2,0,P|470:89|473:62,1,49.4999984893799,2|0,1:2|0:0,0:0:0:0:
461,17,109441,1,10,2:0:0:0:
361,190,110168,2,0,B|266:174|266:174|248:204|215:206,1,148.49999546814,2|0,2:0|0:0,0:0:0:0:
197,245,110896,2,0,P|203:274|207:299,2,49.4999984893799,10|8|0,2:0|2:0|1:2,0:0:0:0:
124,176,111623,6,0,P|127:144|131:113,1,49.4999984893799,2|2,1:2|2:0,0:0:0:0:
169,97,111987,2,0,P|166:65|162:34,1,49.4999984893799,2|0,1:2|0:0,0:0:0:0:
133,8,112350,1,10,2:0:0:0:
317,80,113078,2,0,P|367:82|392:119,1,98.9999969787599,2|2,2:0|1:2,0:0:0:0:
374,167,113623,1,2,2:0:0:0:
374,167,113805,1,10,2:0:0:0:
244,316,114532,38,0,P|211:312|180:309,1,49.4999984893799,2|2,1:2|2:0,0:0:0:0:
153,282,114896,2,0,P|120:286|89:289,1,49.4999984893799,2|2,1:2|2:0,0:0:0:0:
66,319,115259,1,10,2:0:0:0:
7,129,115987,2,0,B|37:103|37:103|105:108,1,98.9999969787599,2|2,2:0|1:2,0:0:0:0:
143,136,116532,1,2,2:0:0:0:
143,136,116714,2,0,L|203:125,2,49.4999984893799,10|8|2,2:0|2:0|1:2,0:0:0:0:
201,215,117441,6,0,P|231:219|265:224,1,49.4999984893799,2|2,1:2|2:0,0:0:0:0:
287,254,117805,2,0,P|317:250|351:245,1,49.4999984893799,2|0,1:2|0:0,0:0:0:0:
385,240,118168,1,10,2:0:0:0:
503,80,118896,2,0,P|481:39|425:28,1,98.9999969787599,2|2,0:0|1:2,0:0:0:0:
397,60,119441,1,2,2:0:0:0:
397,60,119623,1,10,2:0:0:0:
371,256,120350,38,0,P|345:273|315:277,1,49.4999984893799,2|2,1:2|2:0,0:0:0:0:
281,256,120714,2,0,P|249:261|215:266,1,49.4999984893799,2|2,1:2|2:0,0:0:0:0:
182,270,121078,1,10,2:0:0:0:
11,170,121805,2,0,P|17:114|25:55,1,98.9999969787599,2|2,2:0|1:2,0:0:0:0:
68,49,122350,1,2,2:0:0:0:
68,49,122532,2,0,P|63:15|58:-12,2,49.4999984893799,10|8|2,2:0|2:0|1:2,0:0:0:0:
151,102,123259,5,2,2:1:0:0:
436,113,127987,37,8,2:0:0:0:
436,113,128168,1,8,2:0:0:0:
436,113,128350,2,0,P|467:119|490:125,2,49.4999984893799,2|10|2,1:2|2:0|2:0,0:0:0:0:
351,60,129078,6,0,P|323:63|296:68,1,49.4999984893799,2|0,1:2|0:0,0:0:0:0:
273,107,129441,2,0,P|245:104|218:99,1,49.4999984893799,2|2,1:2|2:0,0:0:0:0:
190,63,129805,1,10,2:0:0:0:
59,211,130532,2,0,P|110:213|138:253,1,98.9999969787599,2|2,2:0|1:2,0:0:0:0:
124,297,131078,1,0,0:0:0:0:
124,297,131259,1,10,2:0:0:0:
313,354,131987,38,0,P|363:344|420:335,1,98.9999969787599,2|2,1:2|1:2,0:0:0:0:
483,269,132714,2,0,P|481:235|474:216,1,49.4999984893799,10|2,2:0|2:0,0:0:0:0:
437,188,133078,2,0,P|439:154|446:135,1,49.4999984893799,2|2,2:0|0:0,0:0:0:0:
473,100,133441,1,2,2:0:0:0:
410,23,133805,2,0,P|364:41|296:56,1,98.9999969787599,2|10,1:2|2:0,0:0:0:0:
239,116,134532,1,2,0:0:0:0:
329,155,134896,6,0,B|349:187|349:187|332:259,1,98.9999969787599,2|2,1:2|1:2,0:0:0:0:
325,298,135441,1,0,0:0:0:0:
325,298,135623,1,10,2:0:0:0:
144,379,136350,2,0,P|113:372|86:368,1,49.4999984893799,2|2,2:0|2:0,0:0:0:0:
67,327,136714,2,0,B|55:297|55:297|81:222,1,98.9999969787599,2|10,1:2|2:0,0:0:0:0:
271,198,137805,38,0,P|275:168|280:138,1,49.4999984893799,2|2,1:2|2:0,0:0:0:0:
275,99,138168,2,0,P|249:83|208:70,1,49.4999984893799,2|2,1:2|2:0,0:0:0:0:
182,69,138532,1,10,2:0:0:0:
84,241,139259,2,0,P|42:220|37:166,1,98.9999969787599,2|2,2:0|1:2,0:0:0:0:
58,128,139805,1,0,0:0:0:0:
58,128,139987,2,0,P|52:98|47:79,2,49.4999984893799,10|8|2,2:0|2:0|2:0,0:0:0:0:
144,176,140714,6,0,P|197:165|249:157,1,98.9999969787599,2|2,1:2|1:2,0:0:0:0:
277,199,141259,1,2,2:0:0:0:
277,199,141441,2,0,P|303:204|331:211,2,49.4999984893799,10|2|2,2:0|2:0|2:0,0:0:0:0:
291,99,142168,2,0,L|285:42,1,49.4999984893799,2|2,2:0|2:0,0:0:0:0:
324,18,142532,2,0,P|360:42|424:33,1,98.9999969787599,2|10,1:2|2:0,0:0:0:0:
450,4,143078,1,2,1:2:0:0:
450,4,143259,1,2,2:0:0:0:
498,90,143623,38,0,L|491:149,1,49.4999984893799,2|2,2:0|2:0,0:0:0:0:
326,323,144714,1,2,2:0:0:0:
243,267,145078,2,0,P|248:235|254:203,1,49.4999984893799,2|10,2:0|2:0,0:0:0:0:
290,188,145441,2,0,P|285:156|279:124,1,49.4999984893799,2|2,2:0|2:0,0:0:0:0:
272,90,145805,2,0,P|309:79|336:72,2,49.4999984893799,10|8|0,2:0|2:0|1:2,0:0:0:0:
193,150,146532,6,0,P|163:143|128:140,1,49.4999984893799,2|0,1:2|0:0,0:0:0:0:
98,159,146896,2,0,P|72:142|61:116,1,49.4999984893799,2|2,1:2|2:0,0:0:0:0:
63,76,147259,1,10,2:0:0:0:
252,18,147987,2,0,P|286:12|316:7,2,49.4999984893799,2|2|2,2:0|2:0|1:2,0:0:0:0:
315,93,148714,1,10,2:0:0:0:
262,178,149078,2,0,P|259:204|258:231,1,49.4999984893799,2|2,2:0|2:0,0:0:0:0:
290,264,149441,38,0,L|344:255,1,49.4999984893799,2|2,1:2|2:0,0:0:0:0:
384,235,149805,2,0,L|438:244,1,49.4999984893799,2|2,1:2|2:0,0:0:0:0:
466,279,150168,1,10,2:0:0:0:
286,358,150896,1,2,2:0:0:0:
286,358,151078,2,0,P|261:353|228:347,1,49.4999984893799,2|2,2:0|1:2,0:0:0:0:
154,293,151623,2,0,P|129:298|96:304,2,49.4999984893799,10|8|2,2:0|2:0|2:0,0:0:0:0:
219,217,152350,6,0,P|213:183|207:160,1,49.4999984893799,2|2,1:2|2:0,0:0:0:0:
171,136,152714,2,0,P|177:102|183:79,1,49.4999984893799,2|2,1:2|2:0,0:0:0:0:
212,49,153078,1,10,2:0:0:0:
386,142,153805,2,0,P|433:131|486:121,1,98.9999969787599,2|2,2:0|1:2,0:0:0:0:
475,220,154532,1,10,2:0:0:0:
475,220,154714,1,2,2:0:0:0:
475,220,154896,2,0,P|471:256|469:284,1,49.4999984893799,2|2,2:0|2:0,0:0:0:0:
434,303,155259,38,0,B|392:320|392:320|334:304,1,98.9999969787599,2|2,2:0|2:0,0:0:0:0:
282,224,155987,2,0,B|240:207|240:207|182:223,1,98.9999969787599,2|10,2:0|2:0,0:0:0:0:
161,262,156532,1,8,2:0:0:0:
161,262,156714,2,0,L|172:317,1,49.4999984893799,10|8,1:2|2:0,0:0:0:0:
89,367,157259,1,8,2:0:0:0:
89,367,157441,2,0,L|79:318,2,49.4999984893799,8|4|8,2:0|2:3|2:3,0:0:0:0:
198,351,158168,6,0,B|268:341|219:325|303:316,1,110,6|2,1:2|1:2,0:0:0:0:
407,342,158896,2,0,P|401:279|392:228,1,110,10|0,2:0|1:2,0:0:0:0:
352,196,159441,1,10,2:0:0:0:
352,196,159623,2,0,P|318:200|286:207,2,55,0|8|2,1:2|2:0|1:2,0:0:0:0:
443,134,160350,2,0,B|468:96|468:96|450:27,1,110,10|2,2:0|2:0,0:0:0:0:
401,11,160896,1,8,2:0:0:0:
401,11,161078,38,0,B|331:21|380:37|296:46,1,110,2|2,1:2|1:2,0:0:0:0:
200,95,161805,2,0,P|147:82|93:71,1,110,10|0,2:0|1:2,0:0:0:0:
49,105,162350,1,10,2:0:0:0:
49,105,162532,2,0,P|45:141|44:163,2,55,0|8|2,1:2|2:0|1:2,0:0:0:0:
136,171,163259,1,10,2:0:0:0:
119,279,163623,1,2,1:2:0:0:
119,279,163805,1,8,2:0:0:0:
119,279,163987,6,0,B|172:269|172:269|183:258|183:258|240:249,1,110,6|2,1:2|1:2,0:0:0:0:
312,187,164714,2,0,P|366:196|420:206,1,110,10|2,2:0|1:2,0:0:0:0:
452,251,165259,1,10,2:0:0:0:
452,251,165441,2,0,P|448:280|447:309,2,55,0|8|2,1:2|2:0|1:2,0:0:0:0:
497,150,166168,2,0,P|463:112|404:108,1,110,10|2,2:0|2:0,0:0:0:0:
361,139,166714,1,8,2:0:0:0:
361,139,166896,38,0,P|301:131|240:126,1,110,2|2,1:2|1:2,0:0:0:0:
208,227,167623,2,0,P|242:219|265:216,2,55,10|2|2,2:0|2:0|1:2,0:0:0:0:
187,278,168168,1,10,2:0:0:0:
187,278,168350,2,0,P|153:270|130:267,2,55,0|8|2,1:2|1:2|1:2,0:0:0:0:
258,361,169077,1,10,2:0:0:0:
360,319,169441,1,2,1:2:0:0:
360,319,169623,1,10,2:0:0:0:
360,319,169805,6,0,P|397:271|386:214,1,110,6|2,1:2|1:2,0:0:0:0:
305,156,170532,2,0,P|312:97|321:42,1,110,10|0,2:0|1:2,0:0:0:0:
364,13,171078,1,10,2:0:0:0:
364,13,171259,2,0,P|389:25|421:34,2,55,0|8|2,1:2|2:0|1:2,0:0:0:0:
254,3,171987,2,0,P|199:12|145:23,1,110,10|2,2:0|2:0,0:0:0:0:
122,74,172532,1,8,2:0:0:0:
122,74,172714,38,0,B|100:112|100:112|121:188|121:189,1,110,2|2,1:2|1:2,0:0:0:0:
216,224,173441,2,0,P|263:191|317:203,1,110,10|0,2:0|1:2,0:0:0:0:
361,235,173987,1,10,2:0:0:0:
361,235,174168,2,0,P|356:264|352:294,2,55,0|8|2,1:2|2:0|1:2,0:0:0:0:
468,258,174896,2,0,P|464:230|459:203,1,55,10|2,2:0|1:2,0:0:0:0:
427,158,175259,2,0,P|430:130|435:103,1,55,2|10,1:2|2:0,0:0:0:0:
473,63,175623,6,0,P|434:29|369:32,1,110,6|2,1:2|1:2,0:0:0:0:
299,106,176350,1,10,2:0:0:0:
299,106,176532,1,2,2:0:0:0:
299,106,176714,2,0,P|265:100|225:95,1,55,2|10,1:2|2:0,0:0:0:0:
200,64,177078,2,0,P|166:70|126:75,2,55,0|8|2,1:2|2:0|1:2,0:0:0:0:
166,168,177805,2,0,P|156:222|149:276,1,110,10|2,2:0|2:0,0:0:0:0:
177,323,178350,1,8,2:0:0:0:
177,323,178532,38,0,B|138:317|138:317|115:327|115:327|69:321,1,110,2|2,1:2|1:2,0:0:0:0:
12,227,179259,2,0,P|21:169|28:113,1,110,10|2,2:0|1:2,0:0:0:0:
13,64,179805,1,10,2:0:0:0:
13,64,179987,2,0,P|7:31|3:6,2,55,0|10|2,1:2|2:0|1:2,0:0:0:0:
107,121,180714,1,10,2:0:0:0:
193,51,181078,1,2,1:2:0:0:
193,51,181259,1,10,2:0:0:0:
193,51,181441,6,0,P|259:39|307:33,1,110,6|2,1:2|1:2,0:0:0:0:
385,104,182168,2,0,B|358:143|358:143|377:218,1,110,10|2,2:0|1:2,0:0:0:0:
414,248,182714,1,10,2:0:0:0:
414,248,182896,2,0,P|409:285|405:317,2,55,0|8|2,1:2|2:0|1:2,0:0:0:0:
311,261,183623,1,10,2:0:0:0:
311,261,183805,1,10,2:0:0:0:
311,261,183987,2,0,P|280:252|245:245,1,55,10|10,1:2|2:0,0:0:0:0:
214,271,184350,37,2,2:0:0:0:
256,192,187259,21,2,1:0:0:0:
53,364,190168,5,2,1:0:0:0:
147,36,193078,37,2,1:0:0:0:
279,158,194532,1,2,1:2:0:0:
194,301,195987,1,2,1:0:0:0:
359,18,198896,6,0,B|393:145|324:90|362:226,1,197.99999395752,2|8,1:0|2:0,0:0:0:0:
77,320,201805,38,0,P|141:268|134:354,1,197.99999395752,2|8,1:0|2:0,0:0:0:0:
46,73,204714,6,0,B|170:50|170:50|195:84|247:86,1,197.99999395752,2|8,1:0|2:0,0:0:0:0:
329,90,205805,1,0,0:0:0:0:
419,144,206168,2,0,P|414:201|409:260,1,98.9999969787599,2|0,1:2|1:2,0:0:0:0:
318,280,206896,2,0,P|322:230|326:181,1,98.9999969787599,10|0,2:0|0:0,0:0:0:0:
254,113,207623,38,0,P|152:97|39:83,1,197.99999395752,2|0,2:1|0:0,0:0:0:0:
210,211,209078,2,0,P|312:195|425:181,1,197.99999395752,2|0,2:1|0:0,0:0:0:0:
317,356,210532,1,2,2:1:0:0:
405,183,211272,2,0,B|428:150|428:150|409:81,1,98.9999969787599,2|0,2:1|0:0,0:0:0:0:
320,51,212013,6,0,B|197:29|248:126|135:101,1,197.99999395752,2|2,2:1|2:1,0:0:0:0:
118,303,213467,22,0,P|189:337|178:254,1,197.99999395752,2|0,2:1|0:0,0:0:0:0:
228,54,214912,2,0,P|298:20|287:103,1,197.99999395752,2|0,2:1|0:0,0:0:0:0:
142,238,216349,1,2,2:1:0:0:
295,363,217077,2,0,P|344:355|393:345,1,98.9999969787599,2|0,2:1|0:0,0:0:0:0:
483,307,217804,1,2,2:1:0:0:
248,286,219259,6,0,P|198:275|142:266,2,98.9999969787599,2|2|2,2:1|2:0|2:0,0:0:0:0:
385,142,220713,2,0,P|435:131|491:122,2,98.9999969787599,2|2|2,2:1|2:0|2:0,0:0:0:0:
240,276,222167,2,0,P|217:228|236:180,1,98.9999969787599,2|0,2:1|0:0,0:0:0:0:
320,144,222895,2,0,P|343:96|324:48,1,98.9999969787599,2|0,2:1|0:0,0:0:0:0:
245,2,223622,1,2,2:1:0:0:
75,104,224349,2,0,P|41:99|4:92,2,49.4999984893799,2|2|2,2:0|0:0|0:0,0:0:0:0:
172,121,225077,6,0,P|224:129|283:139,1,98.9999969787599,2|2,2:1|2:0,0:0:0:0:
367,154,225804,1,2,2:0:0:0:
282,332,226531,2,0,B|167:355,1,98.9999969787599,2|2,2:1|2:0,0:0:0:0:
87,370,227258,1,2,2:0:0:0:
178,194,227986,22,0,P|236:181|287:168,1,98.9999969787599,2|2,2:1|0:0,0:0:0:0:
211,96,228713,2,0,P|163:108|115:119,1,98.9999969787599,2|2,0:0|0:0,0:0:0:0:
67,135,229258,1,2,0:0:0:0:
68,336,231440,37,8,1:2:0:0:
68,336,231622,1,8,1:2:0:0:
68,336,231804,2,0,P|33:308|34:258,1,98.9999969787599,6|0,1:2|0:0,0:0:0:0:
67,220,232350,22,0,P|62:167|56:108,1,110,6|2,1:2|1:2,0:0:0:0:
147,48,233077,2,0,P|176:86|238:83,1,110,10|0,2:0|1:2,0:0:0:0:
278,51,233622,1,10,2:0:0:0:
278,51,233804,2,0,P|312:55|344:62,2,55,0|8|2,1:2|2:0|1:2,0:0:0:0:
310,156,234531,2,0,B|335:194|335:194|317:263,1,110,10|2,2:0|2:0,0:0:0:0:
277,292,235077,1,8,2:0:0:0:
277,292,235259,6,0,B|207:282|256:266|172:257,1,110,2|2,1:2|1:2,0:0:0:0:
99,176,235986,2,0,P|152:163|206:152,1,110,10|0,2:0|1:2,0:0:0:0:
246,114,236531,1,10,2:0:0:0:
246,114,236713,2,0,P|244:86|241:59,2,55,0|8|2,1:2|2:0|1:2,0:0:0:0:
323,191,237440,1,10,2:0:0:0:
251,275,237804,1,2,1:2:0:0:
251,275,237986,1,8,2:0:0:0:
251,275,238168,22,0,P|183:261|111:251,1,110,6|2,1:2|1:2,0:0:0:0:
177,359,238895,2,0,P|231:368|285:378,1,110,10|2,2:0|1:2,0:0:0:0:
330,345,239440,1,10,2:0:0:0:
330,345,239622,2,0,P|361:338|395:333,2,55,0|8|2,1:2|2:0|1:2,0:0:0:0:
243,275,240350,2,0,B|226:236|226:236|246:153,1,110,10|2,2:0|2:0,0:0:0:0:
291,145,240895,1,8,2:0:0:0:
291,145,241077,2,0,P|320:150|358:162,2,55,2|8|2,1:2|0:0|1:2,0:0:0:0:
208,72,241804,38,0,P|153:76|98:84,1,110,14|2,2:0|1:2,0:0:0:0:
68,131,242349,1,10,2:0:0:0:
68,131,242531,2,0,P|34:123|11:120,2,55,0|8|2,1:2|0:2|1:2,0:0:0:0:
28,233,243258,1,10,2:0:0:0:
106,325,243622,1,2,1:2:0:0:
106,325,243804,1,8,2:0:0:0:
106,325,243986,22,0,P|161:315|222:306,1,110,6|2,1:2|1:2,0:0:0:0:
306,360,244713,2,0,P|313:301|322:248,1,110,10|0,2:0|1:2,0:0:0:0:
367,220,245259,1,10,2:0:0:0:
367,220,245440,2,0,P|394:212|441:199,2,55,0|8|2,1:2|2:0|1:2,0:0:0:0:
263,181,246168,2,0,P|215:168|205:105,1,110,10|2,2:0|2:0,0:0:0:0:
234,71,246713,1,8,2:0:0:0:
234,71,246895,6,0,B|270:51|270:51|354:77,1,110,2|2,1:2|1:2,0:0:0:0:
376,173,247622,2,0,B|412:193|412:193|496:167,1,110,10|0,2:0|1:2,0:0:0:0:
508,128,248168,1,10,2:0:0:0:
508,128,248349,2,0,P|504:100|499:73,2,55,2|8|0,1:2|2:0|1:2,0:0:0:0:
407,94,249077,1,14,2:0:0:0:
407,94,249259,2,0,P|352:77|284:62,1,110,2|10,1:2|2:0,0:0:0:0:
250,87,249804,22,0,P|226:133|245:195,1,110,6|2,1:2|1:2,0:0:0:0:
279,289,250531,2,0,P|242:331|184:336,1,110,8|0,2:0|1:2,0:0:0:0:
166,294,251077,1,10,2:0:0:0:
166,294,251259,2,0,P|169:266|173:239,2,55,0|8|2,1:2|2:0|1:2,0:0:0:0:
87,217,251986,2,0,P|80:162|70:108,1,110,10|2,2:0|2:0,0:0:0:0:
110,70,252531,1,8,2:0:0:0:
110,70,252713,38,0,B|149:74|149:74|170:91|170:91|214:97,1,110,2|2,1:2|1:2,0:0:0:0:
312,145,253440,2,0,P|303:199|296:253,1,110,14|0,2:0|1:2,0:0:0:0:
344,290,253986,1,8,2:0:0:0:
344,290,254168,2,0,P|380:282|425:277,2,55,2|8|2,1:2|2:0|1:2,0:0:0:0:
265,367,254895,2,0,P|237:357|210:352,1,55,10|0,2:0|1:2,0:0:0:0:
167,319,255259,2,0,P|139:329|112:334,1,55,2|8,1:2|2:0,0:0:0:0:
60,346,255622,22,0,B|35:309|35:309|55:231,1,110,6|2,1:2|1:2,0:0:0:0:
140,181,256350,2,0,P|134:122|127:71,1,110,10|2,2:0|1:2,0:0:0:0:
99,30,256895,1,10,2:0:0:0:
99,30,257077,2,0,P|68:25|35:21,2,55,0|8|2,1:2|2:0|1:2,0:0:0:0:
204,60,257804,2,0,P|263:49|327:41,1,110,10|2,2:0|0:0,0:0:0:0:
364,74,258350,1,8,2:0:0:0:
364,74,258531,6,0,P|371:108|375:134,2,55,2|8|2,1:2|2:0|1:2,0:0:0:0:
297,161,259259,2,0,P|280:242|270:304,1,110,10|2,2:0|0:0,0:0:0:0:
242,313,259804,1,10,2:0:0:0:
242,313,259986,2,0,P|252:352|256:375,2,55,2|8|2,1:2|2:0|1:2,0:0:0:0:
162,253,260713,1,10,2:0:0:0:
162,253,260895,1,4,2:3:0:0:
162,253,261077,2,0,P|129:245|93:240,1,55,4|8,2:3|2:3,0:0:0:0:
63,263,261440,21,6,1:2:0:0:
269,27,262895,37,6,1:2:0:0:
424,344,264350,6,0,P|367:335|308:329,1,98.9999969787599,2|2,2:0|0:0,0:0:0:0:
292,293,264895,2,0,P|235:302|176:308,1,98.9999969787599,2|2,0:0|0:0,0:0:0:0:
104,349,265622,1,2,0:0:0:0:
26,287,265986,1,2,0:0:0:0:
63,197,266350,1,8,2:0:0:0:
63,197,266531,2,0,P|114:183|170:172,1,98.9999969787599,8|4,1:2|2:3,0:0:0:0:
256,192,267259,5,6,1:2:0:0:
