osu file format v14

[General]
AudioFilename: audio.mp3
AudioLeadIn: 0
PreviewTime: 48558
Countdown: 0
SampleSet: Soft
StackLeniency: 0.7
Mode: 2
LetterboxInBreaks: 0
WidescreenStoryboard: 0

[Editor]
DistanceSpacing: 1.4
BeatDivisor: 4
GridSize: 16
TimelineZoom: 1.7

[Metadata]
Title:Hello Alone -Yui Ballade- (TV Size)
TitleUnicode:Hello Alone -Yui Ballade- (TV Size)
Artist:Yuigahama Yui (CV: Touyama Nao)
ArtistUnicode:由比ヶ浜結衣 (CV: 東山奈央)
Creator:-Hex-
Version:Lonely
Source:やはり俺の青春ラブコメはまちがっている。
Tags:Yahari Ore no Seishun Love Comedy wa Machigatteiru. oregairu my teen romantic comedy snafu 藤林 聖子 Shoko Fujibayashi 黒須 克彦 Katsuhiko Kurosu 安瀬聖 Hijiri Anze Daletto -Nitrous Dapuluous Skycreeper-
BeatmapID:1767239
BeatmapSetID:844876

[Difficulty]
HPDrainRate:5
CircleSize:3.3
OverallDifficulty:7.7
ApproachRate:7.7
SliderMultiplier:3.59999990463257
SliderTickRate:4

[Events]
//Background and Video events
0,0,"BG.jpg",0,0
//Break Periods
//Storyboard Layer 0 (Background)
//Storyboard Layer 1 (Fail)
//Storyboard Layer 2 (Pass)
//Storyboard Layer 3 (Foreground)
//Storyboard Sound Samples

[TimingPoints]
758,1016.94915254237,4,2,1,35,1,0
8385,882.352941176471,4,2,1,35,1,0
8605,500,4,2,1,35,1,0
8893,1016.94915254237,4,2,1,35,1,0
48808,-100,4,2,1,35,0,0
49570,-83.3333333333333,4,2,1,45,0,1
65079,-100,4,2,1,45,0,0
65842,-83.3333333333333,4,2,1,45,0,1
82113,-100,4,2,1,35,0,0
83130,-100,4,2,1,25,0,0
84655,-100,4,2,1,15,0,0
86181,-100,4,2,1,5,0,0

[Colours]
Combo1 : 167,159,138
Combo2 : 217,142,111
Combo3 : 133,191,193
Combo4 : 239,213,164

[HitObjects]
272,336,758,6,0,L|252:236,1,89.9999976158143,6|0,0:0|0:0,0:0:0:0:
384,232,1266,2,0,L|396:120,1,89.9999976158142,0|2,0:0|0:0,0:0:0:0:
156,136,1774,2,0,L|40:136,2,89.9999976158142
36,212,2537,1,0,0:0:0:0:
268,144,2791,2,0,L|176:148,2,89.9999976158143,2|0|0,0:0|0:0|0:0,0:0:0:0:
392,192,3554,1,2,0:0:0:0:
52,188,4825,6,0,L|164:188,2,89.9999976158143,6|0|0,0:0|0:0|0:0,0:0:0:0:
176,272,5588,1,0,0:0:0:0:
400,224,5842,2,0,L|272:224,1,89.9999976158143,2|0,0:0|0:0,0:0:0:0:
176,76,6351,2,0,L|276:76,1,89.9999976158143,0|0,0:0|0:0,0:0:0:0:
492,208,6859,6,0,L|372:204,1,89.9999976158143,2|0,0:0|0:0,0:0:0:0:
280,120,7368,1,0,0:0:0:0:
412,196,7622,2,0,P|400:288|320:288,1,179.999995231629,2|0,0:0|0:0,0:0:0:0:
208,224,8385,1,0,0:0:0:0:
410,183,8605,1,0,0:0:0:0:
448,145,8667,1,0,0:0:0:0:
486,104,8730,1,0,0:0:0:0:
423,84,8893,6,0,L|306:80,2,89.9999976158143,2|0|0,0:0|0:0|0:0,0:0:0:0:
192,272,9656,2,0,L|0:256,1,179.999995231629,2|0,0:0|0:0,0:0:0:0:
144,112,10419,2,0,L|256:128,1,89.9999976158143,0|0,0:0|0:0,0:0:0:0:
464,288,10927,6,0,L|496:96,1,179.999995231629,2|0,0:0|0:0,0:0:0:0:
197,284,11944,2,0,L|-11:252,1,179.999995231629,2|0,0:0|0:0,0:0:0:0:
127,185,12707,1,0,0:0:0:0:
448,240,12961,6,0,L|496:128,1,89.9999976158143,6|0,0:0|0:0,0:0:0:0:
376,128,13469,1,0,0:0:0:0:
144,208,13724,2,0,P|96:288|160:320,1,179.999995231629,2|0,0:0|0:0,0:0:0:0:
272,288,14486,1,0,0:0:0:0:
160,224,14741,1,0,0:0:0:0:
384,176,14995,6,0,L|272:176,1,89.9999976158143,2|0,0:0|0:0,0:0:0:0:
176,128,15503,1,0,0:0:0:0:
400,208,15757,2,0,P|448:288|384:320,1,179.999995231629,2|0,0:0|0:0,0:0:0:0:
272,256,16520,2,0,L|400:256,1,89.9999976158143,0|0,0:0|0:0,0:0:0:0:
128,192,17029,6,0,L|32:192,2,89.9999976158143,2|0|0,0:0|0:0|0:0,0:0:0:0:
352,128,17791,2,0,L|128:128,1,179.999995231629,2|0,0:0|0:0,0:0:0:0:
304,64,18554,1,0,0:0:0:0:
80,144,18808,1,0,0:0:0:0:
16,176,18935,1,0,0:0:0:0:
80,208,19063,6,0,L|208:208,1,89.9999976158143,2|0,0:0|0:0,0:0:0:0:
304,144,19571,1,0,0:0:0:0:
80,176,19825,2,0,P|64:112|176:64,1,179.999995231629,2|0,0:0|0:0,0:0:0:0:
256,208,20588,1,0,0:0:0:0:
128,208,20842,1,0,0:0:0:0:
448,144,21096,6,0,L|448:288,1,89.9999976158143,6|0,0:0|0:0,0:0:0:0:
340,351,21605,1,0,0:0:0:0:
111,64,21859,2,0,P|31:128|79:208,1,179.999995231629,2|0,0:0|0:0,0:0:0:0:
170,239,22622,1,0,0:0:0:0:
288,320,22876,1,0,0:0:0:0:
64,208,23130,6,0,P|48:112|112:96,1,179.999995231629,2|0,0:0|0:0,0:0:0:0:
240,160,23893,2,0,P|288:224|208:272,1,179.999995231629,2|0,0:0|0:0,0:0:0:0:
96,320,24656,2,0,L|0:320,1,89.9999976158143,2|0,0:0|0:0,0:0:0:0:
352,320,25164,6,0,L|528:240,1,179.999995231629,6|0,0:0|0:0,0:0:0:0:
304,208,25927,2,0,P|288:128|384:96,1,179.999995231629,2|0,0:0|0:0,0:0:0:0:
480,128,26690,1,0,0:0:0:0:
256,144,26944,1,0,0:0:0:0:
192,112,27071,1,0,0:0:0:0:
256,64,27198,6,0,L|352:64,2,89.9999976158143,2|0|2,0:0|0:0|0:0,0:0:0:0:
128,160,27960,2,0,L|208:208,1,89.9999976158143,0|2,0:0|0:0,0:0:0:0:
416,240,28469,2,0,L|544:240,2,89.9999976158143,0|2|0,0:0|0:0|0:0,0:0:0:0:
64,192,29232,6,0,P|48:272|128:272,1,179.999995231629,6|0,0:0|0:0,0:0:0:0:
256,208,29995,2,0,P|288:112|224:96,1,179.999995231629,2|0,0:0|0:0,0:0:0:0:
112,160,30757,2,0,L|112:288,1,89.9999976158143,2|0,0:0|0:0,0:0:0:0:
336,192,31266,6,0,L|528:192,1,179.999995231629,2|2,0:0|0:0,0:0:0:0:
384,128,32029,1,0,0:0:0:0:
256,304,32283,2,0,L|240:192,1,89.9999976158143,0|0,0:0|0:0,0:0:0:0:
368,192,32791,2,0,L|464:192,1,89.9999976158143,2|0,0:0|0:0,0:0:0:0:
128,224,33300,6,0,L|16:224,2,89.9999976158143,6|0|0,0:0|0:0|0:0,0:0:0:0:
272,192,34063,2,0,P|336:112|288:80,1,179.999995231629,0|0,0:0|0:0,0:0:0:0:
160,96,34825,2,0,L|288:96,1,89.9999976158143,2|0,0:0|0:0,0:0:0:0:
480,208,35334,6,0,P|480:112|384:96,1,179.999995231629,2|0,0:0|0:0,0:0:0:0:
192,128,36096,2,0,L|416:128,1,179.999995231629,2|0,0:0|0:0,0:0:0:0:
240,64,36859,1,2,0:0:0:0:
464,208,37368,6,0,L|352:208,1,89.9999976158143,2|0,0:0|0:0,0:0:0:0:
240,144,37876,2,0,L|352:144,1,89.9999976158143,2|0,0:0|0:0,0:0:0:0:
112,240,38385,2,0,P|80:144|144:112,1,179.999995231629,2|0,0:0|0:0,0:0:0:0:
256,192,39147,6,0,P|304:256|240:320,1,179.999995231629,0|0,0:0|0:0,0:0:0:0:
112,272,39910,2,0,L|112:384,1,89.9999976158143,2|0,0:0|0:0,0:0:0:0:
320,288,40419,1,2,0:0:0:0:
128,208,41181,1,0,0:0:0:0:
336,272,41435,6,0,P|384:192|304:160,1,179.999995231629,2|0,0:0|0:0,0:0:0:0:
112,192,42198,2,0,L|96:80,1,89.9999976158143,2|0,0:0|0:0,0:0:0:0:
224,96,42707,2,0,L|64:96,1,89.9999976158143,0|0,0:0|0:0,0:0:0:0:
16,96,43215,1,2,0:0:0:0:
240,256,43469,6,0,L|256:144,1,89.9999976158143,2|0,0:0|0:0,0:0:0:0:
144,144,43978,1,0,0:0:0:0:
352,256,44232,2,0,L|368:160,1,89.9999976158143,2|0,0:0|0:0,0:0:0:0:
256,128,44741,1,0,0:0:0:0:
368,96,44995,1,2,0:0:0:0:
480,144,45249,1,0,0:0:0:0:
144,256,45503,6,0,P|80:192|128:128,1,179.999995231629,6|0,0:0|0:0,0:0:0:0:
352,144,46266,2,0,L|144:144,2,179.999995231629,2|0|2,0:0|0:0|0:0,0:0:0:0:
128,224,47537,2,0,P|288:128|416:240,1,359.999990463257,0|0,0:0|0:0,0:0:0:0:
304,192,48808,5,0,0:0:0:0:
176,336,49063,1,0,0:0:0:0:
115,287,49190,1,0,0:0:0:0:
115,224,49317,1,0,0:0:0:0:
176,176,49444,1,0,0:0:0:0:
384,288,49570,6,0,P|448:224|368:151,1,215.999987686158,6|0,0:0|0:0,0:0:0:0:
240,144,50334,1,0,0:0:0:0:
384,240,50588,2,0,L|400:112,1,107.999993843079,2|0,0:0|0:0,0:0:0:0:
256,128,51096,2,0,L|128:128,1,107.999993843079,0|0,0:0|0:0,0:0:0:0:
384,272,51605,6,0,P|448:176|368:144,1,215.999987686158,6|0,0:0|0:0,0:0:0:0:
256,208,52368,1,2,0:0:0:0:
496,128,52622,2,0,L|384:128,1,107.999993843079,0|0,0:0|0:0,0:0:0:0:
288,192,53130,2,0,L|400:192,1,107.999993843079,2|0,0:0|0:0,0:0:0:0:
55,301,53639,6,0,P|23:205|119:157,1,215.999987686158,6|0,0:0|0:0,0:0:0:0:
227,224,54402,1,0,0:0:0:0:
346,143,54656,2,0,L|106:143,1,215.999987686158,2|0,0:0|0:0,0:0:0:0:
459,259,55419,6,0,P|493:196|395:117,1,215.999987686158,6|0,0:0|0:0,0:0:0:0:
269,231,56181,2,0,L|397:231,1,107.999993843079,2|0,0:0|0:0,0:0:0:0:
126,220,56690,2,0,L|14:268,1,107.999993843079,2|0,0:0|0:0,0:0:0:0:
158,140,57198,2,0,L|30:140,1,107.999993843079,2|0,0:0|0:0,0:0:0:0:
420,255,57706,6,0,P|473:175|377:129,1,215.999987686158,6|0,0:0|0:0,0:0:0:0:
254,223,58469,1,0,0:0:0:0:
377,287,58723,2,0,L|489:287,1,107.999993843079,2|0,0:0|0:0,0:0:0:0:
336,176,59232,2,0,L|432:224,1,107.999993843079
192,224,59741,5,6,0:0:0:0:
320,160,59995,2,0,L|448:160,2,107.999993843079,0|2|0,0:0|0:0|0:0,0:0:0:0:
93,86,60757,2,0,L|333:86,1,215.999987686158,2|0,0:0|0:0,0:0:0:0:
439,56,61520,1,0,0:0:0:0:
112,224,61774,6,0,L|0:176,2,107.999993843079,6|0|0,0:0|0:0|0:0,0:0:0:0:
368,320,62537,2,0,P|416:208|336:192,1,215.999987686158,2|0,0:0|0:0,0:0:0:0:
224,208,63300,2,0,L|224:80,1,107.999993843079,2|0,0:0|0:0,0:0:0:0:
479,144,63808,6,0,L|351:176,2,107.999993843079,6|0|0,0:0|0:0|0:0,0:0:0:0:
224,208,64571,2,0,L|0:208,1,215.999987686158,6|0,0:0|0:0,0:0:0:0:
128,128,65334,1,2,0:0:0:0:
16,272,65588,1,0,0:0:0:0:
352,256,65842,6,0,P|368:160|256:128,1,215.999987686158,6|0,0:0|0:0,0:0:0:0:
144,128,66605,2,0,L|32:128,2,107.999993843079,0|2|0,0:0|0:0|0:0,0:0:0:0:
288,176,67368,2,0,L|416:176,1,107.999993843079,2|0,0:0|0:0,0:0:0:0:
144,272,67876,6,0,P|112:160|144:160,1,215.999987686158,6|0,0:0|0:0,0:0:0:0:
307,146,68639,1,2,0:0:0:0:
494,243,69147,1,2,0:0:0:0:
382,179,69402,2,0,L|494:179,1,107.999993843079,0|0,0:0|0:0,0:0:0:0:
92,288,69910,6,0,P|44:176|108:160,1,215.999987686158,6|0,0:0|0:0,0:0:0:0:
220,194,70673,1,0,0:0:0:0:
360,325,70927,2,0,L|144:325,1,215.999987686158,2|0,0:0|0:0,0:0:0:0:
464,256,71690,6,0,P|496:144|416:96,1,215.999987686158,6|0,0:0|0:0,0:0:0:0:
288,192,72452,2,0,L|304:320,1,107.999993843079,2|0,0:0|0:0,0:0:0:0:
432,176,72961,1,2,0:0:0:0:
320,128,73215,1,0,0:0:0:0:
464,176,73469,2,0,L|448:304,1,107.999993843079,2|0,0:0|0:0,0:0:0:0:
128,288,73978,6,0,P|32:224|32:128,1,215.999987686158,6|0,0:0|0:0,0:0:0:0:
144,160,74741,1,0,0:0:0:0:
272,208,74995,2,0,P|320:320|240:320,1,215.999987686158,2|0,0:0|0:0,0:0:0:0:
144,288,75757,1,0,0:0:0:0:
384,256,76012,5,6,0:0:0:0:
464,144,76266,1,0,0:0:0:0:
448,48,76520,1,2,0:0:0:0:
352,272,76774,1,0,0:0:0:0:
108,208,77028,2,0,P|40:142|55:18,1,215.999987686158,2|0,0:0|0:0,0:0:0:0:
177,111,77791,1,0,0:0:0:0:
496,240,78046,6,0,L|506:125,1,107.999993843079,6|0,0:0|0:0,0:0:0:0:
387,169,78554,1,0,0:0:0:0:
268,311,78808,2,0,L|252:199,1,107.999993843079,2|0,0:0|0:0,0:0:0:0:
372,153,79317,1,0,0:0:0:0:
178,108,79571,5,2,0:0:0:0:
425,262,79825,2,0,L|203:198,1,215.999987686158,2|0,0:0|0:0,0:0:0:0:
402,326,80588,1,2,0:0:0:0:
80,256,80842,2,0,P|32:144|112:128,1,215.999987686158,6|0,0:0|0:0,0:0:0:0:
224,176,81605,2,0,L|93:177,1,107.999993843079
468,308,82113,5,4,0:0:0:0:
256,192,82368,12,4,86944,0:0:0:0:
