osu file format v14

[General]
AudioFilename: audio.mp3
AudioLeadIn: 0
PreviewTime: 48558
Countdown: 0
SampleSet: Soft
StackLeniency: 0.7
Mode: 2
LetterboxInBreaks: 0
WidescreenStoryboard: 1

[Editor]
Bookmarks: 82372,86948
DistanceSpacing: 1.3
BeatDivisor: 4
GridSize: 16
TimelineZoom: 1.7

[Metadata]
Title:Hello Alone -Yui Ballade- (TV Size)
TitleUnicode:Hello Alone -Yui Ballade- (TV Size)
Artist:Yuigahama Yui (CV: Touyama Nao)
ArtistUnicode:由比ヶ浜結衣 (CV: 東山奈央)
Creator:-Hex-
Version:Dapu's Salad
Source:やはり俺の青春ラブコメはまちがっている。
Tags:Yahari Ore no Seishun Love Comedy wa Machigatteiru. oregairu my teen romantic comedy snafu 藤林 聖子 Shoko Fujibayashi 黒須 克彦 Katsuhiko Kurosu 安瀬聖 Hijiri Anze Daletto -Nitrous Dapuluous Skycreeper-
BeatmapID:1774876
BeatmapSetID:844876

[Difficulty]
HPDrainRate:4
CircleSize:2.9
OverallDifficulty:6.6
ApproachRate:6.6
SliderMultiplier:2.99999990463257
SliderTickRate:4

[Events]
//Background and Video events
0,0,"BG.jpg",0,0
//Break Periods
//Storyboard Layer 0 (Background)
//Storyboard Layer 1 (Fail)
//Storyboard Layer 2 (Pass)
//Storyboard Layer 3 (Foreground)
//Storyboard Sound Samples

[TimingPoints]
758,1016.94915254237,4,2,1,35,1,0
8385,882.352941176471,4,2,1,35,1,0
8605,500,4,2,1,35,1,0
8893,1016.94915254237,4,2,1,35,1,0
48808,-100,4,2,1,35,0,0
49570,-83.3333333333333,4,2,1,45,0,1
65079,-100,4,2,1,45,0,0
65842,-83.3333333333333,4,2,1,45,0,1
82113,-100,4,2,1,35,0,0
83130,-100,4,2,1,25,0,0
84655,-100,4,2,1,15,0,0
86181,-100,4,2,1,5,0,0

[Colours]
Combo1 : 167,159,138
Combo2 : 217,142,111
Combo3 : 133,191,193
Combo4 : 239,213,164

[HitObjects]
384,336,758,6,0,P|416:256|320:176,1,224.999992847443,6|2,0:0|0:0,0:0:0:0:
192,128,1774,1,0,0:0:0:0:
128,192,2029,1,0,0:0:0:0:
128,272,2283,1,0,0:0:0:0:
192,336,2537,1,0,0:0:0:0:
320,80,2791,2,0,P|400:80|368:208,1,224.999992847443,2|2,0:0|0:0,0:0:0:0:
448,48,4825,6,0,P|352:48|240:144,1,224.999992847443,6|0,0:0|0:0,0:0:0:0:
96,224,5842,2,0,L|176:224,1,74.9999976158143,2|0,0:0|0:0,0:0:0:0:
288,144,6351,2,0,L|208:144,1,74.9999976158143,0|0,0:0|0:0,0:0:0:0:
320,144,6859,2,0,P|368:192|304:240,1,149.999995231629,2|0,0:0|0:0,0:0:0:0:
192,64,7622,6,0,B|112:64|112:64|208:64,1,149.999995231629,2|0,0:0|0:0,0:0:0:0:
272,192,8385,2,0,L|352:192,1,74.9999976158143,0|0,0:0|0:0,0:0:0:0:
112,320,8893,6,0,P|128:240|192:192,1,149.999995231629,2|0,0:0|0:0,0:0:0:0:
320,192,9656,2,0,P|400:256|384:304,1,149.999995231629,2|0,0:0|0:0,0:0:0:0:
256,336,10419,2,0,L|160:336,1,74.9999976158143,0|0,0:0|0:0,0:0:0:0:
320,112,10926,6,0,L|480:112,1,149.999995231629,2|0,0:0|0:0,0:0:0:0:
240,192,11944,1,2,0:0:0:0:
464,192,12452,1,0,0:0:0:0:
80,48,12961,6,0,P|48:128|96:160,1,149.999995231629,6|0,0:0|0:0,0:0:0:0:
224,320,13724,2,0,P|304:320|352:256,1,149.999995231629,2|0,0:0|0:0,0:0:0:0:
240,64,14486,2,0,L|165:64,1,74.9999976158143,0|0,0:0|0:0,0:0:0:0:
384,64,14995,6,0,P|432:128|384:176,1,149.999995231629,2|0,0:0|0:0,0:0:0:0:
272,160,15757,2,0,P|192:160|176:224,1,149.999995231629,2|0,0:0|0:0,0:0:0:0:
304,272,16520,2,0,L|400:272,1,74.9999976158143,0|0,0:0|0:0,0:0:0:0:
144,288,17028,6,0,P|80:240|112:176,1,149.999995231629,2|0,0:0|0:0,0:0:0:0:
240,112,17791,2,0,P|240:192|160:192,1,149.999995231629,2|0,0:0|0:0,0:0:0:0:
288,192,18554,2,0,L|384:192,1,74.9999976158143,0|0,0:0|0:0,0:0:0:0:
144,320,19063,6,0,P|64:272|144:176,1,224.999992847443,2|2,0:0|0:0,0:0:0:0:
327,191,20334,2,0,P|390:164|371:89,1,149.999995231629,0|0,0:0|0:0,0:0:0:0:
144,304,21096,6,0,P|96:240|208:160,1,224.999992847443,6|2,0:0|0:0,0:0:0:0:
48,192,22368,1,0,0:0:0:0:
176,192,22622,2,0,L|256:192,1,74.9999976158143,0|0,0:0|0:0,0:0:0:0:
32,32,23130,6,0,P|48:128|128:128,1,149.999995231629,2|0,0:0|0:0,0:0:0:0:
224,80,23893,2,0,P|320:80|384:144,1,149.999995231629,2|0,0:0|0:0,0:0:0:0:
240,192,24656,2,0,L|160:192,1,74.9999976158143,2|0,0:0|0:0,0:0:0:0:
384,256,25164,6,0,P|416:192|352:176,1,149.999995231629,6|0,0:0|0:0,0:0:0:0:
272,64,25927,2,0,P|192:96|240:160,1,149.999995231629,2|0,0:0|0:0,0:0:0:0:
320,176,26690,2,0,L|416:176,1,74.9999976158143,0|0,0:0|0:0,0:0:0:0:
176,288,27198,6,0,P|112:192|176:128,1,224.999992847443,2|0,0:0|0:0,0:0:0:0:
320,48,28215,1,2,0:0:0:0:
375,97,28469,1,0,0:0:0:0:
381,170,28724,1,2,0:0:0:0:
336,227,28978,1,0,0:0:0:0:
112,272,29231,6,0,P|64:208|128:160,1,149.999995231629,6|0,0:0|0:0,0:0:0:0:
224,320,29995,2,0,P|320:336|384:304,1,149.999995231629,2|0,0:0|0:0,0:0:0:0:
272,224,30757,2,0,L|160:224,1,74.9999976158143,2|0,0:0|0:0,0:0:0:0:
416,304,31266,6,0,P|480:240|416:176,1,149.999995231629,2|2,0:0|0:0,0:0:0:0:
352,176,32029,2,0,P|240:160|160:208,1,149.999995231629,0|0,0:0|0:0,0:0:0:0:
336,256,32791,2,0,L|336:336,1,74.9999976158143,2|0,0:0|0:0,0:0:0:0:
96,32,33300,6,0,P|48:96|144:128,1,149.999995231629,6|0,0:0|0:0,0:0:0:0:
208,256,34063,2,0,P|112:256|80:304,1,149.999995231629,0|0,0:0|0:0,0:0:0:0:
208,336,34825,2,0,L|283:336,1,74.9999976158143,2|0,0:0|0:0,0:0:0:0:
48,32,35334,6,0,P|80:128|224:144,1,224.999992847443,2|2,0:0|0:0,0:0:0:0:
272,48,36859,2,0,L|192:48,1,74.9999976158143,2|0,0:0|0:0,0:0:0:0:
416,144,37367,6,0,P|448:224|368:256,1,149.999995231629,2|2,0:0|0:0,0:0:0:0:
176,336,38385,1,2,0:0:0:0:
368,80,38893,1,0,0:0:0:0:
240,80,39147,2,0,B|144:80|144:80|224:80,1,149.999995231629,0|0,0:0|0:0,0:0:0:0:
320,192,39910,2,0,P|224:224|192:304,1,149.999995231629,2|2,0:0|0:0,0:0:0:0:
272,80,41181,1,0,0:0:0:0:
128,80,41435,6,0,B|48:80|48:80|144:80,1,149.999995231629,2|0,0:0|0:0,0:0:0:0:
256,192,42198,2,0,P|224:272|160:272,1,149.999995231629,2|0,0:0|0:0,0:0:0:0:
80,192,42960,1,0,0:0:0:0:
304,320,43469,6,0,B|384:320|384:320|224:320,1,224.999992847443,2|2,0:0|0:0,0:0:0:0:
128,192,44486,2,0,P|48:160|32:96,1,149.999995231629,0|2,0:0|0:0,0:0:0:0:
400,192,45503,6,0,P|400:272|336:320,1,149.999995231629,6|0,0:0|0:0,0:0:0:0:
240,192,46266,2,0,P|320:240|400:192,1,149.999995231629,2|0,0:0|0:0,0:0:0:0:
272,192,47029,2,0,L|197:192,1,74.9999976158143,0|2,0:0|0:0,0:0:0:0:
416,64,47537,6,0,P|432:144|304:192,1,224.999992847443
480,64,48808,2,0,P|432:160|384:160,1,149.999995231629
160,48,49571,6,0,P|112:128|160:192,1,179.99998878479,6|0,0:0|0:0,0:0:0:0:
416,176,50587,2,0,P|464:256|416:320,1,179.99998878479,2|0,0:0|0:0,0:0:0:0:
80,192,51605,2,0,P|48:304|128:304,1,179.99998878479,6|0,0:0|0:0,0:0:0:0:
192,192,52367,1,2,0:0:0:0:
320,160,52876,2,0,P|368:240|272:288,1,179.99998878479,0|0,0:0|0:0,0:0:0:0:
64,112,53638,6,0,P|160:208|240:192,1,179.99998878479,6|0,0:0|0:0,0:0:0:0:
32,192,54656,2,0,P|64:272|160:304,1,179.99998878479,2|0,0:0|0:0,0:0:0:0:
416,96,55419,2,0,P|432:144|304:320,1,269.999983177186,6|2,0:0|0:0,0:0:0:0:
192,304,56435,2,0,P|336:304|384:192,1,269.999983177186,0|2,0:0|0:0,0:0:0:0:
144,96,57707,5,6,0:0:0:0:
352,96,58215,1,0,0:0:0:0:
128,96,58724,2,0,P|128:208|192:208,1,179.99998878479,2|0,0:0|0:0,0:0:0:0:
320,208,59486,1,0,0:0:0:0:
96,304,59995,5,0,0:0:0:0:
224,304,60249,2,0,P|336:304|400:256,1,179.99998878479,2|2,0:0|0:0,0:0:0:0:
192,192,61266,1,0,0:0:0:0:
432,192,61774,5,6,0:0:0:0:
320,112,62029,2,0,L|208:112,1,89.9999943923952,0|0,0:0|0:0,0:0:0:0:
112,112,62537,1,2,0:0:0:0:
432,192,63300,2,0,L|336:112,1,89.9999943923952,2|0,0:0|0:0,0:0:0:0:
96,144,63808,6,0,P|96:240|192:272,1,179.99998878479,6|0,0:0|0:0,0:0:0:0:
304,304,64571,1,6,0:0:0:0:
96,48,65080,1,0,0:0:0:0:
16,96,65334,1,2,0:0:0:0:
96,160,65588,1,0,0:0:0:0:
336,48,65842,6,0,P|416:128|352:176,1,179.99998878479,6|0,0:0|0:0,0:0:0:0:
112,192,66859,2,0,P|48:256|112:336,1,179.99998878479,2|0,0:0|0:0,0:0:0:0:
432,192,67877,2,0,P|464:304|384:304,1,179.99998878479,6|0,0:0|0:0,0:0:0:0:
320,192,68639,1,2,0:0:0:0:
192,192,69147,2,0,P|144:272|240:320,1,179.99998878479,2|0,0:0|0:0,0:0:0:0:
448,112,69910,6,0,P|352:208|272:192,1,179.99998878479,6|0,0:0|0:0,0:0:0:0:
480,192,70927,2,0,P|448:272|352:304,1,179.99998878479,2|0,0:0|0:0,0:0:0:0:
96,96,71690,2,0,P|80:144|208:320,1,269.999983177186,6|2,0:0|0:0,0:0:0:0:
320,304,72707,2,0,P|176:304|128:192,1,269.999983177186,0|2,0:0|0:0,0:0:0:0:
368,96,73978,5,6,0:0:0:0:
160,96,74486,1,0,0:0:0:0:
384,96,74995,2,0,P|384:208|320:208,1,179.99998878479,2|0,0:0|0:0,0:0:0:0:
192,208,75757,1,0,0:0:0:0:
416,304,76265,5,0,0:0:0:0:
288,304,76520,2,0,P|176:304|112:256,1,179.99998878479,2|2,0:0|0:0,0:0:0:0:
320,192,77537,1,0,0:0:0:0:
80,192,78046,5,6,0:0:0:0:
192,112,78300,2,0,L|304:112,1,89.9999943923952,0|0,0:0|0:0,0:0:0:0:
400,112,78808,1,2,0:0:0:0:
192,192,79317,2,0,L|80:192,2,89.9999943923952,0|2|2,0:0|0:0|0:0,0:0:0:0:
432,192,80080,6,0,P|480:288|416:336,1,179.99998878479,4|2,0:0|0:0,0:0:0:0:
192,192,80842,2,0,P|192:64|240:64,1,179.99998878479,6|0,0:0|0:0,0:0:0:0:
336,64,81605,2,0,L|336:160,1,89.9999943923952
112,192,82113,5,4,0:0:0:0:
256,192,82368,8,4,86944,0:0:0:0:
