osu file format v14

[General]
AudioFilename: audio.mp3
AudioLeadIn: 0
PreviewTime: -1
Countdown: 0
SampleSet: None
StackLeniency: 0.7
Mode: 0
LetterboxInBreaks: 0
SkinPreference:Minimal+Weeb+-+Noel+v1.3
WidescreenStoryboard: 0

[Editor]
DistanceSpacing: 1
BeatDivisor: 4
GridSize: 32
TimelineZoom: 1

[Metadata]
Title:tondari-hanetari
TitleUnicode:tondari-hanetari
Artist:Yuichi Tsuchiya
ArtistUnicode:Yuichi Tsuchiya
Creator:Umaru PChan
Version:
Source:
Tags:
BeatmapID:1870996
BeatmapSetID:895445

[Difficulty]
HPDrainRate:5
CircleSize:5
OverallDifficulty:5
ApproachRate:10
SliderMultiplier:0.400000005960464
SliderTickRate:4

[Events]
//Background and Video events
0,0,"698780_screenshots_20171216121325_1.jpg",0,0
//Break Periods
2,39123,44640
2,121957,125140
//Storyboard Layer 0 (Background)
//Storyboard Layer 1 (Fail)
//Storyboard Layer 2 (Pass)
//Storyboard Layer 3 (Foreground)
//Storyboard Sound Samples

[TimingPoints]
0,333.333333333333,4,1,0,100,1,0
10984,120,4,1,0,100,1,0
12424,333.333333333333,4,1,0,100,1,0

[HitObjects]
256,32,11014,6,0,B|192:96|192:96|288:96|288:96|192:160|192:160|288:160|288:160,1,390.000005811453
316,271,12394,1,0,0:0:0:0:
316,271,12590,1,0,0:0:0:0:
128,256,13007,1,0,0:0:0:0:
128,256,13174,1,0,0:0:0:0:
96,96,13757,1,0,0:0:0:0:
96,96,13924,1,0,0:0:0:0:
256,192,15257,1,0,0:0:0:0:
256,192,15424,1,0,0:0:0:0:
160,96,15840,1,0,0:0:0:0:
160,96,16007,1,0,0:0:0:0:
160,96,16590,1,0,0:0:0:0:
160,96,16757,1,0,0:0:0:0:
384,64,17840,1,0,0:0:0:0:
320,64,18507,1,0,0:0:0:0:
256,64,19173,1,0,0:0:0:0:
192,64,19507,1,0,0:0:0:0:
128,64,19840,1,0,0:0:0:0:
128,128,20590,1,0,0:0:0:0:
128,192,21257,1,0,0:0:0:0:
128,224,21923,1,0,0:0:0:0:
160,256,22257,1,0,0:0:0:0:
192,288,22590,1,0,0:0:0:0:
320,224,23257,1,0,0:0:0:0:
288,160,23757,1,0,0:0:0:0:
256,160,24007,1,0,0:0:0:0:
160,128,24507,1,0,0:0:0:0:
192,128,24673,1,0,0:0:0:0:
288,96,25257,1,0,0:0:0:0:
320,128,25340,1,0,0:0:0:0:
352,192,26007,1,0,0:0:0:0:
256,256,26673,1,0,0:0:0:0:
160,256,27340,1,0,0:0:0:0:
96,160,27673,1,0,0:0:0:0:
224,128,28007,1,0,0:0:0:0:
320,96,28340,1,0,0:0:0:0:
352,96,28673,1,0,0:0:0:0:
160,160,29423,5,0,0:0:0:0:
288,96,30090,1,0,0:0:0:0:
320,96,30423,1,0,0:0:0:0:
352,160,30757,1,0,0:0:0:0:
320,224,31423,1,0,0:0:0:0:
256,256,32090,1,0,0:0:0:0:
160,192,32757,1,0,0:0:0:0:
256,160,33173,1,0,0:0:0:0:
160,128,33423,1,0,0:0:0:0:
256,96,33757,1,0,0:0:0:0:
320,96,34090,1,0,0:0:0:0:
384,256,34757,1,0,0:0:0:0:
160,160,35507,1,0,0:0:0:0:
352,96,36173,1,0,0:0:0:0:
160,256,36840,1,0,0:0:0:0:
320,288,37257,1,0,0:0:0:0:
192,192,37590,1,0,0:0:0:0:
320,192,37923,1,0,0:0:0:0:
224,128,38257,1,0,0:0:0:0:
320,128,38590,1,0,0:0:0:0:
224,64,38923,1,0,0:0:0:0:
96,96,45090,5,0,0:0:0:0:
192,96,46423,1,0,0:0:0:0:
352,96,47173,1,0,0:0:0:0:
448,96,47840,1,0,0:0:0:0:
448,160,48507,1,0,0:0:0:0:
384,160,49173,1,0,0:0:0:0:
288,160,49840,1,0,0:0:0:0:
192,160,50507,1,0,0:0:0:0:
96,160,51173,1,0,0:0:0:0:
96,256,51840,1,0,0:0:0:0:
160,256,52173,1,0,0:0:0:0:
192,256,52507,1,0,0:0:0:0:
256,224,52923,1,0,0:0:0:0:
288,224,53257,1,0,0:0:0:0:
352,256,53923,1,0,0:0:0:0:
384,192,54590,1,0,0:0:0:0:
256,192,55257,1,0,0:0:0:0:
128,128,56007,1,0,0:0:0:0:
256,96,56590,1,0,0:0:0:0:
416,64,57340,1,0,0:0:0:0:
288,96,57673,1,0,0:0:0:0:
256,192,58007,1,0,0:0:0:0:
192,256,58340,1,0,0:0:0:0:
128,320,58673,1,0,0:0:0:0:
320,192,59340,5,0,0:0:0:0:
192,160,60007,1,0,0:0:0:0:
320,128,60423,1,0,0:0:0:0:
160,96,60757,1,0,0:0:0:0:
320,96,61090,1,0,0:0:0:0:
160,160,61423,1,0,0:0:0:0:
64,224,62090,1,0,0:0:0:0:
224,256,62757,1,0,0:0:0:0:
288,288,63090,1,0,0:0:0:0:
320,256,63507,1,0,0:0:0:0:
352,224,63840,1,0,0:0:0:0:
384,192,64090,1,0,0:0:0:0:
224,160,64840,1,0,0:0:0:0:
128,160,65173,1,0,0:0:0:0:
224,96,65507,1,0,0:0:0:0:
128,224,66257,5,0,0:0:0:0:
256,192,66923,1,0,0:0:0:0:
256,192,67007,1,0,0:0:0:0:
160,128,67590,1,0,0:0:0:0:
160,128,67673,1,0,0:0:0:0:
352,96,68340,1,0,0:0:0:0:
224,96,69007,1,0,0:0:0:0:
128,96,69673,1,0,0:0:0:0:
128,160,70340,1,0,0:0:0:0:
128,224,71007,1,0,0:0:0:0:
256,192,73757,1,0,0:0:0:0:
352,128,76090,1,0,0:0:0:0:
128,96,78423,1,0,0:0:0:0:
160,256,79090,1,0,0:0:0:0:
288,256,79757,1,0,0:0:0:0:
320,224,80590,1,0,0:0:0:0:
352,160,81840,1,0,0:0:0:0:
224,96,82590,1,0,0:0:0:0:
160,96,83257,1,0,0:0:0:0:
96,160,83923,1,0,0:0:0:0:
128,224,84590,1,0,0:0:0:0:
256,160,85257,1,0,0:0:0:0:
320,96,86007,1,0,0:0:0:0:
384,160,86673,1,0,0:0:0:0:
352,256,87340,1,0,0:0:0:0:
256,288,88007,1,0,0:0:0:0:
160,256,88673,1,0,0:0:0:0:
128,192,89340,1,0,0:0:0:0:
224,128,89923,1,0,0:0:0:0:
288,96,91257,1,0,0:0:0:0:
320,128,92090,1,0,0:0:0:0:
288,160,92757,1,0,0:0:0:0:
288,160,93507,1,0,0:0:0:0:
224,160,94173,1,0,0:0:0:0:
160,128,94840,1,0,0:0:0:0:
128,160,95257,1,0,0:0:0:0:
128,224,95840,1,0,0:0:0:0:
160,256,96507,1,0,0:0:0:0:
256,256,97174,1,0,0:0:0:0:
320,256,97590,1,0,0:0:0:0:
192,192,98340,5,0,0:0:0:0:
256,128,99173,1,0,0:0:0:0:
288,128,99340,1,0,0:0:0:0:
352,128,99507,1,0,0:0:0:0:
384,160,99590,1,0,0:0:0:0:
320,224,100507,1,0,0:0:0:0:
256,256,100673,1,0,0:0:0:0:
224,256,100840,1,0,0:0:0:0:
160,256,101007,1,0,0:0:0:0:
128,192,101673,1,0,0:0:0:0:
128,128,102423,1,0,0:0:0:0:
256,128,102673,1,0,0:0:0:0:
320,128,103090,1,0,0:0:0:0:
352,128,103423,1,0,0:0:0:0:
352,192,103757,1,0,0:0:0:0:
320,192,104090,1,0,0:0:0:0:
288,224,104423,1,0,0:0:0:0:
224,256,104757,1,0,0:0:0:0:
160,256,105090,1,0,0:0:0:0:
128,192,105757,1,0,0:0:0:0:
192,128,106423,1,0,0:0:0:0:
288,128,107090,1,0,0:0:0:0:
352,192,107757,1,0,0:0:0:0:
352,224,108090,1,0,0:0:0:0:
288,256,108423,1,0,0:0:0:0:
224,256,108757,1,0,0:0:0:0:
160,288,109090,1,0,0:0:0:0:
128,160,109757,1,0,0:0:0:0:
192,160,110173,1,0,0:0:0:0:
224,128,110507,1,0,0:0:0:0:
256,128,110840,1,0,0:0:0:0:
320,96,111257,1,0,0:0:0:0:
384,96,111590,1,0,0:0:0:0:
384,160,111840,1,0,0:0:0:0:
352,224,112507,1,0,0:0:0:0:
256,256,113173,1,0,0:0:0:0:
192,224,113507,1,0,0:0:0:0:
192,192,113840,1,0,0:0:0:0:
160,160,114173,1,0,0:0:0:0:
128,128,114507,1,0,0:0:0:0:
256,96,115173,1,0,0:0:0:0:
320,96,115923,1,0,0:0:0:0:
352,128,116257,1,0,0:0:0:0:
352,160,116590,1,0,0:0:0:0:
384,192,116923,1,0,0:0:0:0:
384,224,117257,1,0,0:0:0:0:
256,256,118090,5,0,0:0:0:0:
256,256,118257,1,0,0:0:0:0:
224,192,118673,1,0,0:0:0:0:
224,192,118840,1,0,0:0:0:0:
320,128,119340,1,0,0:0:0:0:
320,128,119507,1,0,0:0:0:0:
384,192,120173,1,0,0:0:0:0:
320,256,120923,1,0,0:0:0:0:
192,192,121757,1,0,0:0:0:0:
224,32,125590,6,0,B|128:32|128:32|128:96|128:96|224:96|224:96|224:160|224:160|128:160|128:160|128:224|128:224|224:224|224:224|224:288|224:288|128:288|128:288|128:352|128:352|416:352|416:352|416:288|416:288|320:288|320:288|320:224|320:224|416:224|416:224|416:160|416:160|320:160|320:160|320:96|320:96|416:96|416:96|416:32|416:32|320:32|320:32,1,1880.00002801418
