osu file format v14

[General]
AudioFilename: fuyuuso_op.mp3
AudioLeadIn: 0
PreviewTime: -1
Countdown: 0
SampleSet: Normal
StackLeniency: 0.7
Mode: 1
LetterboxInBreaks: 0
WidescreenStoryboard: 0

[Editor]
DistanceSpacing: 0.8
BeatDivisor: 4
GridSize: 32
TimelineZoom: 1

[Metadata]
Title:Snow World End
TitleUnicode:Snow World End
Artist:Yui Sakakibara
ArtistUnicode:榊原ゆい
Creator:Kin
Version:Oni
Source:フユウソ -Snow World End-
Tags:Fuyu Uso Campus Ayumi. Ayumi Orikura Toshinori 折倉俊則 from STRIKERS
BeatmapID:1425466
BeatmapSetID:673567

[Difficulty]
HPDrainRate:5
CircleSize:2
OverallDifficulty:5
ApproachRate:5
SliderMultiplier:1.4
SliderTickRate:1

[Events]
//Background and Video events
0,0,"O.jpg",0,18
//Break Periods
//Storyboard Layer 0 (Background)
//Storyboard Layer 1 (Fail)
//Storyboard Layer 2 (Pass)
//Storyboard Layer 3 (Foreground)
//Storyboard Sound Samples

[TimingPoints]
1810,461.538461538462,4,1,0,70,1,0
14733,-133.333333333333,4,1,0,50,0,0
31348,-100,4,1,0,60,0,0
44963,-89.2857142857143,4,1,0,60,0,0
45194,-80.6451612903226,4,1,0,60,0,0
45425,-73.5294117647059,4,1,0,60,0,0
45656,-67.5675675675676,4,1,0,60,0,0
45886,-62.5,4,1,0,60,0,0
46694,-66.0376797793285,4,1,0,60,0,0
47040,-69.9998740002268,4,1,0,60,0,0
47386,-74.4678712093061,4,1,0,60,0,0
47733,-79.5451291335626,4,1,0,60,0,0
47963,-83.3333333333333,4,1,0,70,0,1
83502,-85.3648022140215,4,1,0,70,0,1
83733,-87.4977906807853,4,1,0,70,0,1
83963,-89.7401036857158,4,1,0,70,0,1
84194,-92.1003672962648,4,1,0,70,0,1
84425,-94.5881395931764,4,1,0,70,0,1
84656,-97.2140400405188,4,1,0,70,0,1
84886,-100,4,1,0,70,0,0
97810,468.201326570425,4,1,0,50,1,0

[HitObjects]
256,192,656,5,8,0:0:0:0:
256,192,1117,1,8,0:0:0:0:
256,192,1348,1,0,0:0:0:0:
256,192,1579,1,0,0:0:0:0:
256,192,1810,1,4,0:0:0:0:
256,192,2156,1,0,0:0:0:0:
256,192,2271,1,8,0:0:0:0:
256,192,2502,1,0,0:0:0:0:
256,192,2617,1,0,0:0:0:0:
256,192,2733,1,8,0:0:0:0:
256,192,2848,1,8,0:0:0:0:
256,192,2963,1,0,0:0:0:0:
256,192,3194,1,8,0:0:0:0:
256,192,3425,1,8,0:0:0:0:
256,192,3656,1,0,0:0:0:0:
256,192,3886,1,0,0:0:0:0:
256,192,4002,1,0,0:0:0:0:
256,192,4117,1,8,0:0:0:0:
256,192,4233,1,0,0:0:0:0:
256,192,4348,1,8,0:0:0:0:
256,192,4579,1,0,0:0:0:0:
256,192,4810,1,0,0:0:0:0:
256,192,4925,1,8,0:0:0:0:
256,192,5040,1,0,0:0:0:0:
256,192,5271,1,8,0:0:0:0:
256,192,5502,1,0,0:0:0:0:
256,192,5963,1,8,0:0:0:0:
256,192,6194,1,0,0:0:0:0:
256,192,6310,1,0,0:0:0:0:
256,192,6425,1,0,0:0:0:0:
256,192,6656,1,8,0:0:0:0:
256,192,6886,1,8,0:0:0:0:
256,192,7117,1,0,0:0:0:0:
256,192,7348,1,8,0:0:0:0:
256,192,7579,1,0,0:0:0:0:
256,192,7694,1,0,0:0:0:0:
256,192,7810,1,8,0:0:0:0:
256,192,8040,1,8,0:0:0:0:
256,192,8271,1,0,0:0:0:0:
256,192,8386,1,8,0:0:0:0:
256,192,8502,1,0,0:0:0:0:
256,192,8617,1,0,0:0:0:0:
256,192,8733,1,8,0:0:0:0:
256,192,8963,1,0,0:0:0:0:
256,192,9194,1,14,0:0:0:0:
256,192,9656,1,8,0:0:0:0:
256,192,9886,1,0,0:0:0:0:
256,192,10117,1,0,0:0:0:0:
256,192,10233,1,0,0:0:0:0:
256,192,10348,1,8,0:0:0:0:
256,192,10579,1,8,0:0:0:0:
256,192,10810,1,0,0:0:0:0:
256,192,11040,1,8,0:0:0:0:
256,192,11156,1,8,0:0:0:0:
256,192,11271,1,8,0:0:0:0:
256,192,11386,1,8,0:0:0:0:
256,192,11502,1,0,0:0:0:0:
256,192,11617,1,0,0:0:0:0:
256,192,11733,1,8,0:0:0:0:
256,192,11848,1,0,0:0:0:0:
256,192,11963,1,8,0:0:0:0:
256,192,12194,1,0,0:0:0:0:
256,192,12425,1,8,0:0:0:0:
256,192,12540,1,8,0:0:0:0:
256,192,12656,1,0,0:0:0:0:
256,192,12886,1,4,0:0:0:0:
256,192,13348,1,8,0:0:0:0:
256,192,13579,1,4,0:0:0:0:
256,192,14733,1,8,0:0:0:0:
256,192,15079,1,8,0:0:0:0:
256,192,15425,1,0,0:0:0:0:
256,192,15656,1,0,0:0:0:0:
256,192,16002,1,8,0:0:0:0:
256,192,16348,1,8,0:0:0:0:
256,192,16579,1,0,0:0:0:0:
256,192,16925,1,8,0:0:0:0:
256,192,17271,1,0,0:0:0:0:
256,192,17502,1,0,0:0:0:0:
256,192,17848,1,8,0:0:0:0:
256,192,18194,1,8,0:0:0:0:
256,192,18310,1,8,0:0:0:0:
256,192,18425,1,0,0:0:0:0:
256,192,18771,1,0,0:0:0:0:
256,192,19117,1,0,0:0:0:0:
256,192,19348,1,8,0:0:0:0:
256,192,19694,1,0,0:0:0:0:
256,192,20040,1,8,0:0:0:0:
256,192,20271,1,0,0:0:0:0:
256,192,20617,1,8,0:0:0:0:
256,192,20963,1,0,0:0:0:0:
256,192,21194,1,8,0:0:0:0:
256,192,21540,1,0,0:0:0:0:
256,192,21886,1,8,0:0:0:0:
256,192,22002,1,8,0:0:0:0:
256,192,22117,1,0,0:0:0:0:
256,192,22463,1,0,0:0:0:0:
256,192,22810,1,8,0:0:0:0:
256,192,23040,1,0,0:0:0:0:
256,192,23386,1,0,0:0:0:0:
256,192,23502,1,8,0:0:0:0:
256,192,23733,1,8,0:0:0:0:
256,192,23848,1,8,0:0:0:0:
256,192,23963,1,0,0:0:0:0:
256,192,24310,1,8,0:0:0:0:
256,192,24656,1,8,0:0:0:0:
256,192,24886,1,0,0:0:0:0:
256,192,25233,1,8,0:0:0:0:
256,192,25579,1,8,0:0:0:0:
256,192,25694,1,8,0:0:0:0:
256,192,25810,1,0,0:0:0:0:
256,192,26156,1,0,0:0:0:0:
256,192,26502,1,0,0:0:0:0:
256,192,27194,1,8,0:0:0:0:
256,192,27310,1,8,0:0:0:0:
256,192,27425,1,8,0:0:0:0:
256,192,27656,1,0,0:0:0:0:
256,192,27886,1,8,0:0:0:0:
256,192,28117,1,8,0:0:0:0:
256,192,28348,1,0,0:0:0:0:
256,192,29040,1,0,0:0:0:0:
256,192,29271,1,8,0:0:0:0:
256,192,29386,1,8,0:0:0:0:
256,192,29502,1,0,0:0:0:0:
256,192,29848,1,0,0:0:0:0:
256,192,30194,1,8,0:0:0:0:
256,192,30656,1,8,0:0:0:0:
256,192,30733,1,8,0:0:0:0:
256,192,30810,1,8,0:0:0:0:
256,192,30886,1,8,0:0:0:0:
256,192,31117,1,0,0:0:0:0:
256,192,31348,1,4,0:0:0:0:
256,192,31579,1,4,0:0:0:0:
256,192,31810,1,8,0:0:0:0:
256,192,32156,1,0,0:0:0:0:
256,192,32271,1,8,0:0:0:0:
256,192,32502,1,0,0:0:0:0:
256,192,32733,1,8,0:0:0:0:
256,192,32963,1,4,0:0:0:0:
256,192,33425,1,0,0:0:0:0:
256,192,33656,1,8,0:0:0:0:
256,192,33886,1,4,0:0:0:0:
256,192,34348,1,0,0:0:0:0:
256,192,34579,1,8,0:0:0:0:
256,192,34694,1,8,0:0:0:0:
256,192,34810,1,0,0:0:0:0:
256,192,35040,1,4,0:0:0:0:
256,192,35271,1,4,0:0:0:0:
256,192,35502,1,8,0:0:0:0:
256,192,35848,1,8,0:0:0:0:
256,192,35963,1,8,0:0:0:0:
256,192,36194,1,0,0:0:0:0:
256,192,36425,1,8,0:0:0:0:
256,192,36656,1,4,0:0:0:0:
256,192,37117,1,0,0:0:0:0:
256,192,37348,1,8,0:0:0:0:
256,192,37579,1,4,0:0:0:0:
256,192,38040,1,0,0:0:0:0:
256,192,38271,1,0,0:0:0:0:
256,192,38502,1,0,0:0:0:0:
192,192,38733,1,0,0:0:0:0:
256,192,38963,1,0,0:0:0:0:
224,192,39194,1,8,0:0:0:0:
256,192,39540,1,0,0:0:0:0:
256,192,39656,1,8,0:0:0:0:
256,192,39886,1,0,0:0:0:0:
256,192,40117,1,8,0:0:0:0:
256,192,40348,1,8,0:0:0:0:
256,192,40579,1,0,0:0:0:0:
256,192,41040,1,8,0:0:0:0:
256,192,41386,1,0,0:0:0:0:
256,192,41502,1,0,0:0:0:0:
256,192,41733,1,0,0:0:0:0:
256,192,41963,1,8,0:0:0:0:
256,192,42194,1,8,0:0:0:0:
256,192,42425,1,4,0:0:0:0:
256,192,42886,1,8,0:0:0:0:
256,192,43117,1,0,0:0:0:0:
256,192,43233,1,0,0:0:0:0:
256,192,43348,1,8,0:0:0:0:
256,192,43579,1,0,0:0:0:0:
256,192,43694,1,0,0:0:0:0:
256,192,43810,1,8,0:0:0:0:
256,192,44040,1,4,0:0:0:0:
256,192,44271,1,8,0:0:0:0:
256,192,44348,1,8,0:0:0:0:
256,192,44425,1,8,0:0:0:0:
256,192,44502,1,0,0:0:0:0:
256,192,44733,1,8,0:0:0:0:
256,192,44963,1,4,0:0:0:0:
256,192,45194,1,4,0:0:0:0:
256,192,45425,1,4,0:0:0:0:
256,192,45656,1,4,0:0:0:0:
256,192,45886,1,14,0:0:0:0:
256,192,46348,1,4,0:0:0:0:
256,192,46694,1,14,0:0:0:0:
256,192,47040,1,4,0:0:0:0:
256,192,47386,1,14,0:0:0:0:
256,192,47733,1,14,0:0:0:0:
256,192,47963,1,4,0:0:0:0:
256,192,48425,1,8,0:0:0:0:
256,192,48656,1,0,0:0:0:0:
256,192,48886,1,8,0:0:0:0:
256,192,49002,1,8,0:0:0:0:
256,192,49117,1,0,0:0:0:0:
256,192,49233,1,0,0:0:0:0:
256,192,49348,1,8,0:0:0:0:
256,192,49579,1,0,0:0:0:0:
256,192,49810,1,8,0:0:0:0:
256,192,50040,1,0,0:0:0:0:
256,192,50156,1,0,0:0:0:0:
256,192,50271,1,8,0:0:0:0:
256,192,50502,1,8,0:0:0:0:
256,192,50733,1,0,0:0:0:0:
256,192,50848,1,0,0:0:0:0:
256,192,50963,1,0,0:0:0:0:
256,192,51194,1,8,0:0:0:0:
256,192,51425,1,8,0:0:0:0:
256,192,51540,1,8,0:0:0:0:
256,192,51656,1,0,0:0:0:0:
256,192,51886,1,0,0:0:0:0:
256,192,52117,1,8,0:0:0:0:
256,192,52348,1,8,0:0:0:0:
256,192,52579,1,0,0:0:0:0:
256,192,52810,1,8,0:0:0:0:
256,192,52925,1,8,0:0:0:0:
256,192,53040,1,0,0:0:0:0:
256,192,53156,1,0,0:0:0:0:
256,192,53271,1,8,0:0:0:0:
256,192,53502,1,0,0:0:0:0:
256,192,53963,1,8,0:0:0:0:
256,192,54194,1,8,0:0:0:0:
256,192,54425,1,0,0:0:0:0:
256,192,54540,1,0,0:0:0:0:
256,192,54656,1,0,0:0:0:0:
256,192,54886,1,14,0:0:0:0:
256,192,55348,1,4,0:0:0:0:
256,192,55694,1,0,0:0:0:0:
256,192,55810,1,8,0:0:0:0:
256,192,56040,1,0,0:0:0:0:
256,192,56271,1,8,0:0:0:0:
256,192,56386,1,0,0:0:0:0:
256,192,56502,1,0,0:0:0:0:
256,192,56617,1,8,0:0:0:0:
256,192,56733,1,0,0:0:0:0:
256,192,56963,1,8,0:0:0:0:
256,192,57194,1,0,0:0:0:0:
256,192,57425,1,0,0:0:0:0:
256,192,57540,1,0,0:0:0:0:
256,192,57656,1,0,0:0:0:0:
256,192,57886,1,8,0:0:0:0:
256,192,58117,1,8,0:0:0:0:
256,192,58348,1,0,0:0:0:0:
256,192,58463,1,0,0:0:0:0:
256,192,58579,1,8,0:0:0:0:
256,192,58810,1,8,0:0:0:0:
256,192,59040,1,0,0:0:0:0:
256,192,59502,1,8,0:0:0:0:
256,192,59733,1,0,0:0:0:0:
256,192,59848,1,0,0:0:0:0:
256,192,59963,1,8,0:0:0:0:
256,192,60194,1,0,0:0:0:0:
256,192,60425,1,8,0:0:0:0:
256,192,60656,1,8,0:0:0:0:
256,192,60886,1,0,0:0:0:0:
256,192,61002,1,0,0:0:0:0:
256,192,61117,1,8,0:0:0:0:
256,192,61233,1,8,0:0:0:0:
256,192,61348,1,0,0:0:0:0:
256,192,61579,1,8,0:0:0:0:
256,192,61694,1,8,0:0:0:0:
256,192,61810,1,0,0:0:0:0:
256,192,62040,1,0,0:0:0:0:
256,192,62156,1,8,0:0:0:0:
256,192,62271,1,0,0:0:0:0:
256,192,62386,1,0,0:0:0:0:
256,192,62502,1,8,0:0:0:0:
256,192,62733,1,4,0:0:0:0:
256,192,63079,1,0,0:0:0:0:
256,192,63194,1,8,0:0:0:0:
256,192,63425,1,0,0:0:0:0:
256,192,63540,1,0,0:0:0:0:
256,192,63656,1,0,0:0:0:0:
256,192,63771,1,8,0:0:0:0:
256,192,63886,1,0,0:0:0:0:
256,192,64117,1,8,0:0:0:0:
256,192,64348,1,0,0:0:0:0:
256,192,64579,1,8,0:0:0:0:
256,192,64810,1,0,0:0:0:0:
256,192,64925,1,8,0:0:0:0:
256,192,65040,1,0,0:0:0:0:
256,192,65271,1,0,0:0:0:0:
256,192,65502,1,8,0:0:0:0:
256,192,65733,1,0,0:0:0:0:
256,192,65848,1,0,0:0:0:0:
256,192,65963,1,8,0:0:0:0:
256,192,66194,1,8,0:0:0:0:
256,192,66425,1,0,0:0:0:0:
256,192,66771,1,0,0:0:0:0:
256,192,66886,1,8,0:0:0:0:
256,192,67117,1,0,0:0:0:0:
256,192,67348,1,8,0:0:0:0:
256,192,67579,1,8,0:0:0:0:
256,192,67694,1,8,0:0:0:0:
256,192,67810,1,0,0:0:0:0:
256,192,68040,1,8,0:0:0:0:
256,192,68271,1,0,0:0:0:0:
256,192,68386,1,0,0:0:0:0:
256,192,68502,1,0,0:0:0:0:
256,192,68617,1,0,0:0:0:0:
256,192,68733,1,8,0:0:0:0:
256,192,68963,1,0,0:0:0:0:
256,192,69040,1,0,0:0:0:0:
256,192,69117,1,0,0:0:0:0:
256,192,69194,1,8,0:0:0:0:
256,192,69425,1,4,0:0:0:0:
256,192,69656,1,8,0:0:0:0:
256,192,69886,1,8,0:0:0:0:
256,192,70117,1,4,0:0:0:0:
256,192,70348,1,8,0:0:0:0:
256,192,70463,1,8,0:0:0:0:
256,192,70579,1,0,0:0:0:0:
256,192,70810,1,8,0:0:0:0:
256,192,71040,1,0,0:0:0:0:
256,192,71271,1,8,0:0:0:0:
256,192,71386,1,8,0:0:0:0:
256,192,71502,1,0,0:0:0:0:
256,192,71617,1,0,0:0:0:0:
256,192,71733,1,8,0:0:0:0:
256,192,71963,1,0,0:0:0:0:
256,192,72194,1,8,0:0:0:0:
256,192,72310,1,8,0:0:0:0:
256,192,72425,1,0,0:0:0:0:
256,192,72656,1,8,0:0:0:0:
256,192,72886,1,0,0:0:0:0:
256,192,73002,1,0,0:0:0:0:
256,192,73117,1,8,0:0:0:0:
256,192,73233,1,8,0:0:0:0:
256,192,73348,1,0,0:0:0:0:
256,192,73579,1,8,0:0:0:0:
256,192,73810,1,0,0:0:0:0:
256,192,74040,1,8,0:0:0:0:
256,192,74156,1,8,0:0:0:0:
256,192,74271,1,0,0:0:0:0:
256,192,74502,1,8,0:0:0:0:
256,192,74733,1,0,0:0:0:0:
256,192,74848,1,0,0:0:0:0:
256,192,74963,1,8,0:0:0:0:
256,192,75079,1,0,0:0:0:0:
256,192,75194,1,8,0:0:0:0:
256,192,75425,1,8,0:0:0:0:
256,192,75656,1,4,0:0:0:0:
256,192,76117,1,8,0:0:0:0:
256,192,76348,1,4,0:0:0:0:
256,192,76810,1,0,0:0:0:0:
256,192,77040,1,8,0:0:0:0:
256,192,77271,1,8,0:0:0:0:
256,192,77502,1,4,0:0:0:0:
256,192,77733,1,8,0:0:0:0:
256,192,77848,1,8,0:0:0:0:
256,192,77963,1,0,0:0:0:0:
256,192,78079,1,0,0:0:0:0:
256,192,78194,1,8,0:0:0:0:
256,192,78425,1,8,0:0:0:0:
256,192,78656,1,0,0:0:0:0:
256,192,78886,1,8,0:0:0:0:
256,192,79002,1,8,0:0:0:0:
256,192,79117,1,0,0:0:0:0:
256,192,79348,1,4,0:0:0:0:
256,192,79810,1,8,0:0:0:0:
256,192,79925,1,8,0:0:0:0:
256,192,80040,1,8,0:0:0:0:
256,192,80156,1,8,0:0:0:0:
256,192,80271,1,0,0:0:0:0:
256,192,80386,1,0,0:0:0:0:
256,192,80502,1,0,0:0:0:0:
256,192,80617,1,0,0:0:0:0:
256,192,80733,1,8,0:0:0:0:
256,192,80848,1,0,0:0:0:0:
256,192,80963,1,8,0:0:0:0:
256,192,81194,1,4,0:0:0:0:
256,192,81540,1,0,0:0:0:0:
256,192,81656,1,8,0:0:0:0:
256,192,81886,1,4,0:0:0:0:
256,192,82117,1,8,0:0:0:0:
256,192,82233,1,8,0:0:0:0:
256,192,82348,1,0,0:0:0:0:
256,192,82463,1,0,0:0:0:0:
256,192,82579,1,8,0:0:0:0:
256,192,82810,1,4,0:0:0:0:
256,192,83271,1,4,0:0:0:0:
256,192,83502,1,4,0:0:0:0:
256,192,83733,1,4,0:0:0:0:
256,192,83963,1,4,0:0:0:0:
256,192,84194,1,4,0:0:0:0:
256,192,84425,1,14,0:0:0:0:
256,192,84656,1,14,0:0:0:0:
256,192,84886,1,4,0:0:0:0:
256,192,85348,1,8,0:0:0:0:
256,192,85579,1,8,0:0:0:0:
256,192,85694,1,8,0:0:0:0:
256,192,85810,1,0,0:0:0:0:
256,192,85925,1,8,0:0:0:0:
256,192,86040,1,0,0:0:0:0:
256,192,86271,1,8,0:0:0:0:
256,192,86502,1,8,0:0:0:0:
256,192,86733,1,0,0:0:0:0:
256,192,86963,1,0,0:0:0:0:
256,192,87079,1,0,0:0:0:0:
256,192,87194,1,8,0:0:0:0:
256,192,87425,1,0,0:0:0:0:
256,192,87540,1,8,0:0:0:0:
256,192,87656,1,0,0:0:0:0:
256,192,87771,1,8,0:0:0:0:
256,192,87886,1,0,0:0:0:0:
256,192,88117,1,8,0:0:0:0:
256,192,88348,1,8,0:0:0:0:
256,192,88579,1,0,0:0:0:0:
256,192,88810,1,0,0:0:0:0:
256,192,88925,1,0,0:0:0:0:
256,192,89040,1,8,0:0:0:0:
256,192,89271,1,0,0:0:0:0:
256,192,89386,1,0,0:0:0:0:
256,192,89502,1,8,0:0:0:0:
256,192,89617,1,8,0:0:0:0:
256,192,89733,1,0,0:0:0:0:
256,192,89963,1,8,0:0:0:0:
256,192,90194,1,0,0:0:0:0:
256,192,90425,1,0,0:0:0:0:
256,192,90656,1,0,0:0:0:0:
256,192,90771,1,0,0:0:0:0:
256,192,90886,1,8,0:0:0:0:
256,192,91117,1,0,0:0:0:0:
256,192,91348,1,8,0:0:0:0:
256,192,91463,1,8,0:0:0:0:
256,192,91579,1,0,0:0:0:0:
256,192,91694,1,0,0:0:0:0:
256,192,91810,1,8,0:0:0:0:
256,192,92040,1,8,0:0:0:0:
256,192,92271,1,4,0:0:0:0:
256,192,92733,1,8,0:0:0:0:
256,192,92963,1,0,0:0:0:0:
256,192,93079,1,8,0:0:0:0:
256,192,93194,1,0,0:0:0:0:
256,192,93310,1,8,0:0:0:0:
256,192,93425,1,0,0:0:0:0:
256,192,93656,1,8,0:0:0:0:
256,192,93886,1,0,0:0:0:0:
256,192,94117,1,8,0:0:0:0:
256,192,94348,1,0,0:0:0:0:
256,192,94463,1,0,0:0:0:0:
256,192,94579,1,8,0:0:0:0:
256,192,94810,1,0,0:0:0:0:
256,192,95040,1,8,0:0:0:0:
256,192,95156,1,8,0:0:0:0:
256,192,95271,1,0,0:0:0:0:
256,192,95386,1,0,0:0:0:0:
256,192,95502,1,8,0:0:0:0:
256,192,95733,1,8,0:0:0:0:
256,192,95963,1,0,0:0:0:0:
256,192,96194,1,0,0:0:0:0:
256,192,96310,1,0,0:0:0:0:
256,192,96425,1,8,0:0:0:0:
256,192,96656,1,0,0:0:0:0:
256,192,96771,1,0,0:0:0:0:
256,192,96886,1,8,0:0:0:0:
256,192,97117,1,0,0:0:0:0:
256,192,97233,1,0,0:0:0:0:
256,192,97348,1,8,0:0:0:0:
256,192,97463,1,8,0:0:0:0:
256,192,97579,1,0,0:0:0:0:
256,192,97810,1,14,0:0:0:0:
256,192,98161,1,0,0:0:0:0:
256,192,98512,1,0,0:0:0:0:
256,192,98746,1,14,0:0:0:0:
256,192,99097,1,0,0:0:0:0:
256,192,99448,1,0,0:0:0:0:
256,192,99682,1,4,0:0:0:0:
