osu file format v14

[General]
AudioFilename: fuyuuso_op.mp3
AudioLeadIn: 0
PreviewTime: -1
Countdown: 0
SampleSet: Normal
StackLeniency: 0.7
Mode: 1
LetterboxInBreaks: 0
WidescreenStoryboard: 1

[Editor]
DistanceSpacing: 0.8
BeatDivisor: 4
GridSize: 32
TimelineZoom: 1

[Metadata]
Title:Snow World End
TitleUnicode:Snow World End
Artist:Yui Sakakibara
ArtistUnicode:榊原ゆい
Creator:Kin
Version:Kantan
Source:フユウソ -Snow World End-
Tags:Fuyu Uso Campus Ayumi. Ayumi Orikura Toshinori 折倉俊則 from STRIKERS
BeatmapID:1425475
BeatmapSetID:673567

[Difficulty]
HPDrainRate:7
CircleSize:2
OverallDifficulty:4
ApproachRate:5
SliderMultiplier:1.4
SliderTickRate:1

[Events]
//Background and Video events
0,0,"K.jpg",0,120
//Break Periods
//Storyboard Layer 0 (Background)
//Storyboard Layer 1 (Fail)
//Storyboard Layer 2 (Pass)
//Storyboard Layer 3 (Foreground)
//Storyboard Sound Samples

[TimingPoints]
1810,461.538461538462,4,1,0,70,1,0
14733,-100,4,1,0,50,0,0
31348,-100,4,1,0,60,0,0
47963,-100,4,1,0,70,0,1
84886,-100,4,1,0,70,0,0
97810,468.201326570425,4,1,0,50,1,0

[HitObjects]
256,192,656,5,8,0:0:0:0:
256,192,1348,1,8,0:0:0:0:
256,192,1810,1,4,0:0:0:0:
256,192,2502,1,0,0:0:0:0:
256,192,3194,1,0,0:0:0:0:
256,192,3656,1,0,0:0:0:0:
256,192,4579,1,0,0:0:0:0:
256,192,5502,1,0,0:0:0:0:
256,192,7348,1,0,0:0:0:0:
256,192,8040,1,0,0:0:0:0:
256,192,8733,1,8,0:0:0:0:
256,192,9194,1,4,0:0:0:0:
256,192,9886,1,0,0:0:0:0:
256,192,10579,1,8,0:0:0:0:
256,192,11040,1,0,0:0:0:0:
256,192,11963,1,8,0:0:0:0:
256,192,12425,1,8,0:0:0:0:
256,192,12886,1,4,0:0:0:0:
256,192,13579,1,4,0:0:0:0:
256,192,14733,1,0,0:0:0:0:
256,192,16579,1,0,0:0:0:0:
256,192,18425,1,0,0:0:0:0:
256,192,19117,1,0,0:0:0:0:
256,192,20271,1,0,0:0:0:0:
256,192,22117,1,0,0:0:0:0:
256,192,22810,1,0,0:0:0:0:
256,192,23963,1,0,0:0:0:0:
256,192,25810,1,0,0:0:0:0:
256,192,26502,1,0,0:0:0:0:
256,192,27656,1,0,0:0:0:0:
256,192,29502,1,0,0:0:0:0:
256,192,30194,1,0,0:0:0:0:
256,192,31348,1,0,0:0:0:0:
256,192,31579,1,0,0:0:0:0:
256,192,32963,1,0,0:0:0:0:
256,192,33886,1,0,0:0:0:0:
256,192,35040,1,0,0:0:0:0:
256,192,35271,1,0,0:0:0:0:
256,192,36656,1,0,0:0:0:0:
256,192,37579,1,0,0:0:0:0:
256,192,38733,1,0,0:0:0:0:
256,192,39656,1,8,0:0:0:0:
256,192,40579,1,0,0:0:0:0:
256,192,41502,1,0,0:0:0:0:
256,192,41963,1,0,0:0:0:0:
256,192,42425,1,8,0:0:0:0:
256,192,43348,1,8,0:0:0:0:
256,192,44040,1,4,0:0:0:0:
256,192,44963,1,4,0:0:0:0:
256,192,45886,1,4,0:0:0:0:
256,192,47963,1,4,0:0:0:0:
256,192,48656,1,0,0:0:0:0:
256,192,49348,1,0,0:0:0:0:
256,192,49810,1,8,0:0:0:0:
256,192,50502,1,8,0:0:0:0:
256,192,51194,1,8,0:0:0:0:
256,192,51656,1,0,0:0:0:0:
256,192,52579,1,0,0:0:0:0:
256,192,53040,1,0,0:0:0:0:
256,192,53502,1,8,0:0:0:0:
256,192,54194,1,8,0:0:0:0:
256,192,55348,1,4,0:0:0:0:
256,192,56271,1,0,0:0:0:0:
256,192,56963,1,0,0:0:0:0:
256,192,58117,1,8,0:0:0:0:
256,192,59040,1,0,0:0:0:0:
256,192,59963,1,8,0:0:0:0:
256,192,60886,1,0,0:0:0:0:
256,192,61348,1,8,0:0:0:0:
256,192,61810,1,0,0:0:0:0:
256,192,62733,1,4,0:0:0:0:
256,192,63425,1,0,0:0:0:0:
256,192,64117,1,8,0:0:0:0:
256,192,64579,1,0,0:0:0:0:
256,192,65271,1,0,0:0:0:0:
256,192,65963,1,8,0:0:0:0:
256,192,66425,1,0,0:0:0:0:
256,192,67348,1,8,0:0:0:0:
256,192,67810,1,8,0:0:0:0:
256,192,68271,1,0,0:0:0:0:
256,192,68963,1,0,0:0:0:0:
256,192,69656,1,8,0:0:0:0:
256,192,70117,1,0,0:0:0:0:
256,192,71502,1,8,0:0:0:0:
256,192,71963,1,0,0:0:0:0:
256,192,72656,1,8,0:0:0:0:
256,192,73348,1,0,0:0:0:0:
256,192,73810,1,0,0:0:0:0:
256,192,75194,1,0,0:0:0:0:
256,192,75656,1,0,0:0:0:0:
256,192,76348,1,8,0:0:0:0:
256,192,77040,1,8,0:0:0:0:
256,192,77502,1,4,0:0:0:0:
256,192,78886,1,8,0:0:0:0:
256,192,79348,1,4,0:0:0:0:
256,192,80271,1,0,0:0:0:0:
256,192,80733,1,0,0:0:0:0:
256,192,81194,1,4,0:0:0:0:
256,192,82810,1,4,0:0:0:0:
160,224,83271,2,0,P|192:96|352:192,1,350
256,192,84886,1,4,0:0:0:0:
256,192,85579,1,0,0:0:0:0:
256,192,86271,1,8,0:0:0:0:
256,192,86733,1,8,0:0:0:0:
256,192,87656,1,0,0:0:0:0:
256,192,88579,1,0,0:0:0:0:
256,192,89963,1,8,0:0:0:0:
256,192,90425,1,0,0:0:0:0:
256,192,91117,1,0,0:0:0:0:
256,192,91810,1,8,0:0:0:0:
256,192,92271,1,4,0:0:0:0:
256,192,92963,1,0,0:0:0:0:
256,192,93656,1,0,0:0:0:0:
256,192,94117,1,8,0:0:0:0:
256,192,95040,1,8,0:0:0:0:
256,192,95502,1,8,0:0:0:0:
256,192,95963,1,0,0:0:0:0:
256,192,96656,1,0,0:0:0:0:
256,192,97810,1,4,0:0:0:0:
256,192,98746,1,14,0:0:0:0:
256,192,99682,1,4,0:0:0:0:
