osu file format v14

[General]
AudioFilename: audio.mp3
AudioLeadIn: 0
PreviewTime: 56885
Countdown: 0
SampleSet: Soft
StackLeniency: 0.5
Mode: 0
LetterboxInBreaks: 0
WidescreenStoryboard: 1

[Editor]
Bookmarks: 57704
DistanceSpacing: 6
BeatDivisor: 4
GridSize: 32
TimelineZoom: 1

[Metadata]
Title:Shining saver
TitleUnicode:Shining saver
Artist:Yui Sakakibara
ArtistUnicode:榊原ゆい
Creator:Uta
Version:Collab Extra
Source:イブニクル2
Tags:eroge evenicle_2 alicesoft japanese video game visual novel rpg hinsvar [_eli_] kuro fuyusaki amandia kyuukai smokelind shad0w1and waifuiscute fluffy hair
BeatmapID:1956745
BeatmapSetID:924200

[Difficulty]
HPDrainRate:6
CircleSize:4
OverallDifficulty:8.5
ApproachRate:9
SliderMultiplier:1.8
SliderTickRate:1

[Events]
//Background and Video events
0,0,"BG2.jpg",0,0
//Break Periods
//Storyboard Layer 0 (Background)
//Storyboard Layer 1 (Fail)
//Storyboard Layer 2 (Pass)
//Storyboard Layer 3 (Foreground)
//Storyboard Sound Samples

[TimingPoints]
0,327.868852459016,4,2,1,35,1,0
1311,-200,4,2,1,35,0,0
6065,-133.333333333333,4,2,1,35,0,0
6229,-133.333333333333,4,2,1,80,0,0
6557,-100,4,2,1,80,0,0
11803,-133.333333333333,4,2,1,30,0,0
12622,-133.333333333333,4,2,1,70,0,0
13114,-100,4,2,1,70,0,0
22131,-400,4,2,1,70,0,0
23606,-166.666666666667,4,2,2,70,0,0
23688,-166.666666666667,4,2,2,38,0,0
34098,-125,4,2,3,45,0,0
44590,-400,4,2,3,45,0,0
44672,-400,4,2,3,35,0,0
49836,-133.333333333333,4,2,3,45,0,0
52459,-111.111111111111,4,2,3,60,0,0
54426,-111.111111111111,4,2,1,70,0,0
55081,-100,4,2,1,70,0,0
57049,-100,4,2,1,30,0,0
57377,-100,4,2,1,70,0,0
57704,-83.3333333333333,4,2,1,80,0,1
71311,-142.857142857143,4,2,1,80,0,1
71967,-83.3333333333333,4,2,1,80,0,1
73442,-100,4,2,1,60,0,1
77213,-100,4,2,1,70,0,1
78688,-83.3333333333333,4,2,1,80,0,1
81311,-71.4285714285714,4,2,1,80,0,1
83934,-133.333333333333,4,2,1,80,0,0
84016,-133.333333333333,4,2,1,30,0,0
84754,-133.333333333333,4,2,1,70,0,0
85245,-100,4,2,1,70,0,0
93442,-83.3333333333333,4,2,1,70,0,0
94262,-200,4,2,1,70,0,0
100983,-200,4,2,0,5,0,0

[Colours]
Combo1 : 255,130,255
Combo2 : 83,199,255
Combo3 : 51,142,255
Combo4 : 255,121,121

[HitObjects]
76,176,6065,6,0,L|72:124,1,33.7500012874604,0|0,0:0|0:0,0:0:0:0:
176,96,6229,1,10,0:0:0:0:
173,129,6310,1,10,0:0:0:0:
170,163,6392,1,10,0:0:0:0:
167,196,6474,1,10,0:0:0:0:
164,230,6556,5,6,0:0:0:0:
73,142,6721,1,0,0:0:0:0:
73,142,6803,1,0,0:0:0:0:
73,142,6885,1,0,0:0:0:0:
280,188,7049,6,0,P|344:176|400:176,1,90,8|0,0:0|0:0,0:0:0:0:
156,316,7377,2,0,P|92:304|36:304,1,90,8|0,0:0|0:0,0:0:0:0:
324,376,7704,2,0,P|336:312|336:256,1,90,8|0,0:0|0:0,0:0:0:0:
198,73,8852,1,8,0:0:0:0:
190,69,8934,1,8,0:0:0:0:
182,69,9016,1,8,0:0:0:0:
174,69,9098,1,8,0:0:0:0:
166,73,9180,6,0,L|170:169,1,90,4|0,0:0|0:0,0:0:0:0:
228,272,9508,5,8,0:0:0:0:
108,224,9672,1,8,0:0:0:0:
252,188,9836,1,8,0:0:0:0:
208,344,9999,5,8,0:0:0:0:
40,196,10163,1,8,0:0:0:0:
312,252,10327,1,8,0:0:0:0:
88,348,10491,5,12,0:0:0:0:
98,323,10572,1,8,0:0:0:0:
104,296,10654,1,8,0:0:0:0:
101,270,10736,1,8,0:0:0:0:
92,244,10818,1,8,0:0:0:0:
81,219,10900,1,8,0:0:0:0:
75,193,10982,1,8,0:0:0:0:
77,166,11064,1,8,0:0:0:0:
86,141,11147,6,0,L|160:136,1,45,8|8,0:0|0:0,0:0:0:0:
184,68,11311,2,0,L|257:62,1,45,8|8,0:0|0:0,0:0:0:0:
292,124,11475,2,0,L|365:118,1,45,8|8,0:0|0:0,0:0:0:0:
389,50,11639,2,0,L|462:44,1,45,8|8,0:0|0:0,0:0:0:0:
464,44,11803,5,0,0:0:0:0:
508,120,11967,1,0,0:0:0:0:
504,132,12049,1,0,0:0:0:0:
500,144,12131,1,0,0:0:0:0:
420,216,12295,1,0,0:0:0:0:
416,204,12377,1,0,0:0:0:0:
412,192,12459,1,0,0:0:0:0:
408,180,12540,5,0,0:0:0:0:
400,204,12622,1,2,0:0:0:0:
380,228,12704,1,2,0:0:0:0:
352,236,12786,1,10,0:0:0:0:
320,232,12868,1,10,0:0:0:0:
292,212,12950,1,10,0:0:0:0:
260,208,13032,1,10,0:0:0:0:
228,220,13114,6,0,L|236:336,1,90,14|0,0:0|0:0,0:0:0:0:
58,155,13442,2,0,P|99:138|143:143,1,90,8|0,0:0|0:0,0:0:0:0:
356,106,13770,2,0,P|313:98|272:116,1,90,2|0,0:0|0:0,0:0:0:0:
228,220,14098,1,10,0:0:0:0:
268,96,14262,6,0,P|344:80|420:152,1,180,2|0,0:0|0:0,0:0:0:0:
475,317,14754,2,0,P|454:278|416:256,1,90,10|0,0:0|0:0,0:0:0:0:
252,221,15081,2,0,P|297:221|336:200,1,90,2|0,0:0|0:0,0:0:0:0:
440,59,15409,2,0,P|417:97|416:141,1,90,10|0,0:0|0:0,0:0:0:0:
497,278,15655,1,0,0:0:0:0:
497,278,15737,6,0,P|459:254|415:254,1,90,2|0,0:0|0:0,0:0:0:0:
252,340,16065,1,8,0:0:0:0:
436,340,16229,1,0,0:0:0:0:
353,314,16393,2,0,L|263:323,1,90,2|0,0:0|0:0,0:0:0:0:
497,278,16721,1,8,0:0:0:0:
300,244,16885,1,2,0:0:0:0:
300,244,16967,1,0,0:0:0:0:
300,244,17049,6,0,L|210:253,1,90,0|0,0:0|0:0,0:0:0:0:
32,264,17377,1,8,0:0:0:0:
263,322,17540,1,0,0:0:0:0:
116,192,17704,1,0,0:0:0:0:
128,328,17868,5,10,0:0:0:0:
140,320,17950,1,10,0:0:0:0:
148,308,18032,1,10,0:0:0:0:
152,280,18114,1,10,0:0:0:0:
144,244,18196,1,10,0:0:0:0:
112,212,18278,1,10,0:0:0:0:
104,168,18360,5,14,0:0:0:0:
256,192,18524,2,0,L|376:168,1,90,10|0,0:0|0:0,0:0:0:0:
96,144,18852,5,10,0:0:0:0:
272,200,19016,2,0,L|392:176,1,90,8|0,0:0|0:0,0:0:0:0:
88,120,19344,5,14,0:0:0:0:
292,208,19508,2,0,L|412:184,1,90,10|8,0:0|0:0,0:0:0:0:
80,96,19836,5,2,0:0:0:0:
312,216,20000,2,0,L|432:192,1,90,8|0,0:0|0:0,0:0:0:0:
256,64,20327,5,14,0:0:0:0:
228,328,20491,1,2,0:0:0:0:
312,216,20655,1,10,0:0:0:0:
123,214,20819,1,8,0:0:0:0:
123,214,20901,1,8,0:0:0:0:
123,214,20983,6,0,L|212:232,1,90,14|0,0:0|0:0,0:0:0:0:
444,276,21311,1,8,0:0:0:0:
228,328,21475,1,8,0:0:0:0:
454,366,21639,1,8,0:0:0:0:
449,321,21720,1,10,0:0:0:0:
444,276,21802,1,10,0:0:0:0:
440,231,21884,1,10,0:0:0:0:
435,186,21967,2,0,L|428:112,1,45,10|0,0:0|0:0,0:0:0:0:
488,56,22131,6,0,P|448:112|348:64,1,191.25,6|0,0:0|0:0,0:0:0:0:
350,71,23606,6,0,P|296:96|240:72,1,107.999996704102,4|2,0:0|0:0,0:0:0:0:
184,32,24098,1,2,0:0:0:0:
184,32,24262,2,0,P|168:68|168:108,1,53.9999983520508,2|0,0:0|0:0,0:0:0:0:
108,180,24590,1,2,0:0:0:0:
108,180,24754,6,0,P|162:155|218:179,1,107.999996704102,2|0,0:0|0:0,0:0:0:0:
276,220,25245,2,0,L|268:292,1,53.9999983520508,2|0,0:0|0:0,0:0:0:0:
192,312,25573,2,0,L|186:258,1,53.9999983520508,2|0,0:0|0:0,0:0:0:0:
104,228,25901,2,0,L|98:281,1,53.9999983520508,2|0,0:0|0:0,0:0:0:0:
28,376,26229,5,10,0:3:0:0:
28,376,26557,1,2,0:0:0:0:
28,376,26721,2,0,P|116:356|156:356,1,107.999996704102,2|2,0:0|0:0,0:0:0:0:
243,324,27213,1,0,0:0:0:0:
243,324,27377,2,0,P|199:316|183:304,1,53.9999983520508,2|0,0:0|0:0,0:0:0:0:
136,244,27704,5,2,0:0:0:0:
236,240,27868,1,2,0:0:0:0:
132,260,28032,1,2,0:0:0:0:
240,224,28196,2,0,P|284:232|300:244,1,53.9999983520508,2|0,0:0|0:0,0:0:0:0:
363,284,28524,2,0,P|376:260|378:233,1,53.9999983520508,2|2,0:0|0:0,0:0:0:0:
288,324,28852,6,0,P|320:360|400:360,1,107.999996704102,8|2,0:3|0:0,0:0:0:0:
444,316,29344,1,0,0:0:0:0:
444,316,29508,2,0,L|508:328,1,53.9999983520508,2|0,0:0|0:0,0:0:0:0:
378,233,29836,1,2,0:0:0:0:
378,233,30000,6,0,P|332:256|260:232,1,107.999996704102,2|0,0:0|0:0,0:0:0:0:
212,192,30491,2,0,L|220:132,1,53.9999983520508,2|0,0:0|0:0,0:0:0:0:
320,168,30819,2,0,L|312:114,1,53.9999983520508,2|0,0:0|0:0,0:0:0:0:
200,168,31147,2,0,L|208:108,1,53.9999983520508,2|0,0:0|0:0,0:0:0:0:
332,148,31475,6,0,L|316:28,1,107.999996704102,10|0,0:3|0:0,0:0:0:0:
240,4,31967,1,0,0:0:0:0:
240,4,32131,1,0,0:0:0:0:
404,36,32295,1,2,0:0:0:0:
248,88,32459,1,2,0:0:0:0:
420,32,32622,2,0,L|496:36,1,53.9999983520508,10|0,0:3|0:0,0:0:0:0:
512,112,32950,5,2,0:0:0:0:
317,40,33114,1,2,0:0:0:0:
376,128,33278,1,2,0:0:0:0:
388,56,33442,1,2,0:0:0:0:
372,36,33606,1,8,0:3:0:0:
144,60,33770,1,8,0:0:0:0:
144,60,34098,6,0,L|152:132,1,72,4|0,0:0|0:0,0:0:0:0:
256,228,34426,2,0,P|220:220|184:219,1,72,10|0,0:0|0:0,0:0:0:0:
44,292,34754,2,0,P|79:284|115:283,1,72,2|0,0:0|0:0,0:0:0:0:
276,368,35081,1,10,0:0:0:0:
276,368,35245,6,0,P|232:312|184:372,1,144,2|0,0:0|0:0,0:0:0:0:
328,272,35737,2,0,L|424:276,1,72,10|0,0:0|0:0,0:0:0:0:
256,216,36065,2,0,L|184:218,1,72,2|0,0:0|0:0,0:0:0:0:
340,180,36393,2,0,L|351:108,1,72,10|0,0:0|0:0,0:0:0:0:
412,48,36639,1,0,0:0:0:0:
412,48,36721,6,0,P|340:24|272:72,1,144,2|10,0:0|0:0,0:0:0:0:
212,124,37213,2,0,P|199:90|171:68,1,72,2|0,0:0|0:0,0:0:0:0:
100,20,37540,1,2,0:0:0:0:
188,220,37704,1,10,0:0:0:0:
116,152,37868,6,0,P|72:116|0:168,1,144,2|2,0:0|0:0,0:0:0:0:
4,252,38360,2,0,P|44:244|80:252,1,72,10|2,0:0|0:0,0:0:0:0:
136,312,38688,2,0,P|170:319|206:314,1,72,2|0,0:0|0:0,0:0:0:0:
278,193,39016,2,0,P|270:228|276:264,1,72,10|0,0:0|0:0,0:0:0:0:
320,340,39262,1,0,0:0:0:0:
320,340,39344,6,0,L|488:332,1,144,2|8,0:0|0:0,0:0:0:0:
384,236,39836,1,0,0:0:0:0:
477,176,39999,2,0,L|472:248,1,72,2|0,0:0|0:0,0:0:0:0:
336,144,40327,1,10,0:0:0:0:
336,144,40491,2,0,L|349:303,1,144,2|2,0:0|0:0,0:0:0:0:
420,92,40983,1,10,0:0:0:0:
340,56,41147,2,0,P|276:72|256:96,1,72,2|0,0:0|0:0,0:0:0:0:
96,192,41475,1,0,0:0:0:0:
156,129,41639,2,0,P|192:130|224:148,1,72,8|2,0:0|0:0,0:0:0:0:
348,287,41967,5,2,0:0:0:0:
392,168,42131,1,2,0:0:0:0:
336,304,42295,1,10,0:0:0:0:
404,152,42459,2,0,L|417:311,1,144,2|2,0:0|0:0,0:0:0:0:
496,216,42950,1,10,0:0:0:0:
412,136,43114,6,0,L|252:149,1,144,6|0,0:0|0:0,0:0:0:0:
44,164,43606,1,10,0:0:0:0:
244,52,43770,1,0,0:0:0:0:
120,244,43934,1,10,0:0:0:0:
144,72,44098,1,8,0:0:0:0:
184,156,44262,1,0,0:0:0:0:
184,156,44590,6,0,B|90:124|104:212|4:172,1,180,4|2,0:0|0:0,0:0:0:0:
151,280,46229,2,0,L|147:235,1,45,2|0,0:0|0:0,0:0:0:0:
147,235,47213,6,0,P|208:228|256:288,1,135,2|2,0:0|0:0,0:0:0:0:
208,352,48524,2,0,B|256:372|256:372|344:344,1,135,2|0,0:0|0:0,0:0:0:0:
344,356,49590,1,0,0:0:0:0:
352,364,49672,1,0,0:0:0:0:
360,372,49754,1,0,0:0:0:0:
368,380,49836,6,0,L|376:296,1,67.5000025749208,4|0,0:0|0:0,0:0:0:0:
453,248,50163,2,0,L|460:316,1,67.5000025749208,2|0,0:0|0:0,0:0:0:0:
283,377,50491,6,0,L|291:293,1,67.5000025749208,2|0,0:0|0:0,0:0:0:0:
368,245,50819,2,0,L|374:312,1,67.5000025749208,2|0,0:0|0:0,0:0:0:0:
198,374,51147,6,0,L|206:290,1,67.5000025749208,2|0,0:0|0:0,0:0:0:0:
119,303,51475,2,0,L|113:371,1,67.5000025749208,2|0,0:0|0:0,0:0:0:0:
289,309,51803,6,0,L|283:242,1,67.5000025749208,2|0,0:0|0:0,0:0:0:0:
197,238,52131,2,0,L|204:306,1,67.5000025749208,2|0,0:0|0:0,0:0:0:0:
60,184,52459,6,0,B|152:204|132:128|240:160,1,161.999995056153,6|8,0:0|0:0,0:0:0:0:
416,188,52950,1,2,0:0:0:0:
327,91,53114,2,0,P|313:129|311:170,1,80.9999975280763,2|0,0:0|0:0,0:0:0:0:
399,266,53442,2,0,P|412:228|415:187,1,80.9999975280763,10|0,0:0|0:0,0:0:0:0:
268,28,53770,5,2,0:0:0:0:
311,170,53934,1,8,0:0:0:0:
376,112,54098,1,2,0:0:0:0:
376,112,54426,5,10,0:0:0:0:
356,260,54590,1,10,0:0:0:0:
317,270,54671,1,8,0:0:0:0:
277,264,54753,1,10,0:0:0:0:
242,243,54835,1,8,0:0:0:0:
219,210,54917,1,8,0:0:0:0:
210,171,54999,1,8,0:0:0:0:
218,131,55081,5,14,0:0:0:0:
472,192,55245,1,8,0:0:0:0:
227,31,55409,5,10,0:0:0:0:
481,92,55573,1,10,0:0:0:0:
326,175,55737,5,8,0:0:0:0:
331,153,55818,1,8,0:0:0:0:
337,131,55900,1,10,0:0:0:0:
342,109,55982,1,8,0:0:0:0:
348,88,56064,1,10,0:0:0:0:
463,292,56229,1,14,0:0:0:0:
463,292,56557,5,8,0:0:0:0:
209,231,56721,1,8,0:0:0:0:
209,231,57377,5,2,0:0:0:0:
212,244,57459,1,2,0:0:0:0:
216,256,57540,1,2,0:0:0:0:
220,268,57622,1,2,0:0:0:0:
224,280,57704,6,0,P|280:283|320:321,1,107.999996704102,6|0,0:0|0:0,0:0:0:0:
422,229,58032,2,0,B|390:226|390:226|363:235,1,53.9999983520508,10|0,0:0|0:0,0:0:0:0:
247,361,58196,2,0,L|131:362,1,107.999996704102,2|0,0:0|0:0,0:0:0:0:
265,151,58524,1,0,0:0:0:0:
103,250,58688,1,8,0:0:0:0:
258,56,58852,1,0,0:0:0:0:
258,56,58934,1,0,0:0:0:0:
258,56,59016,6,0,P|314:69|351:115,1,107.999996704102,2|0,0:0|0:0,0:0:0:0:
159,169,59344,2,0,L|149:54,1,107.999996704102,10|0,0:0|0:0,0:0:0:0:
265,151,59672,1,2,0:0:0:0:
62,103,59836,1,0,0:0:0:0:
258,56,59999,1,10,0:0:0:0:
109,249,60163,1,0,0:0:0:0:
109,249,60245,1,0,0:0:0:0:
109,249,60327,6,0,B|157:279|207:250|207:250|264:218|316:247,1,215.999993408203,2|8,0:0|0:0,0:0:0:0:
343,97,60819,1,0,0:0:0:0:
263,328,60983,2,0,P|325:357|368:352,1,107.999996704102,2|0,0:0|0:0,0:0:0:0:
442,122,61311,2,0,P|380:93|337:98,1,107.999996704102,8|0,0:0|0:0,0:0:0:0:
435,245,61639,5,2,0:0:0:0:
261,182,61803,1,2,0:0:0:0:
442,122,61967,1,10,0:0:0:0:
240,183,62131,2,0,P|167:172|105:184,1,107.999996704102,2|0,0:0|0:0,0:0:0:0:
103,5,62459,1,2,0:0:0:0:
103,5,62540,1,0,0:0:0:0:
103,5,62622,2,0,P|154:28|174:80,1,107.999996704102,10|0,0:0|0:0,0:0:0:0:
111,268,62950,6,0,P|57:218|87:92,1,215.999993408203,6|10,0:0|0:0,0:0:0:0:
248,276,63442,1,2,0:0:0:0:
58,357,63606,1,0,0:0:0:0:
133,175,63770,1,0,0:0:0:0:
193,343,63934,2,0,P|251:360|307:340,1,107.999996704102,10|0,0:0|0:0,0:0:0:0:
384,153,64180,1,0,0:0:0:0:
384,153,64262,6,0,P|340:194|329:253,1,107.999996704102,2|0,0:0|0:0,0:0:0:0:
413,350,64590,2,0,P|423:289|419:232,1,107.999996704102,10|0,0:0|0:0,0:0:0:0:
269,153,64918,1,2,0:0:0:0:
295,347,65081,1,0,0:0:0:0:
136,250,65245,2,0,L|248:258,1,107.999996704102,10|0,0:0|0:0,0:0:0:0:
421,70,65491,1,0,0:0:0:0:
421,70,65573,6,0,B|370:96|319:71|319:71|268:45|213:70,1,215.999993408203,6|8,0:0|0:0,0:0:0:0:
243,257,66065,1,0,0:0:0:0:
243,257,66229,1,0,0:0:0:0:
395,175,66393,1,2,0:0:0:0:
252,354,66557,1,10,0:0:0:0:
157,163,66721,6,0,P|118:106|28:182,1,215.999993408203,6|2,0:0|0:0,0:0:0:0:
110,236,67131,1,0,0:0:0:0:
120,245,67213,2,0,L|173:251,1,53.9999983520508,10|0,0:0|0:0,0:0:0:0:
230,45,67377,2,0,L|177:39,1,53.9999983520508,0|0,0:0|0:0,0:0:0:0:
265,157,67540,5,14,0:0:0:0:
302,170,67621,1,0,0:0:0:0:
343,168,67703,1,0,0:0:0:0:
379,151,67785,1,8,0:0:0:0:
406,121,67868,5,10,0:0:0:0:
332,149,67949,1,8,0:0:0:0:
304,222,68031,1,8,0:0:0:0:
339,293,68113,1,8,0:0:0:0:
415,314,68196,6,0,P|435:236|433:202,1,107.999996704102,14|0,0:0|0:0,0:0:0:0:
259,35,68524,2,0,B|248:63|248:63|252:96,1,53.9999983520508,10|0,0:0|0:0,0:0:0:0:
295,187,68688,2,0,B|306:215|306:215|302:248,1,53.9999983520508,2|0,0:0|0:0,0:0:0:0:
220,321,68852,1,0,0:0:0:0:
100,130,69016,1,2,0:0:0:0:
175,189,69180,1,10,0:0:0:0:
131,220,69261,1,2,0:0:0:0:
78,223,69343,1,2,0:0:0:0:
32,196,69425,1,2,0:0:0:0:
8,149,69508,6,0,L|20:38,1,107.999996704102,2|0,0:0|0:0,0:0:0:0:
243,122,69836,2,0,P|268:178|256:241,1,107.999996704102,10|0,0:0|0:0,0:0:0:0:
36,365,70163,2,0,B|29:339|29:339|41:294,1,53.9999983520508,2|0,0:0|0:0,0:0:0:0:
100,130,70327,1,8,0:0:0:0:
194,308,70491,1,10,0:0:0:0:
269,331,70572,1,8,0:0:0:0:
341,297,70654,1,8,0:0:0:0:
371,224,70736,1,0,0:0:0:0:
344,149,70819,6,0,P|287:147|223:154,1,107.999996704102,14|10,0:0|0:0,0:0:0:0:
200,175,71065,1,8,0:0:0:0:
200,175,71147,1,10,0:0:0:0:
383,289,71311,6,0,P|422:292|453:286,1,62.9999980773926,10|0,0:0|0:0,0:0:0:0:
264,66,71639,2,0,P|225:63|194:69,1,62.9999980773926,10|8,0:0|0:0,0:0:0:0:
68,287,71967,6,0,B|115:317|168:288|168:288|226:258|282:287,1,215.999993408203,14|2,0:0|0:0,0:0:0:0:
118,207,72459,1,10,0:0:0:0:
224,368,72622,1,6,0:0:0:0:
311,196,72786,1,10,0:0:0:0:
142,313,72950,1,8,0:0:0:0:
401,202,73114,1,10,0:0:0:0:
389,150,73196,1,0,0:0:0:0:
351,113,73278,1,10,0:0:0:0:
298,105,73360,1,8,0:0:0:0:
250,127,73442,6,0,P|206:155|150:66,1,180,14|8,0:0|0:0,0:0:0:0:
147,69,74098,2,0,P|150:116|144:164,1,90,2|0,0:0|0:0,0:0:0:0:
46,322,74426,2,0,P|85:295|129:277,1,90,10|0,0:0|0:0,0:0:0:0:
316,283,74754,6,0,P|273:262|309:150,1,180,2|10,0:0|0:0,0:0:0:0:
266,66,75245,1,0,0:0:0:0:
372,192,75409,2,0,L|465:186,1,90,2|0,0:0|0:0,0:0:0:0:
235,290,75737,2,0,L|328:284,1,90,10|0,0:0|0:0,0:0:0:0:
172,147,76065,6,0,B|172:210|172:210|145:260|145:260|145:327,1,180,2|8,0:0|0:0,0:0:0:0:
79,182,76557,1,0,0:0:0:0:
79,182,76639,1,0,0:0:0:0:
79,182,76721,1,0,0:0:0:0:
266,192,76885,1,10,0:0:0:0:
49,295,77049,1,10,0:0:0:0:
23,98,77213,6,0,P|109:86|172:147,1,180,6|8,0:0|0:0,0:0:0:0:
321,47,77704,2,0,P|257:47|217:71,1,90,8|4,0:0|0:0,0:0:0:0:
142,242,78032,2,0,P|206:242|246:218,1,90,0|8,0:0|0:0,0:0:0:0:
49,207,78360,2,0,B|44:230|44:230|48:263,1,45,10|8,0:0|0:0,0:0:0:0:
267,336,78524,1,8,0:0:0:0:
267,336,78606,1,8,0:0:0:0:
267,336,78688,5,14,0:0:0:0:
313,184,78852,2,0,L|327:128,1,53.9999983520508,8|8,0:0|0:0,0:0:0:0:
228,231,79016,1,10,0:0:0:0:
443,129,79180,5,10,0:0:0:0:
213,31,79344,1,0,0:0:0:0:
438,17,79508,1,10,0:0:0:0:
219,134,79672,1,0,0:0:0:0:
454,299,79836,5,10,0:0:0:0:
454,299,80983,5,8,0:0:0:0:
451,286,81065,1,8,0:0:0:0:
447,274,81146,1,8,0:0:0:0:
443,262,81228,1,8,0:0:0:0:
422,237,81311,6,0,P|362:199|265:247,1,188.999994232178,14|0,0:0|0:0,0:0:0:0:
256,278,81639,2,0,P|253:314|235:346,1,62.9999980773926,10|0,0:0|0:0,0:0:0:0:
69,191,81803,6,0,P|72:155|90:123,1,62.9999980773926,2|0,0:0|0:0,0:0:0:0:
237,132,81967,2,0,P|249:160|251:191,1,62.9999980773926,8|0,0:0|0:0,0:0:0:0:
79,338,82131,6,0,P|66:309|64:278,1,62.9999980773926,0|0,0:0|0:0,0:0:0:0:
343,288,82295,6,0,L|337:355,1,62.9999980773926,8|0,0:0|0:0,0:0:0:0:
162,264,82459,2,0,L|156:201,1,62.9999980773926,8|0,0:0|0:0,0:0:0:0:
446,144,82622,5,12,0:0:0:0:
420,162,82704,1,0,0:0:0:0:
390,173,82786,1,8,0:0:0:0:
359,182,82868,1,8,0:0:0:0:
327,182,82950,1,8,0:0:0:0:
296,173,83032,1,8,0:0:0:0:
267,160,83114,1,8,0:0:0:0:
240,143,83196,1,8,0:0:0:0:
195,118,83278,5,8,0:0:0:0:
145,106,83360,1,8,0:0:0:0:
94,110,83442,1,8,0:0:0:0:
48,131,83524,1,8,0:0:0:0:
13,168,83606,1,8,0:0:0:0:
0,216,83688,1,8,0:0:0:0:
1,266,83770,1,8,0:0:0:0:
27,308,83852,1,8,0:0:0:0:
50,322,83934,5,8,0:0:0:0:
51,23,84754,5,2,0:0:0:0:
43,41,84836,1,2,0:0:0:0:
39,60,84918,2,0,L|40:109,1,33.7500012874604,10|10,0:0|0:0,0:0:0:0:
121,135,85081,2,0,L|120:184,1,33.7500012874604,10|10,0:0|0:0,0:0:0:0:
46,283,85245,6,0,P|132:273|191:351,1,180,14|8,0:0|0:0,0:0:0:0:
278,192,85737,1,0,0:0:0:0:
173,274,85901,2,0,P|210:322|246:338,1,90,2|0,0:0|0:0,0:0:0:0:
406,190,86229,1,10,0:0:0:0:
444,301,86393,6,0,P|420:339|345:256,1,180,2|0,0:0|0:0,0:0:0:0:
321,36,86885,2,0,P|345:74|345:128,1,90,10|0,0:0|0:0,0:0:0:0:
220,255,87213,2,0,P|240:215|287:188,1,90,2|0,0:0|0:0,0:0:0:0:
460,234,87540,2,0,P|415:235|368:208,1,90,10|0,0:0|0:0,0:0:0:0:
250,99,87786,1,0,0:0:0:0:
250,99,87868,6,0,P|166:97|68:99,1,180,2|8,0:0|0:0,0:0:0:0:
150,11,88360,1,0,0:0:0:0:
123,190,88524,2,0,P|122:239|125:294,1,90,2|0,0:0|0:0,0:0:0:0:
209,231,88852,1,8,0:0:0:0:
36,302,89016,6,0,P|81:361|202:330,1,180,2|0,0:0|0:0,0:0:0:0:
347,252,89508,2,0,P|297:270|269:305,1,90,8|0,0:0|0:0,0:0:0:0:
416,324,89836,1,0,0:0:0:0:
416,324,89999,5,10,0:0:0:0:
439,286,90080,1,10,0:0:0:0:
444,241,90162,1,2,0:0:0:0:
429,199,90244,1,10,0:0:0:0:
397,168,90326,1,10,0:0:0:0:
355,154,90408,1,10,0:0:0:0:
311,160,90490,5,14,0:0:0:0:
180,320,90655,2,0,L|73:326,1,90,10|0,0:0|0:0,0:0:0:0:
126,87,90983,5,10,0:0:0:0:
257,246,91148,2,0,L|364:252,1,90,8|0,0:0|0:0,0:0:0:0:
311,20,91475,5,14,0:0:0:0:
153,211,91639,2,0,L|46:217,1,90,10|0,0:0|0:0,0:0:0:0:
9,22,91967,5,10,0:0:0:0:
253,121,92131,2,0,L|360:127,1,90,8|0,0:0|0:0,0:0:0:0:
126,87,92459,5,14,0:0:0:0:
288,221,92622,1,10,0:0:0:0:
324,14,92786,1,10,0:0:0:0:
225,294,92950,1,8,0:0:0:0:
225,294,93032,1,8,0:0:0:0:
225,294,93114,6,0,P|287:317|354:290,1,135,14|0,0:0|0:0,0:0:0:0:
374,266,93442,2,0,L|430:262,1,53.9999983520508,8|0,0:0|0:0,0:0:0:0:
302,172,93606,2,0,L|231:175,1,53.9999983520508,8|0,0:0|0:0,0:0:0:0:
42,103,93770,5,10,0:0:0:0:
72,70,93851,1,10,0:0:0:0:
114,54,93933,1,10,0:0:0:0:
158,57,94015,1,10,0:0:0:0:
197,79,94097,1,10,0:0:0:0:
231,353,94262,6,0,P|113:318|126:152,1,315,14|0,0:0|0:0,0:0:0:0:
457,363,95737,5,6,0:0:0:0:
256,192,95901,12,0,100983,0:0:0:0:
