osu file format v14

[General]
AudioFilename: audio.mp3
AudioLeadIn: 0
PreviewTime: 35816
Countdown: 0
SampleSet: Soft
StackLeniency: 0.7
Mode: 0
LetterboxInBreaks: 0
WidescreenStoryboard: 0

[Editor]
DistanceSpacing: 0.2
BeatDivisor: 4
GridSize: 8
TimelineZoom: 2.06

[Metadata]
Title:Kadenz (TV Size)
TitleUnicode:Kadenz (TV Size)
Artist:Yui Sakakibara
ArtistUnicode:Yui Sakakibara
Creator:Twiggykun
Version:Dies irae
Source:Dies irae
Tags:
BeatmapID:1984202
BeatmapSetID:950107

[Difficulty]
HPDrainRate:5.7
CircleSize:3.6
OverallDifficulty:9
ApproachRate:9.6
SliderMultiplier:1.6
SliderTickRate:1

[Events]
//Background and Video events
0,0,"BGshe4ka.png",0,0
//Break Periods
//Storyboard Layer 0 (Background)
//Storyboard Layer 1 (Fail)
//Storyboard Layer 2 (Pass)
//Storyboard Layer 3 (Foreground)
//Storyboard Sound Samples

[TimingPoints]
338.476323119777,260.869565217391,4,2,0,50,1,0
2425,-133.333333333333,4,2,0,50,0,0
2947,-133.333333333333,4,2,0,50,0,0
3338,-200,4,2,0,50,0,0
3990,-133.333333333333,4,2,0,50,0,0
4447,-133.333333333333,4,2,0,10,0,0
4512,-133.333333333333,4,2,0,50,0,0
5034,-500,4,2,0,50,0,0
6012,-500,4,2,0,10,0,0
6077,-100,4,2,0,50,0,0
6599,-133.333333333333,4,2,0,50,0,0
7512,-200,4,2,0,50,0,0
8164,-133.333333333333,4,2,0,50,0,0
8621,-133.333333333333,4,2,0,10,0,0
8686,-133.333333333333,4,2,0,50,0,0
9664,-133.333333333333,4,2,0,10,0,0
9729,-100,4,2,0,50,0,0
10773,-133.333333333333,4,2,0,50,0,0
13055,-133.333333333333,4,2,0,10,0,0
13121,-133.333333333333,4,2,0,50,0,0
13316,-133.333333333333,4,2,0,10,0,0
13381,-133.333333333333,4,2,0,50,0,0
13577,-133.333333333333,4,2,0,10,0,0
13642,-133.333333333333,4,2,0,50,0,0
13838,-133.333333333333,4,2,0,10,0,0
13903,-133.333333333333,4,2,0,50,0,0
14164,-100,4,2,0,50,0,0
19121,-83.3333333333333,4,2,0,50,0,0
19512,-200,4,2,0,50,0,0
20164,-83.3333333333333,4,2,0,50,0,0
20555,-200,4,2,0,50,0,0
21468,-100,4,2,0,50,0,0
23034,-66.6666666666667,4,2,0,50,0,0
23294,-100,4,2,0,50,0,0
27468,-200,4,2,0,50,0,0
27729,-200,4,2,0,10,0,0
27860,-200,4,2,0,50,0,0
28121,-200,4,2,0,10,0,0
28251,-100,4,2,0,50,0,0
31642,-83.3333333333333,4,2,0,50,0,0
35816,-133.333333333333,4,2,0,50,0,0
36860,-153.846153846153,4,2,0,50,0,0
38947,-83.3333333333333,4,2,0,50,0,0
41555,-133.333333333333,4,2,0,50,0,0
44164,-83.3333333333333,4,2,0,50,0,0
50425,-133.333333333333,4,2,0,50,0,0
51142,-133.333333333333,4,2,0,10,0,0
51208,-133.333333333333,4,2,0,50,0,0
51403,-133.333333333333,4,2,0,10,0,0
51468,-133.333333333333,4,2,0,50,0,0
51925,-133.333333333333,4,2,0,10,0,0
51990,-333.333333333333,4,2,0,50,0,0
52447,-333.333333333333,4,2,0,10,0,0
52512,-333.333333333333,4,2,0,50,0,0
52773,-83.3333333333333,4,2,0,50,0,0
55577,-83.3333333333333,4,2,0,10,0,0
55642,-83.3333333333333,4,2,0,50,0,0
56555,-66.6666666666667,4,2,0,50,0,0
57794,-66.6666666666667,4,2,0,10,0,0
57860,-66.6666666666667,4,2,0,50,0,0
58055,-66.6666666666667,4,2,0,10,0,0
58121,-66.6666666666667,4,2,0,50,0,0
58316,-66.6666666666667,4,2,0,10,0,0
58381,-66.6666666666667,4,2,0,50,0,0
61968,-66.6666666666667,4,2,0,10,0,0
62034,-66.6666666666667,4,2,0,50,0,0
62229,-66.6666666666667,4,2,0,10,0,0
62294,-66.6666666666667,4,2,0,50,0,0
62490,-66.6666666666667,4,2,0,10,0,0
62555,-66.6666666666667,4,2,0,50,0,0
65034,-100,4,2,0,50,0,0
69208,-100,4,2,0,50,0,0
70838,-100,4,2,0,10,0,0
70903,-100,4,2,0,50,0,0
71099,-100,4,2,0,10,0,0
71164,-133.333333333333,4,2,0,50,0,0
71555,-100,4,2,0,50,0,0
72338,-200,4,2,0,50,0,0
72794,-200,4,2,0,10,0,0
72860,-200,4,2,0,50,0,0
73316,-200,4,2,0,10,0,0
73381,-100,4,2,0,50,0,0
80099,-100,4,2,0,10,0,0
80164,-133.333333333333,4,2,0,50,0,0
80621,-133.333333333333,4,2,0,10,0,0
80686,-200,4,2,0,50,0,0
81142,-200,4,2,0,10,0,0
81208,-500,4,2,0,50,0,0

[HitObjects]
67,69,2425,6,0,B|94:131|70:190|70:190|40:170|50:130,1,180.000006866455
164,187,2947,2,0,P|196:232|213:314,1,120.000004577637
62,376,3338,2,0,P|76:318|110:269,1,120.000004577637
432,77,3990,6,0,P|442:196|442:297,1,210.000008010865
440,316,4512,1,0,0:0:0:0:
405,73,5034,6,0,P|411:134|414:197,1,120
347,283,6077,1,0,0:0:0:0:
321,307,6163,1,0,0:0:0:0:
303,338,6250,1,0,0:0:0:0:
294,372,6337,1,0,0:0:0:0:
280,340,6424,1,0,0:0:0:0:
259,311,6511,1,0,0:0:0:0:
233,288,6599,6,0,B|182:244|111:264|111:264|144:298|174:281,1,180.000006866455
189,157,7121,2,0,P|168:95|117:43,1,120.000004577637
55,155,7512,2,0,B|61:233|27:198|31:281,1,120
150,348,8164,6,0,P|235:331|365:325,1,210.000008010865
387,326,8686,1,0,0:0:0:0:
486,171,9077,1,0,0:0:0:0:
479,188,9142,1,0,0:0:0:0:
473,203,9208,6,0,P|388:186|258:180,1,210.000008010865
231,186,9729,1,0,0:0:0:0:
352,98,9860,1,0,0:0:0:0:
340,257,9990,1,0,0:0:0:0:
339,271,10055,1,0,0:0:0:0:
339,286,10120,1,0,0:0:0:0:
341,301,10185,1,0,0:0:0:0:
345,318,10251,5,0,0:0:0:0:
309,299,10316,1,0,0:0:0:0:
270,290,10381,1,0,0:0:0:0:
230,291,10446,1,0,0:0:0:0:
193,296,10512,2,0,P|145:312|132:323,3,40
14,212,10773,6,0,P|59:213|131:239,1,120.000004577637
109,89,11294,2,0,P|147:112|196:170,1,120.000004577637
407,212,11816,6,0,P|362:211|290:185,1,120.000004577637
312,335,12338,2,0,P|273:311|225:256,1,120.000004577637
359,32,12860,6,0,P|391:78|397:120,1,90.0000034332277
492,112,13121,2,0,P|468:162|434:188,1,90.0000034332277
489,267,13381,2,0,P|433:271|393:255,1,90.0000034332277
353,341,13642,2,0,P|321:295|315:252,1,90.0000034332277
296,36,13903,5,0,0:0:0:0:
296,36,13968,1,0,0:0:0:0:
296,36,14034,1,0,0:0:0:0:
296,36,14099,1,0,0:0:0:0:
296,36,14164,2,0,P|292:118|285:148,1,80
232,238,14425,5,0,0:0:0:0:
181,38,14555,1,0,0:0:0:0:
395,239,14686,1,0,0:0:0:0:
428,30,14816,1,0,0:0:0:0:
220,265,14947,6,0,P|180:267|140:262,1,80
0,135,15208,2,0,P|40:133|80:138,1,80
224,294,15468,1,0,0:0:0:0:
362,172,15599,1,0,0:0:0:0:
434,342,15729,2,0,P|482:351|537:337,1,80
474,137,15990,5,0,0:0:0:0:
323,297,16121,1,0,0:0:0:0:
205,98,16251,2,0,P|157:89|102:103,1,80
13,181,16512,1,0,0:0:0:0:
161,11,16642,1,0,0:0:0:0:
211,233,16773,1,0,0:0:0:0:
36,87,16903,1,0,0:0:0:0:
6,299,17034,6,0,P|78:281|113:285,1,80
259,336,17294,2,0,P|187:354|152:350,1,80
257,161,17555,1,0,0:0:0:0:
391,328,17686,1,0,0:0:0:0:
446,119,17816,2,0,P|448:69|438:12,1,80
275,187,18077,5,0,0:0:0:0:
438,149,18208,1,0,0:0:0:0:
306,26,18338,2,0,B|216:57|231:14|144:47,1,160
0,135,18729,1,0,0:0:0:0:
203,124,18860,1,0,0:0:0:0:
102,318,18990,1,0,0:0:0:0:
232,114,19121,6,0,P|282:104|334:115,1,95.9999970703126
419,187,19381,1,0,0:0:0:0:
452,69,19512,2,0,P|458:125|450:190,1,120
394,359,20034,1,0,0:0:0:0:
265,256,20164,6,0,P|218:246|171:253,1,95.9999970703126
76,333,20424,1,0,0:0:0:0:
44,214,20555,2,0,P|38:270|46:335,1,120
19,81,21208,5,0,0:0:0:0:
71,195,21338,1,0,0:0:0:0:
162,90,21468,2,0,P|218:85|252:91,1,80
256,296,21729,2,0,P|223:250|211:217,1,80
387,111,21990,2,0,P|363:161|341:188,1,80
260,265,22251,5,0,0:0:0:0:
282,111,22381,1,0,0:0:0:0:
377,289,22512,1,0,0:0:0:0:
257,96,22642,1,0,0:0:0:0:
485,256,22773,1,0,0:0:0:0:
231,78,22903,1,0,0:0:0:0:
233,83,23034,2,0,B|156:96|156:96|129:122|129:122|38:138,1,180.000006866455
37,136,23294,6,0,P|45:190|41:240,1,80
186,353,23555,2,0,P|178:299|182:249,1,80
252,60,23816,1,0,0:0:0:0:
127,151,23947,1,0,0:0:0:0:
285,216,24077,2,0,P|349:212|398:190,1,80
458,77,24338,5,0,0:0:0:0:
403,286,24468,1,0,0:0:0:0:
243,140,24599,2,0,P|179:144|130:166,1,80
32,256,24860,1,0,0:0:0:0:
32,72,24990,1,0,0:0:0:0:
198,264,25121,1,0,0:0:0:0:
57,87,25251,1,0,0:0:0:0:
264,41,25381,6,0,P|315:34|365:42,1,80
306,269,25642,2,0,P|255:276|205:268,1,80
416,123,25903,1,0,0:0:0:0:
376,355,26034,1,0,0:0:0:0:
175,183,26164,2,0,P|237:177|274:185,1,80
338,243,26425,5,0,0:0:0:0:
246,6,26555,1,0,0:0:0:0:
60,181,26686,2,0,B|38:285|76:261|52:359,1,160
52,153,27077,1,0,0:0:0:0:
266,339,27208,1,0,0:0:0:0:
325,68,27338,1,0,0:0:0:0:
325,68,27403,1,0,0:0:0:0:
325,68,27468,6,0,P|329:128|320:182,1,100
320,196,27860,2,0,P|369:162|421:143,1,100
439,144,28251,1,0,0:0:0:0:
430,283,28381,1,0,0:0:0:0:
253,117,28512,6,0,P|208:109|164:115,2,80
305,221,28903,1,0,0:0:0:0:
250,313,29034,2,0,P|205:321|161:315,1,80
49,96,29294,1,0,0:0:0:0:
139,325,29425,1,0,0:0:0:0:
67,70,29555,6,0,P|112:62|156:68,1,80
89,232,29816,2,0,P|49:239|10:236,1,80
223,141,30077,1,0,0:0:0:0:
231,346,30208,1,0,0:0:0:0:
419,237,30338,1,0,0:0:0:0:
231,312,30468,1,0,0:0:0:0:
215,113,30599,6,0,P|202:63|178:19,1,80
37,57,30860,1,0,0:0:0:0:
41,170,30990,1,0,0:0:0:0:
146,211,31121,2,0,P|195:224|245:225,1,80
393,166,31381,1,0,0:0:0:0:
389,279,31511,1,0,0:0:0:0:
284,320,31642,6,0,P|234:333|166:322,1,95.9999970703126
167,124,31903,2,0,P|216:110|285:122,1,95.9999970703126
418,191,32164,1,0,0:0:0:0:
400,19,32294,1,0,0:0:0:0:
227,213,32425,2,0,P|177:226|109:215,1,95.9999970703126
24,39,32686,6,0,B|127:67|120:14|227:46,1,191.999994140625
159,295,33077,2,0,P|141:154|195:106,1,191.999994140625
289,65,33468,1,0,0:0:0:0:
52,50,33599,1,0,0:0:0:0:
258,215,33729,2,0,P|322:223|369:200,1,95.9999970703126
449,95,33990,5,0,0:0:0:0:
197,128,34121,1,0,0:0:0:0:
348,328,34251,1,0,0:0:0:0:
374,46,34381,5,0,2:0:0:0:
188,214,34512,1,0,2:0:0:0:
427,291,34642,1,0,2:0:0:0:
250,3,34773,5,0,0:0:0:0:
230,28,34859,1,0,0:0:0:0:
223,59,34946,1,0,0:0:0:0:
229,90,35034,5,0,0:0:0:0:
277,131,35120,1,0,0:0:0:0:
304,188,35207,1,0,0:0:0:0:
303,251,35294,2,0,P|274:304|228:325,1,95.9999970703126
98,200,35555,2,0,P|158:196|200:227,1,95.9999970703126
347,326,35816,6,0,B|476:330|415:253|500:249|500:249|415:253|466:173|333:186,1,360.000013732911
191,226,36860,2,0,B|126:236|62:272|83:341|83:341|148:315|132:244|106:218|80:185|85:120|106:72|157:41|157:41|106:72|65:38,1,623.999971435548
439,62,38947,5,0,0:0:0:0:
399,186,39077,1,0,0:0:0:0:
399,186,39142,1,0,0:0:0:0:
399,186,39208,1,0,0:0:0:0:
309,89,39338,5,0,0:0:0:0:
315,266,39468,1,0,0:0:0:0:
138,273,39599,1,0,0:0:0:0:
131,95,39729,1,0,0:0:0:0:
316,129,39990,5,0,0:0:0:0:
339,359,40120,1,0,0:0:0:0:
339,359,40185,1,0,0:0:0:0:
339,359,40250,1,0,0:0:0:0:
500,234,40381,1,0,0:0:0:0:
500,234,40446,1,0,0:0:0:0:
500,234,40512,6,0,L|480:129,1,95.9999970703126
334,35,40773,2,0,L|314:140,1,95.9999970703126
235,345,41034,2,0,L|217:251,1,95.9999970703126
210,221,41229,1,0,0:0:0:0:
203,187,41294,1,0,0:0:0:0:
177,33,41425,1,0,0:0:0:0:
177,33,41555,6,0,L|118:43,3,60.0000022888184
20,118,42077,2,0,L|79:128,3,60.0000022888184
114,229,42599,5,0,0:0:0:0:
85,236,42729,1,0,0:0:0:0:
56,243,42860,1,0,0:0:0:0:
21,251,42990,1,0,0:0:0:0:
147,312,43121,5,0,0:0:0:0:
208,227,43251,1,0,0:0:0:0:
147,142,43381,1,0,0:0:0:0:
208,57,43512,1,0,0:0:0:0:
308,90,43642,5,0,0:0:0:0:
308,90,43708,1,0,0:0:0:0:
308,90,43773,1,0,0:0:0:0:
165,43,43903,1,0,0:0:0:0:
77,165,44034,1,0,0:0:0:0:
165,286,44164,6,0,L|286:302,1,95.9999970703126
442,175,44425,2,0,L|321:191,1,95.9999970703126
155,142,44686,2,0,P|209:169|266:170,1,95.9999970703126
378,28,44947,2,0,P|327:61|298:110,1,95.9999970703126
270,200,45208,5,0,0:0:0:0:
178,17,45338,1,0,0:0:0:0:
451,202,45468,2,0,P|449:255|428:301,1,95.9999970703126
231,321,45729,2,0,P|233:268|254:222,1,95.9999970703126
335,123,45990,1,0,0:0:0:0:
327,308,46121,1,0,0:0:0:0:
153,214,46251,6,0,P|108:210|20:335,1,191.999994140625
129,318,46642,1,0,0:0:0:0:
229,290,46773,1,0,0:0:0:0:
255,186,46903,1,0,0:0:0:0:
175,107,47034,2,0,P|125:105|83:124,1,95.9999970703126
0,246,47294,5,0,0:0:0:0:
22,22,47425,1,0,0:0:0:0:
162,226,47555,1,0,0:0:0:0:
264,6,47686,1,0,0:0:0:0:
25,132,47816,1,0,0:0:0:0:
245,280,47947,1,0,0:0:0:0:
151,194,48077,2,0,P|108:258|117:330,1,143.999995605469
128,357,48338,6,0,B|220:336|192:381|309:353,1,143.999995605469
363,253,48599,2,0,P|291:253|253:275,1,95.9999970703126
456,322,48860,5,0,0:0:0:0:
456,322,48990,1,0,0:0:0:0:
426,124,49121,2,0,P|390:61|351:39,1,95.9999970703126
154,58,49381,5,0,0:0:0:0:
154,58,49512,1,0,0:0:0:0:
243,243,49642,2,0,P|315:243|353:221,1,95.9999970703126
161,94,49903,5,0,0:0:0:0:
161,94,50034,1,0,0:0:0:0:
197,316,50164,1,0,0:0:0:0:
197,316,50294,1,0,0:0:0:0:
373,174,50425,6,0,P|445:174|496:207,1,120.000004577637
493,308,50816,1,0,0:0:0:0:
407,80,50947,2,0,P|335:80|317:90,1,90.0000034332277
271,173,51208,2,0,P|228:187|184:180,1,90.0000034332277
81,95,51468,6,0,P|98:193|89:314,1,210.000008010865
82,337,51990,2,0,P|117:330|172:340,1,83.9999974365235
194,347,52512,5,0,0:0:0:0:
19,235,52642,1,0,0:0:0:0:
197,141,52773,2,0,P|252:133|298:148,1,95.9999970703126
414,211,53034,1,0,0:0:0:0:
361,3,53164,1,0,0:0:0:0:
224,248,53294,2,0,P|223:310|238:351,1,95.9999970703126
384,200,53555,5,0,0:0:0:0:
160,161,53686,1,0,0:0:0:0:
349,322,53816,2,0,P|408:330|457:313,1,95.9999970703126
331,81,54077,1,0,0:0:0:0:
143,290,54208,1,0,0:0:0:0:
46,32,54338,1,0,0:0:0:0:
285,184,54468,1,0,0:0:0:0:
26,300,54599,6,0,L|38:200,1,95.9999970703126
155,79,54860,1,0,0:0:0:0:
193,324,54990,6,0,L|205:224,1,95.9999970703126
312,100,55251,1,0,0:0:0:0:
449,312,55381,6,0,B|361:327|384:282|302:296,1,143.999995605469
279,305,55642,1,0,0:0:0:0:
145,46,56555,6,0,B|277:82|248:8|380:50,1,240.000009155274
389,224,56947,2,0,P|336:187|317:126,1,120.000004577637
413,68,57208,1,0,0:0:0:0:
234,245,57338,1,0,0:0:0:0:
482,326,57468,1,0,0:0:0:0:
219,85,57599,6,0,L|37:107,1,180.000006866455
10,112,57860,2,0,L|120:258,1,180.000006866455
137,279,58121,2,0,L|208:110,1,180.000006866455
235,53,58381,1,0,0:0:0:0:
93,137,58512,1,0,0:0:0:0:
249,222,58642,6,0,P|324:230|373:218,1,120.000004577637
452,128,58903,1,0,0:0:0:0:
433,358,59034,1,0,0:0:0:0:
250,78,59164,1,0,0:0:0:0:
326,319,59294,1,0,0:0:0:0:
357,74,59425,1,0,0:0:0:0:
183,255,59555,1,0,0:0:0:0:
106,8,59686,1,0,0:0:0:0:
302,169,59816,6,0,L|322:298,1,120.000004577637
34,338,60077,2,0,L|52:219,1,120.000004577637
226,129,60338,1,0,0:0:0:0:
235,326,60468,1,0,0:0:0:0:
37,95,60599,1,0,0:0:0:0:
334,43,60729,6,0,B|406:119|375:190|375:190|305:189|276:140,1,240.000009155274
414,293,61121,2,0,P|457:253|478:197,1,120.000004577637
307,25,61381,1,0,0:0:0:0:
219,274,61512,1,0,0:0:0:0:
436,100,61642,1,0,0:0:0:0:
175,6,61773,6,0,P|77:60|30:124,1,180.000006866455
21,143,62034,2,0,P|116:200|195:209,1,180.000006866455
216,207,62294,2,0,P|218:95|186:22,1,180.000006866455
175,6,62555,1,0,0:0:0:0:
142,150,62686,1,0,0:0:0:0:
307,101,62816,6,0,P|376:99|435:116,1,120.000004577637
494,275,63077,1,0,0:0:0:0:
331,229,63208,2,0,P|271:225|213:239,1,120.000004577637
160,355,63468,1,0,0:0:0:0:
160,355,63599,1,0,0:0:0:0:
117,127,63729,2,0,P|177:123|235:137,1,120.000004577637
39,258,63990,5,0,0:0:0:0:
41,15,64121,1,0,0:0:0:0:
41,15,64186,1,0,0:0:0:0:
41,15,64251,5,0,0:0:0:0:
267,148,64381,1,0,0:0:0:0:
30,159,64512,1,0,0:0:0:0:
280,35,64642,1,0,0:0:0:0:
269,304,64773,2,0,P|203:311|138:303,1,120.000004577637
294,161,65034,5,0,0:0:0:0:
294,161,65164,1,0,0:0:0:0:
417,258,65294,2,0,P|437:329|434:361,1,80
408,89,65555,5,0,0:0:0:0:
408,89,65686,1,0,0:0:0:0:
269,186,65816,2,0,P|200:196|161:187,1,80
56,103,66077,5,0,0:0:0:0:
56,103,66208,1,0,0:0:0:0:
29,282,66338,2,0,P|67:291|107:290,1,80
252,216,66599,5,0,0:0:0:0:
252,216,66664,1,0,0:0:0:0:
252,216,66729,1,0,0:0:0:0:
322,118,66860,1,0,0:0:0:0:
252,21,66990,1,0,0:0:0:0:
137,58,67121,6,0,P|115:137|116:172,1,80
150,224,67381,1,0,0:0:0:0:
0,155,67512,1,0,0:0:0:0:
144,26,67642,2,0,P|183:13|230:14,1,80
260,216,67903,2,0,P|222:228|182:229,1,80
32,159,68164,5,0,0:0:0:0:
253,83,68294,1,0,0:0:0:0:
235,321,68425,1,0,0:0:0:0:
158,94,68555,1,0,0:0:0:0:
393,141,68686,5,0,0:0:0:0:
393,141,68751,1,0,0:0:0:0:
393,141,68816,1,0,0:0:0:0:
77,49,68947,1,8,0:0:0:0:
145,358,69077,1,0,0:0:0:0:
355,46,69208,6,0,P|411:41|456:68,1,80
328,215,69468,1,0,0:0:0:0:
328,215,69599,2,0,P|295:169|296:116,1,80
487,153,69859,1,0,0:0:0:0:
487,153,69990,2,0,P|463:203|417:229,1,80
220,54,70251,5,0,0:0:0:0:
315,312,70381,1,0,0:0:0:0:
247,73,70512,1,0,0:0:0:0:
39,273,70642,2,0,P|86:276|181:239,1,120
275,91,70903,2,0,P|248:130|233:230,1,120
323,380,71164,2,0,P|306:349|242:294,1,120
47,305,71555,6,0,P|100:302|136:291,1,80
218,150,71816,1,0,0:0:0:0:
203,127,71902,1,0,0:0:0:0:
184,109,71989,1,0,0:0:0:0:
161,95,72076,1,0,0:0:0:0:
136,86,72163,1,0,0:0:0:0:
110,83,72250,1,0,0:0:0:0:
84,86,72338,6,0,P|72:142|89:228,1,140
107,251,72860,2,0,P|161:233|227:175,1,140
240,149,73381,6,0,P|248:202|262:235,1,80
309,56,73642,2,0,P|259:36|223:32,1,80
354,166,73903,1,0,0:0:0:0:
430,71,74034,1,0,0:0:0:0:
287,59,74164,1,0,0:0:0:0:
349,190,74294,6,0,P|359:254|342:346,1,160
171,290,74686,2,0,P|231:272|276:269,1,80
461,218,74947,2,0,P|401:200|356:197,1,80
138,78,75208,2,0,P|193:61|289:59,1,120
286,59,75468,6,0,B|300:166|245:125|261:239,1,160
301,338,75860,1,0,0:0:0:0:
173,304,75990,2,0,P|123:311|67:331,1,80
3,171,76251,2,0,P|53:178|109:198,1,80
201,284,76512,5,0,0:0:0:0:
219,89,76642,1,0,0:0:0:0:
275,251,76773,5,0,0:0:0:0:
250,93,76903,1,0,0:0:0:0:
345,217,77034,5,0,0:0:0:0:
284,99,77164,1,0,0:0:0:0:
412,178,77294,5,0,0:0:0:0:
319,103,77425,1,0,0:0:0:0:
197,304,77555,6,0,P|152:317|105:308,1,80
96,145,77816,2,0,P|125:171|142:207,1,80
7,305,78077,1,0,0:0:0:0:
104,120,78208,1,0,0:0:0:0:
211,329,78338,1,0,0:0:0:0:
348,124,78468,6,0,B|278:125|278:125|253:108|253:108|182:109,1,160
69,120,78860,1,0,0:0:0:0:
186,17,78990,1,0,0:0:0:0:
225,205,79121,6,0,P|242:251|279:290,1,80
419,201,79381,2,0,P|402:155|365:116,1,80
176,309,79642,6,0,P|228:360|344:238,1,280
194,189,80164,2,0,P|132:191|60:329,1,210.000008010865
49,338,80686,6,0,P|56:260|36:193,1,140
0,129,81208,2,0,P|59:177|169:154,1,192
256,192,82838,12,0,84860,0:0:0:0:
