osu file format v14

[General]
AudioFilename: audio.mp3
AudioLeadIn: 0
PreviewTime: -1
Countdown: 1
SampleSet: Normal
StackLeniency: 0.7
Mode: 0
LetterboxInBreaks: 0
WidescreenStoryboard: 0

[Editor]
DistanceSpacing: 1
BeatDivisor: 4
GridSize: 32
TimelineZoom: 1.1

[Metadata]
Title:Aizakura
TitleUnicode:Aizakura
Artist:Yui Sakakibara
ArtistUnicode:Yui Sakakibara
Creator:ajkirby2
Version:Insane
Source:
Tags:Stella Glow
BeatmapID:1517499
BeatmapSetID:718439

[Difficulty]
HPDrainRate:7
CircleSize:4
OverallDifficulty:6
ApproachRate:7
SliderMultiplier:1.99999990463257
SliderTickRate:1

[Events]
//Background and Video events
0,0,"stella_glow_img_1-noscale.jpg",0,0
//Break Periods
2,6303,8903
2,10969,12403
//Storyboard Layer 0 (Background)
//Storyboard Layer 1 (Fail)
//Storyboard Layer 2 (Pass)
//Storyboard Layer 3 (Foreground)
//Storyboard Sound Samples

[TimingPoints]
770,333.333333333333,4,1,0,100,1,0

[Colours]
Combo1 : 241,107,238
Combo2 : 255,0,0
Combo3 : 255,255,74
Combo4 : 251,121,4
Combo5 : 83,255,83

[HitObjects]
128,128,770,5,0,0:0:0:0:
352,128,1103,1,0,0:0:0:0:
160,256,1436,1,0,0:0:0:0:
256,32,1769,1,0,0:0:0:0:
352,256,2103,1,0,0:0:0:0:
352,320,2436,5,0,0:0:0:0:
352,320,2519,1,0,0:0:0:0:
352,320,2603,1,0,0:0:0:0:
352,320,2686,1,0,0:0:0:0:
352,320,2770,1,0,0:0:0:0:
128,320,3103,5,0,0:0:0:0:
128,320,3436,6,0,L|64:192,1,99.9999952316285
128,160,3770,2,0,L|192:288,1,99.9999952316285
256,256,4103,2,0,L|192:128,1,99.9999952316285
256,96,4436,2,0,L|320:224,1,99.9999952316285
256,192,4853,12,0,6103,0:0:0:0:
384,128,10103,5,0,0:0:0:0:
96,128,10436,1,0,0:0:0:0:
256,288,10769,1,0,0:0:0:0:
352,256,13603,6,0,P|327:338|223:306,1,199.999990463257
160,256,14103,2,0,B|38:271|56:88,1,199.999990463257
128,96,14770,1,0,0:0:0:0:
128,96,14853,1,0,0:0:0:0:
128,96,14936,2,0,P|203:63|229:82,1,99.9999952316285
288,160,15436,5,0,0:0:0:0:
160,160,15603,1,0,0:0:0:0:
288,256,15770,1,0,0:0:0:0:
224,96,15936,1,0,0:0:0:0:
160,256,16103,1,0,0:0:0:0:
256,128,16270,1,0,0:0:0:0:
160,256,16436,1,0,0:0:0:0:
256,256,16769,6,0,B|414:248|326:119|326:119,2,199.999990463257
256,256,17519,1,0,0:0:0:0:
256,256,17603,1,0,0:0:0:0:
256,256,17686,1,0,0:0:0:0:
256,256,17769,1,0,0:0:0:0:
192,96,18103,2,0,P|96:96|109:206,2,199.999990463257
192,96,18853,1,0,0:0:0:0:
192,96,18936,1,0,0:0:0:0:
192,96,19019,1,0,0:0:0:0:
192,96,19103,1,0,0:0:0:0:
64,256,19436,6,0,B|41:158|100:136,2,99.9999952316285
128,288,19936,2,0,B|255:380|134:123|293:263,1,199.999990463257
384,160,20603,2,0,B|381:38|316:63,2,99.9999952316285
384,160,21103,2,0,P|365:210|288:256,1,99.9999952316285
288,160,21603,1,0,0:0:0:0:
48,110,22103,6,0,P|32:192|160:256,1,199.999990463257
112,262,22520,1,0,0:0:0:0:
112,262,22603,1,0,0:0:0:0:
128,160,22769,2,0,P|256:160|277:246,1,199.999990463257
268,331,23436,2,0,P|365:268|333:172,1,199.999990463257
355,196,23853,1,0,0:0:0:0:
355,196,23936,1,0,0:0:0:0:
288,256,24103,2,0,P|256:128|320:96,1,199.999990463257
128,96,24769,5,0,0:0:0:0:
288,288,25103,1,0,0:0:0:0:
288,288,25269,2,0,P|288:160|192:128,2,199.999990463257
320,128,26269,1,0,0:0:0:0:
192,128,26436,1,0,0:0:0:0:
192,256,26603,1,0,0:0:0:0:
320,256,26769,1,0,0:0:0:0:
256,192,27103,5,0,0:0:0:0:
256,192,27269,1,0,0:0:0:0:
224,96,27436,5,0,0:0:0:0:
224,96,27603,2,0,P|193:113|119:194,1,99.9999952316285
206,279,28103,1,0,0:0:0:0:
206,279,28186,1,0,0:0:0:0:
206,279,28269,2,0,P|240:219|293:178,1,99.9999952316285
384,96,28769,5,0,0:0:0:0:
384,96,28936,2,0,P|391:149|362:231,1,99.9999952316285
160,128,29436,1,0,0:0:0:0:
160,128,29519,1,0,0:0:0:0:
160,128,29603,2,0,P|164:174|206:258,1,99.9999952316285
352,288,30103,6,0,L|239:289,2,99.9999952316285
425,234,30603,2,0,P|424:147|310:56,1,199.999990463257
320,256,31269,2,0,L|256:32,3,199.999990463257
265,63,32436,1,0,0:0:0:0:
265,63,32519,1,0,0:0:0:0:
265,63,32603,1,0,0:0:0:0:
128,32,32769,6,0,L|44:146,1,99.9999952316285
172,102,33103,2,0,L|227:202,1,99.9999952316285
118,176,33436,2,0,L|41:289,1,99.9999952316285
165,247,33769,2,0,L|228:360,1,99.9999952316285
352,352,34103,6,0,L|302:245,1,99.9999952316285
416,288,34436,2,0,L|463:170,1,99.9999952316285
357,199,34769,2,0,L|299:73,2,99.9999952316285
357,199,35186,1,0,0:0:0:0:
357,199,35269,1,0,0:0:0:0:
357,199,35353,1,0,0:0:0:0:
448,160,35519,5,0,0:0:0:0:
224,64,35769,1,0,0:0:0:0:
128,192,35936,1,0,0:0:0:0:
128,192,36269,1,0,0:0:0:0:
256,96,36603,1,0,0:0:0:0:
192,256,36936,1,0,0:0:0:0:
335,160,37103,1,0,0:0:0:0:
171,152,37269,1,0,0:0:0:0:
307,272,37436,1,0,0:0:0:0:
219,53,37769,5,0,0:0:0:0:
309,55,37936,1,0,0:0:0:0:
405,69,38103,6,0,P|329:137|193:181,1,199.999990463257
240,175,38519,1,0,0:0:0:0:
240,175,38603,2,0,P|133:204|52:295,1,199.999990463257
70,264,39019,1,0,0:0:0:0:
70,264,39103,2,0,P|157:306|287:255,3,199.999990463257
256,288,40436,1,0,0:0:0:0:
470,141,40769,6,0,P|352:94|246:109,1,199.999990463257
282,99,41186,1,0,0:0:0:0:
282,99,41269,2,0,L|213:292,1,199.999990463257
214,288,41686,1,0,0:0:0:0:
214,288,41769,2,0,P|110:277|0:192,3,199.999990463257
32,224,43103,1,0,0:0:0:0:
32,224,43269,1,0,0:0:0:0:
32,128,43436,6,0,B|170:-42|218:55|-93:407|308:365|448:128|416:128,1,599.999971389771
416,64,44769,6,0,B|585:295|-21:33|0:288,1,599.999971389771
96,288,46103,5,0,0:0:0:0:
96,96,46269,1,0,0:0:0:0:
160,192,46436,2,0,L|192:288,1,99.9999952316285
288,320,46769,1,0,0:0:0:0:
256,64,46936,1,0,0:0:0:0:
352,64,47103,6,0,L|320:160,1,99.9999952316285
288,224,47436,2,0,L|189:161,2,99.9999952316285
368,294,47937,1,0,0:0:0:0:
480,224,48103,1,0,0:0:0:0:
407,114,48269,1,0,0:0:0:0:
480,224,48436,1,0,0:0:0:0:
480,224,48519,1,0,0:0:0:0:
480,224,48603,1,0,0:0:0:0:
480,224,48769,6,0,B|446:127|278:-12|28:59|-12:187|71:279,1,599.999971389771
192,32,50103,6,0,B|242:175|9:221|181:376|331:379|522:283,1,599.999971389771
352,160,51436,5,0,0:0:0:0:
160,288,51769,1,0,0:0:0:0:
160,160,51936,2,0,P|211:85|314:155,1,199.999990463257
288,256,52603,1,0,0:0:0:0:
288,256,52936,1,0,0:0:0:0:
288,256,53103,1,0,0:0:0:0:
315,238,53187,1,0,0:0:0:0:
346,217,53270,1,0,0:0:0:0:
373,197,53353,1,0,0:0:0:0:
404,173,53436,1,0,0:0:0:0:
352,64,53769,1,0,0:0:0:0:
352,64,53936,1,0,0:0:0:0:
352,64,54269,6,0,P|256:128|243:151,1,99.9999952316285
416,128,54602,1,0,0:0:0:0:
320,224,54769,1,0,0:0:0:0:
224,320,55103,6,0,P|176:302|128:256,1,99.9999952316285
224,128,55603,1,0,0:0:0:0:
255,222,55769,2,0,L|223:126,2,99.9999952316285
384,192,56269,1,0,0:0:0:0:
256,192,56519,12,0,58769,0:0:0:0:
365,323,59436,6,0,B|441:226|331:132|264:177|155:208|117:58,1,399.999980926514
256,96,60436,1,0,0:0:0:0:
288,96,60519,1,0,0:0:0:0:
320,96,60603,1,0,0:0:0:0:
160,96,60769,6,0,P|72:178|74:344,1,249.999988079071
57,301,61269,1,0,0:0:0:0:
164,330,61436,2,0,P|298:296|345:211,1,199.999990463257
416,192,61936,1,0,0:0:0:0:
416,192,62019,1,0,0:0:0:0:
416,192,62103,6,0,P|331:175|224:96,1,199.999990463257
133,110,62603,2,0,P|107:182|207:249,1,199.999990463257
210,274,63102,1,0,0:0:0:0:
226,290,63186,1,0,0:0:0:0:
247,308,63269,1,0,0:0:0:0:
417,254,63436,6,0,L|449:190,2,49.9999976158143
364,178,63769,2,0,L|369:106,2,49.9999976158143
288,160,64103,2,0,L|256:224,2,49.9999976158143
208,134,64436,2,0,L|226:68,2,49.9999976158143
288,32,64769,2,0,L|416:66,1,99.9999952316285
288,32,65103,2,0,L|192:64,1,99.9999952316285
160,96,65436,5,0,0:0:0:0:
160,96,65519,1,0,0:0:0:0:
160,96,65603,1,0,0:0:0:0:
96,224,65769,1,0,0:0:0:0:
128,224,65853,1,0,0:0:0:0:
160,224,65936,1,0,0:0:0:0:
271,247,66103,6,0,L|423:89,1,199.999990463257
192,64,66603,1,0,0:0:0:0:
101,165,66769,1,0,0:0:0:0:
101,165,66853,1,0,0:0:0:0:
101,165,66936,1,0,0:0:0:0:
192,256,67103,1,0,0:0:0:0:
