osu file format v14

[General]
AudioFilename: audio.mp3
AudioLeadIn: 0
PreviewTime: 53773
Countdown: 0
SampleSet: Soft
StackLeniency: 0.7
Mode: 0
LetterboxInBreaks: 0
WidescreenStoryboard: 1

[Editor]
Bookmarks: 3261,8886,23886,38886,46386,53886,68886,83886
DistanceSpacing: 1.3
BeatDivisor: 4
GridSize: 32
TimelineZoom: 2.400005

[Metadata]
Title:100Nyan Power de Yumegokoti
TitleUnicode:100にゃんパワーで夢心地
Artist:Yui Sakakibara
ArtistUnicode:榊原ゆい
Creator:Kisses
Version:Light Insane
Source:ネコぱら vol.2 姉妹ネコのシュクレ
Tags:NEKO WORKs Nekopara eroge VN galgame visual novel sun ending Sinitiro Yamashita Team-OZ
BeatmapID:1347556
BeatmapSetID:635037

[Difficulty]
HPDrainRate:5
CircleSize:4
OverallDifficulty:6.5
ApproachRate:7.5
SliderMultiplier:1.7
SliderTickRate:1

[Events]
//Background and Video events
0,0,"678438.jpg",0,0
//Break Periods
//Storyboard Layer 0 (Background)
//Storyboard Layer 1 (Fail)
//Storyboard Layer 2 (Pass)
//Storyboard Layer 3 (Foreground)
//Storyboard Sound Samples

[TimingPoints]
1374,468.75,4,2,0,40,1,0
3249,-125,4,2,0,50,0,0
8405,-125,4,2,0,5,0,0
8874,-100,4,2,0,60,0,0
16139,-100,4,2,0,30,0,0
16374,-100,4,2,0,60,0,0
23874,-125,4,2,0,40,0,0
46374,-125,4,2,0,50,0,0
48249,-117.647058823529,4,2,0,50,0,0
50124,-111.111111111111,4,2,0,60,0,0
52467,-100,4,2,0,65,0,0
53053,-90.9090909090909,4,2,0,65,0,0
53405,-76.9230769230769,4,2,0,65,0,0
53874,-90.9090909090909,4,2,0,70,0,1
83874,-100,4,2,0,60,0,0
91139,-100,4,2,0,30,0,0
91374,-100,4,2,0,60,0,0
102624,-100,4,2,0,5,0,0

[Colours]
Combo1 : 255,34,56
Combo2 : 221,145,30
Combo3 : 126,202,248
Combo4 : 167,63,167

[HitObjects]
256,192,124,12,0,2780,1:0:0:0:
233,205,3249,6,0,L|364:196,2,102,4|0|0,0:0|0:0|0:0,0:0:0:0:
156,272,4186,2,0,P|133:216|157:140,1,136,2|2,0:0|0:0,0:0:0:0:
217,70,4889,1,0,0:0:0:0:
217,70,5124,6,0,P|187:52|135:48,1,68,2|0,0:0|0:0,0:0:0:0:
15,126,5592,2,0,P|48:119|77:102,1,68,2|0,0:0|0:0,0:0:0:0:
152,145,6061,2,0,L|159:302,1,136,2|0,0:0|0:0,0:0:0:0:
238,344,6764,1,2,0:0:0:0:
310,271,6999,6,0,P|378:252|446:285,1,136,2|0,0:0|0:0,0:0:0:0:
503,128,7936,2,0,P|439:121|363:112,1,136,2|0,0:0|0:0,0:0:0:0:
193,20,8874,6,0,L|185:170,1,127.5,6|0,0:2|0:0,0:0:0:0:
148,176,9342,2,0,P|109:159|52:166,1,85,2|0,1:2|0:0,0:0:0:0:
97,335,9811,2,0,L|92:251,1,85,2|0,1:2|0:0,0:0:0:0:
201,265,10280,1,2,1:2:0:0:
201,265,10514,1,2,0:2:0:0:
297,313,10749,6,0,P|308:272|301:230,1,85,2|0,1:2|0:0,0:0:0:0:
232,60,11217,2,0,P|225:101|236:142,1,85,2|0,1:2|0:0,0:0:0:0:
434,81,11686,2,0,P|393:70|351:76,1,85,2|0,1:2|0:0,0:0:0:0:
320,100,12038,1,2,0:0:0:0:
320,100,12155,2,0,B|329:252,1,127.5,2|0,1:2|0:0,0:0:0:0:
313,267,12624,6,0,P|259:237|183:257,1,127.5,2|0,1:2|0:0,0:0:0:0:
171,279,13092,2,0,L|164:363,1,85,2|0,1:2|0:0,0:0:0:0:
16,216,13561,2,0,P|56:201|99:203,1,85,2|0,1:2|0:0,0:0:0:0:
166,116,14030,1,2,1:2:0:0:
166,116,14264,1,2,0:0:0:0:
261,164,14499,6,0,P|273:123|268:81,1,85,2|0,1:2|0:0,0:0:0:0:
66,55,14967,2,0,P|54:96|59:138,1,85,2|0,1:2|0:0,0:0:0:0:
15,240,15436,1,2,1:2:0:0:
124,220,15670,1,2,0:0:0:0:
232,199,15905,2,0,P|262:248|239:313,1,127.5,2|0,1:2|0:0,0:0:0:0:
208,343,16374,6,0,P|272:333|325:362,1,127.5,2|0,1:2|0:0,0:0:0:0:
361,352,16842,2,0,P|402:359|443:347,1,85,2|0,1:2|0:0,0:0:0:0:
402,178,17311,2,0,P|407:220|395:261,1,85,2|0,1:2|0:0,0:0:0:0:
294,308,17780,1,2,1:2:0:0:
294,308,18014,1,2,0:0:0:0:
220,203,18249,6,0,L|305:211,1,85,2|0,1:2|0:0,0:0:0:0:
143,281,18717,2,0,L|58:273,1,85,2|0,1:2|0:0,0:0:0:0:
34,165,19186,2,0,L|31:121,2,42.5,0|0|0,1:0|1:0|1:0,0:0:0:0:
144,175,19655,2,0,L|136:295,1,85,2|2,1:2|0:0,0:0:0:0:
157,308,20006,1,2,0:0:0:0:
157,308,20124,6,0,B|241:279|245:342|323:314,1,170,2|0,1:2|1:0,0:0:0:0:
288,220,20827,1,2,0:2:0:0:
397,211,21061,1,2,1:2:0:0:
454,304,21295,1,2,0:2:0:0:
415,200,21530,1,2,1:2:0:0:
512,147,21764,1,2,0:2:0:0:
344,114,21999,5,0,1:0:0:0:
270,321,22467,1,0,1:0:0:0:
122,189,22936,1,0,1:0:0:0:
13,201,23170,1,0,1:0:0:0:
231,177,23405,2,0,P|259:130|239:61,1,127.5,6|0,1:2|0:0,0:0:0:0:
246,28,23874,6,0,P|196:65|122:49,1,136,4|0,0:0|0:0,0:0:0:0:
40,71,24577,1,2,0:0:0:0:
103,149,24811,1,2,0:0:0:0:
103,149,25280,1,2,0:0:0:0:
103,149,25749,6,0,P|153:128|214:144,1,102,2|0,0:0|0:0,0:0:0:0:
226,153,26217,2,0,L|219:234,1,68,2|2,0:0|0:0,0:0:0:0:
289,285,26686,2,0,P|232:315|161:293,1,136,2|0,0:0|0:0,0:0:0:0:
93,358,27389,1,2,0:0:0:0:
93,358,27624,6,0,P|163:351|247:347,1,136,2|0,0:0|0:0,0:0:0:0:
266,260,28327,1,2,0:0:0:0:
360,302,28561,1,2,0:0:0:0:
360,302,29030,1,2,0:0:0:0:
360,302,29499,6,0,L|366:200,1,102,2|0,0:0|0:0,0:0:0:0:
357,173,29967,2,0,P|324:160|277:165,1,68,2|0,0:0|0:0,0:0:0:0:
214,103,30436,2,0,L|210:68,2,34,2|0|0,0:0|0:0|0:0,0:0:0:0:
147,231,30905,2,0,P|138:198|143:163,1,68
68,68,31374,6,0,B|131:97|147:42|217:72,1,136,2|0,0:0|0:0,0:0:0:0:
269,10,32077,1,2,0:0:0:0:
269,10,32311,2,0,P|313:10|344:26,1,68,2|0,0:0|0:0,0:0:0:0:
382,93,32780,1,0,0:0:0:0:
328,163,33014,6,0,L|337:246,1,68,2|0,0:0|0:0,0:0:0:0:
389,356,33483,2,0,P|402:325|404:291,1,68,2|0,0:0|0:0,0:0:0:0:
468,230,33952,2,0,L|480:122,1,102,2|0,0:0|0:0,0:0:0:0:
463,106,34420,2,0,P|400:84|343:120,1,136,2|0,0:0|0:0,0:0:0:0:
196,240,35124,6,0,P|140:206|121:137,1,136,2|0,0:0|0:0,0:0:0:0:
63,61,35827,2,0,P|93:46|127:42,1,68,2|0,0:0|0:0,0:0:0:0:
209,100,36295,2,0,P|224:70|228:36,1,68,2|0,0:0|0:0,0:0:0:0:
325,154,36764,2,0,L|317:70,1,68,2|0,0:0|0:0,0:0:0:0:
425,132,37233,5,2,0:0:0:0:
425,132,37467,2,0,P|416:67|457:15,1,136,2|0,0:0|0:0,0:0:0:0:
508,91,38170,1,2,0:0:0:0:
512,110,38288,2,0,L|505:158,1,34,0|0,1:0|0:0,0:0:0:0:
464,206,38522,2,0,L|471:254,1,34,0|0,1:0|0:0,0:0:0:0:
426,372,38874,6,0,P|374:344|299:360,1,136,4|0,0:0|1:0,0:0:0:0:
213,306,39577,2,0,L|205:158,1,136,2|0,0:0|0:0,0:0:0:0:
107,142,40280,1,0,1:0:0:0:
95,123,40397,2,0,L|98:66,1,34,0|0,1:0|0:0,0:0:0:0:
181,16,40749,5,0,1:0:0:0:
181,16,40983,1,0,0:0:0:0:
224,108,41217,1,2,0:0:0:0:
303,43,41452,2,0,L|415:35,1,102,2|0,0:0|1:0,0:0:0:0:
440,34,41920,1,0,1:0:0:0:
492,121,42155,2,0,L|485:179,2,34,0|0|2,1:0|1:0|0:0,0:0:0:0:
397,160,42624,6,0,P|365:222|392:289,1,136,2|0,0:0|1:0,0:0:0:0:
463,325,43327,2,0,L|326:334,1,136,2|0,0:0|0:0,0:0:0:0:
279,255,44030,1,0,1:0:0:0:
260,242,44147,2,0,L|225:239,1,34,0|0,1:0|0:0,0:0:0:0:
345,167,44499,5,0,1:0:0:0:
345,167,44733,1,0,0:0:0:0:
300,75,44967,1,0,1:0:0:0:
205,135,45202,2,0,L|103:143,1,102,2|0,0:0|1:0,0:0:0:0:
68,146,45670,1,0,1:0:0:0:
16,229,45905,2,0,L|10:269,1,34,0|0,1:0|0:0,0:0:0:0:
71,319,46139,2,0,L|75:365,1,34,0|0,1:0|0:0,0:0:0:0:
138,263,46374,6,0,P|208:241|261:275,1,136,4|0,0:0|1:0,0:0:0:0:
311,358,47077,1,2,0:0:0:0:
359,268,47311,2,0,L|509:256,1,136,2|0,0:0|1:0,0:0:0:0:
288,189,48249,6,0,P|253:255|270:324,1,144.500002756119,2|0,0:0|1:0,0:0:0:0:
178,373,48952,1,2,0:0:0:0:
178,373,49186,2,0,L|101:357,1,72.2500013780594,2|0,0:0|0:0,0:0:0:0:
119,250,49655,2,0,P|82:251|49:265,1,72.2500013780594,0|0,1:0|0:0,0:0:0:0:
23,152,50124,6,0,P|99:169|163:116,1,152.999995330811,2|0,0:0|1:0,0:0:0:0:
254,71,50827,2,0,L|99:83,1,152.999995330811,2|0,0:0|0:0,0:0:0:0:
121,201,51530,1,0,1:0:0:0:
228,175,51764,1,0,1:0:0:0:
227,149,51881,1,0,1:0:0:0:
227,149,52233,5,0,1:0:0:0:
305,245,52467,2,0,P|359:215|427:235,1,127.5,4|0,1:2|0:0,0:0:0:0:
464,230,52936,1,0,1:0:0:0:
464,230,53053,2,0,L|474:121,1,93.5000028533936,0|0,1:0|0:0,0:0:0:0:
413,60,53405,1,4,1:2:0:0:
413,60,53874,6,0,L|305:50,1,93.5000028533936,4|0,1:2|0:0,0:0:0:0:
228,4,54342,2,0,P|181:-1|138:14,1,93.5000028533936,0|0,1:0|0:0,0:0:0:0:
60,78,54811,1,2,1:2:0:0:
47,95,54928,2,0,L|52:147,1,46.7500014266968,2|0,0:0|0:0,0:0:0:0:
39,191,55163,2,0,P|87:155|171:180,1,140.25000428009,2|2,0:0|0:0,0:0:0:0:
261,222,55749,5,0,1:0:0:0:
250,106,55983,1,0,0:0:0:0:
134,135,56217,1,0,1:0:0:0:
152,33,56452,1,0,0:0:0:0:
64,172,56686,2,0,L|111:166,2,46.7500014266968,0|0|0,1:0|0:0|0:0,0:0:0:0:
115,280,57155,2,0,P|168:289|217:266,1,93.5000028533936,0|0,1:0|0:0,0:0:0:0:
247,183,57624,6,0,L|236:337,1,140.25000428009,0|0,1:0|0:0,0:0:0:0:
251,357,58092,2,0,P|295:343|340:352,1,93.5000028533936,0|0,1:0|0:0,0:0:0:0:
421,289,58561,2,0,L|424:335,2,46.7500014266968,2|0|0,1:2|0:0|0:0,0:0:0:0:
386,242,58913,2,0,P|442:279|518:249,1,140.25000428009,2|2,0:0|0:0,0:0:0:0:
422,148,59499,5,0,1:0:0:0:
320,179,59733,1,0,0:0:0:0:
376,292,59967,1,0,1:0:0:0:
300,194,60202,1,0,0:0:0:0:
197,305,60436,2,0,L|243:297,1,46.7500014266968,0|0,1:0|0:0,0:0:0:0:
294,373,60670,2,0,L|247:380,1,46.7500014266968,8|0,1:2|0:0,0:0:0:0:
138,363,60905,2,0,P|115:316|147:238,1,140.25000428009,8|0,1:2|0:0,0:0:0:0:
152,208,61374,6,0,L|50:192,1,93.5000028533936,0|0,1:0|0:0,0:0:0:0:
86,96,61842,2,0,P|132:79|201:86,1,93.5000028533936,0|0,1:0|0:0,0:0:0:0:
266,127,62311,1,2,1:2:0:0:
274,106,62428,2,0,L|267:42,1,46.7500014266968,2|0,0:0|0:0,0:0:0:0:
283,30,62663,2,0,P|353:51|429:10,1,140.25000428009,2|2,0:0|0:0,0:0:0:0:
456,133,63249,5,0,1:0:0:0:
382,205,63483,1,0,0:0:0:0:
350,84,63717,1,0,1:0:0:0:
357,224,63952,1,0,0:0:0:0:
238,157,64186,2,0,L|284:153,2,46.7500014266968,0|0|0,1:0|0:0|0:0,0:0:0:0:
159,223,64655,2,0,P|134:171|154:94,1,140.25000428009,0|0,1:0|0:0,0:0:0:0:
179,64,65124,6,0,B|115:25|63:110|-3:74,1,187.000005706787,6|0,1:2|1:0,0:0:0:0:
47,184,65827,1,2,0:0:0:0:
47,184,66061,2,2,P|68:228|57:282,1,93.5000028533936,2|0,1:2|0:0,0:0:0:0:
41,311,66413,2,0,L|201:297,1,140.25000428009,2|2,0:0|0:0,0:0:0:0:
334,218,66999,6,0,P|289:204|244:211,1,93.5000028533936,2|0,1:2|0:0,0:0:0:0:
212,226,67350,2,0,L|222:55,1,140.25000428009,2|2,0:0|0:0,0:0:0:0:
84,34,67936,1,0,1:0:0:0:
84,34,68170,1,0,1:0:0:0:
27,158,68405,2,0,L|94:149,1,46.7500014266968,0|0,1:0|0:0,0:0:0:0:
156,111,68639,2,0,L|210:118,1,46.7500014266968,0|0,1:0|0:0,0:0:0:0:
267,185,68874,6,0,P|293:228|283:284,1,93.5000028533936,4|0,1:2|0:0,0:0:0:0:
344,362,69342,2,0,L|448:349,1,93.5000028533936,0|0,1:0|0:0,0:0:0:0:
498,283,69811,1,2,1:2:0:0:
509,261,69928,2,0,L|502:206,1,46.7500014266968,2|0,0:0|0:0,0:0:0:0:
479,192,70163,2,0,P|417:207|350:167,1,140.25000428009,2|2,0:0|0:0,0:0:0:0:
291,296,70749,5,0,1:0:0:0:
234,210,70983,1,0,0:0:0:0:
384,233,71217,1,0,1:0:0:0:
377,130,71452,1,0,0:0:0:0:
406,254,71686,2,0,L|462:247,2,46.7500014266968,0|0|0,1:0|0:0|0:0,0:0:0:0:
349,340,72155,2,0,P|303:344|254:321,1,93.5000028533936,0|0,1:0|0:0,0:0:0:0:
234,210,72624,6,0,L|81:226,1,140.25000428009,0|0,1:0|0:0,0:0:0:0:
64,212,73092,2,0,P|45:170|61:111,1,93.5000028533936,0|0,1:0|0:0,0:0:0:0:
125,47,73561,1,2,1:2:0:0:
136,67,73678,2,0,L|140:124,1,46.7500014266968,2|0,0:0|0:0,0:0:0:0:
136,160,73913,2,0,P|197:129|280:144,1,140.25000428009,2|2,0:0|0:0,0:0:0:0:
329,265,74499,5,0,1:0:0:0:
220,244,74733,1,0,0:0:0:0:
240,357,74967,1,0,1:0:0:0:
196,266,75202,1,0,0:0:0:0:
140,384,75436,2,0,L|93:377,1,46.7500014266968,0|0,1:0|0:0,0:0:0:0:
15,316,75670,2,0,L|61:309,1,46.7500014266968,8|0,1:2|0:0,0:0:0:0:
110,244,75905,1,8,1:2:0:0:
13,167,76139,1,0,1:0:0:0:
11,164,76256,1,0,1:0:0:0:
9,161,76374,6,0,P|75:111|171:143,1,187.000005706787,4|0,1:2|1:0,0:0:0:0:
217,239,77077,2,0,L|203:44,1,187.000005706787,2|2,0:0|0:0,0:0:0:0:
321,0,77780,1,2,1:2:0:0:
311,102,78014,1,2,0:0:0:0:
414,57,78249,6,0,L|519:64,1,93.5000028533936,2|0,1:2|0:0,0:0:0:0:
479,156,78717,2,0,P|442:174|387:170,1,93.5000028533936,2|0,1:2|0:0,0:0:0:0:
219,39,79186,2,0,B|311:7|315:76|401:45,1,187.000005706787,2|0,1:2|1:0,0:0:0:0:
482,107,79889,1,2,0:0:0:0:
482,107,80124,6,0,L|472:217,2,93.5000028533936,2|2|0,1:2|0:0|1:0,0:0:0:0:
397,47,80827,1,2,0:0:0:0:
383,62,80944,2,0,P|333:95|253:74,1,140.25000428009,2|2,0:0|0:0,0:0:0:0:
151,147,81530,1,0,1:0:0:0:
80,72,81764,1,2,0:0:0:0:
60,198,81999,6,0,P|149:187|261:178,1,187.000005706787,0|0,1:0|1:0,0:0:0:0:
290,282,82702,1,0,0:0:0:0:
389,254,82936,1,0,1:0:0:0:
389,254,83053,1,0,1:0:0:0:
389,254,83170,1,0,1:0:0:0:
325,172,83405,2,0,L|277:166,1,46.7500014266968,0|0,1:0|0:0,0:0:0:0:
212,113,83639,2,0,L|142:123,1,46.7500014266968,0|0,1:0|0:0,0:0:0:0:
101,182,83874,6,0,P|79:145|95:63,1,127.5,4|0,1:2|0:0,0:0:0:0:
105,26,84342,2,0,L|219:39,1,85,2|0,1:2|0:0,0:0:0:0:
368,80,84811,2,0,P|326:75|286:88,1,85,2|0,1:2|0:0,0:0:0:0:
223,180,85280,1,2,1:2:0:0:
223,180,85514,1,2,0:2:0:0:
351,291,85749,6,0,L|343:206,1,85,2|0,1:2|0:0,0:0:0:0:
438,54,86217,2,0,L|431:139,1,85,2|0,1:2|0:0,0:0:0:0:
343,206,86686,2,0,P|303:221|262:215,1,85,2|0,1:2|0:0,0:0:0:0:
229,199,87038,1,2,0:0:0:0:
229,199,87155,2,0,L|241:352,1,127.5,2|0,1:2|0:0,0:0:0:0:
232,368,87624,6,0,P|295:341|361:357,1,127.5,2|0,1:2|0:0,0:0:0:0:
383,372,88092,2,0,L|389:275,1,85,2|0,1:2|0:0,0:0:0:0:
512,186,88561,2,0,P|468:182|429:196,1,85,2|0,1:2|0:0,0:0:0:0:
339,132,89030,1,2,1:2:0:0:
339,132,89264,1,2,0:0:0:0:
218,237,89499,6,0,L|302:230,1,85,2|0,1:2|0:0,0:0:0:0:
148,333,89967,2,0,L|63:338,1,85,2|0,1:2|0:0,0:0:0:0:
8,242,90436,1,2,1:2:0:0:
117,226,90670,1,2,0:0:0:0:
226,208,90905,2,0,P|259:157|237:86,1,127.5,2|0,1:2|0:0,0:0:0:0:
206,61,91374,6,0,L|335:51,1,127.5,2|0,1:2|0:0,0:0:0:0:
356,25,91842,2,0,L|440:30,1,85,2|0,1:2|0:0,0:0:0:0:
508,181,92311,2,0,P|520:141|512:99,1,85,2|0,1:2|0:0,0:0:0:0:
425,136,92780,1,2,1:2:0:0:
425,136,93014,1,2,0:0:0:0:
359,245,93249,6,0,L|370:338,1,85,2|0,1:2|0:0,0:0:0:0:
499,271,93717,2,0,L|509:186,1,85,0|0,1:2|0:0,0:0:0:0:
425,136,94186,2,0,L|418:77,2,42.5,0|0|0,1:0|1:0|1:0,0:0:0:0:
321,118,94655,2,0,P|318:77|335:36,1,85,2|0,1:2|0:0,0:0:0:0:
368,14,95006,1,2,0:0:0:0:
368,14,95124,6,0,B|310:-4|268:57|198:21,1,170,2|0,1:2|1:0,0:0:0:0:
123,91,95827,1,2,0:0:0:0:
152,229,96061,1,2,1:2:0:0:
236,152,96295,1,2,0:0:0:0:
153,249,96530,1,2,1:2:0:0:
258,282,96764,1,2,0:0:0:0:
83,350,96999,5,0,1:0:0:0:
310,382,97467,1,0,1:0:0:0:
216,181,97936,1,0,1:0:0:0:
325,170,98170,1,0,1:0:0:0:
107,192,98405,2,0,P|79:145|99:76,1,127.5,6|0,1:2|0:0,0:0:0:0:
117,59,98874,5,4,0:0:0:0:
256,192,98991,12,0,102624,0:0:0:0:
