osu file format v14

[General]
AudioFilename: audio.mp3
AudioLeadIn: 0
PreviewTime: 53773
Countdown: 0
SampleSet: Soft
StackLeniency: 0.7
Mode: 0
LetterboxInBreaks: 0
WidescreenStoryboard: 1

[Editor]
Bookmarks: 3261,8886,23886,38886,46386,68886,83886
DistanceSpacing: 0.9
BeatDivisor: 2
GridSize: 32
TimelineZoom: 1

[Metadata]
Title:100Nyan Power de Yumegokoti
TitleUnicode:100にゃんパワーで夢心地
Artist:Yui Sakakibara
ArtistUnicode:榊原ゆい
Creator:Kisses
Version:Easy
Source:ネコぱら vol.2 姉妹ネコのシュクレ
Tags:NEKO WORKs Nekopara eroge VN galgame visual novel sun ending Sinitiro Yamashita Team-OZ
BeatmapID:1347554
BeatmapSetID:635037

[Difficulty]
HPDrainRate:3
CircleSize:3.2
OverallDifficulty:2.5
ApproachRate:3
SliderMultiplier:1.1
SliderTickRate:1

[Events]
//Background and Video events
0,0,"678438.jpg",0,0
//Break Periods
//Storyboard Layer 0 (Background)
//Storyboard Layer 1 (Fail)
//Storyboard Layer 2 (Pass)
//Storyboard Layer 3 (Foreground)
//Storyboard Sound Samples

[TimingPoints]
1374,468.75,4,2,0,40,1,0
3249,-100,4,2,0,50,0,0
8874,-100,4,2,0,60,0,0
23874,-100,4,2,0,40,0,0
38874,-100,4,2,0,60,0,0
53874,-100,4,2,0,70,0,1
83874,-100,4,2,0,60,0,0
102624,-100,4,2,0,5,0,0

[Colours]
Combo1 : 255,34,56
Combo2 : 221,145,30
Combo3 : 126,202,248
Combo4 : 167,63,167

[HitObjects]
73,155,2780,5,0,1:0:0:0:
131,247,3248,6,0,P|221:189|325:228,1,220,4|0,0:0|0:0,0:0:0:0:
406,97,5124,2,0,B|474:81|474:81|445:249,1,220,2|0,0:0|0:0,0:0:0:0:
347,343,6999,2,0,P|254:300|329:261,1,220,2|0,0:0|0:0,0:0:0:0:
419,145,8874,6,0,L|304:132,1,110,4|0,0:2|1:2,0:0:0:0:
236,66,9811,2,0,P|210:115|221:178,1,110,0|0,1:2|1:0,0:0:0:0:
263,254,10749,2,0,L|153:266,2,110,0|0|0,1:2|1:2|1:0,0:0:0:0:
338,317,12155,1,0,1:2:0:0:
417,257,12624,6,0,L|431:145,1,110,0|0,1:2|1:2,0:0:0:0:
367,71,13561,2,0,P|311:61|261:84,1,110,0|0,1:2|1:0,0:0:0:0:
216,168,14499,1,0,1:2:0:0:
138,107,14967,1,0,1:2:0:0:
78,186,15436,2,0,L|84:247,2,55,0|0|0,1:2|0:0|1:2,0:0:0:0:
138,107,16374,6,0,P|193:86|251:99,1,110,0|0,1:2|1:2,0:0:0:0:
331,136,17311,2,0,P|384:144|435:123,1,110,0|0,1:2|1:2,0:0:0:0:
507,190,18249,2,0,L|495:304,2,110,0|0|0,1:2|1:2|1:0,0:0:0:0:
435,123,19655,1,0,1:2:0:0:
360,188,20124,6,0,B|285:244|237:136|151:191,1,220,0|0,1:2|1:2,0:0:0:0:
80,259,21530,1,0,1:2:0:0:
142,337,21999,2,0,P|196:318|256:331,1,110,0|0,1:0|1:0,0:0:0:0:
327,269,22936,2,0,L|321:213,2,55,0|0|4,1:0|1:0|0:0,0:0:0:0:
405,337,23874,6,0,P|428:293|415:215,1,110,4|0,0:0|0:0,0:0:0:0:
376,147,24811,1,2,0:0:0:0:
245,295,25749,6,0,P|190:290|134:285,1,110,2|0,0:0|0:0,0:0:0:0:
36,278,26686,1,2,0:0:0:0:
131,104,27624,6,0,P|183:126|245:115,1,110,2|0,0:0|0:0,0:0:0:0:
325,79,28561,1,2,0:0:0:0:
454,228,29499,6,0,B|461:100,1,110,2|0,0:0|0:0,0:0:0:0:
466,19,30436,1,2,0:0:0:0:
268,34,31374,6,0,L|281:155,1,110,2|0,0:0|0:0,0:0:0:0:
294,241,32311,1,2,0:0:0:0:
420,84,33249,6,0,P|370:60|317:67,1,110,2|0,0:0|0:0,0:0:0:0:
229,113,34186,1,2,0:0:0:0:
34,73,35124,6,0,P|41:159|48:248,1,165,2|2,0:0|0:0,0:0:0:0:
110,313,36295,1,2,0:0:0:0:
175,238,36764,2,0,B|270:199|329:287|329:287|362:241|418:238,1,275,2|0,0:0|0:0,0:0:0:0:
419,342,38405,1,2,0:0:0:0:
500,285,38874,6,0,L|506:107,2,165,4|2|0,0:0|0:0|1:0,0:0:0:0:
418,342,40749,2,0,P|341:352|296:287,2,165,2|2|0,0:0|0:0|1:0,0:0:0:0:
429,243,42624,6,0,L|417:76,2,165,2|2|0,0:0|0:0|1:0,0:0:0:0:
366,320,44499,2,0,P|446:342|512:298,2,165,2|2|0,0:0|0:0|1:0,0:0:0:0:
294,251,46374,6,0,L|301:141,1,110,4|0,0:0|1:0,0:0:0:0:
248,57,47311,2,0,P|194:46|143:64,1,110,2|0,0:0|1:0,0:0:0:0:
45,80,48249,2,0,L|52:189,1,110,2|0,0:0|1:0,0:0:0:0:
81,284,49186,2,0,P|134:294|185:276,1,110,2|0,0:0|1:0,0:0:0:0:
256,192,50124,12,0,51881,1:0:0:0:
388,195,53874,6,0,L|399:305,1,110,4|0,1:2|1:0,0:0:0:0:
307,345,54811,2,0,L|296:235,1,110,0|0,1:2|1:0,0:0:0:0:
330,142,55749,1,0,1:0:0:0:
247,88,56217,1,0,1:0:0:0:
200,175,56686,2,0,P|145:186|87:164,1,110,0|0,1:0|1:0,0:0:0:0:
31,246,57624,6,0,L|42:375,2,110,0|0|0,1:0|1:0|1:2,0:0:0:0:
94,169,59030,1,0,1:0:0:0:
172,229,59499,2,0,L|293:215,1,110,0|0,1:0|1:0,0:0:0:0:
365,269,60436,1,0,1:0:0:0:
380,171,60905,1,8,1:2:0:0:
318,93,61374,6,0,L|207:78,1,110,0|0,1:0|1:0,0:0:0:0:
123,27,62311,2,0,P|108:82|126:133,1,110,0|0,1:2|1:0,0:0:0:0:
214,172,63249,1,0,1:0:0:0:
222,270,63717,1,0,1:0:0:0:
307,219,64186,2,0,L|431:208,1,110,0|0,1:0|1:0,0:0:0:0:
472,291,65124,6,0,P|397:352|284:306,1,220,4|0,1:2|1:2,0:0:0:0:
224,239,66530,1,0,1:0:0:0:
152,307,66999,2,0,L|16:299,1,110,0|0,1:2|1:0,0:0:0:0:
9,207,67936,2,0,L|6:152,2,55,0|0|0,1:0|1:0|1:0,0:0:0:0:
102,173,68874,6,0,P|152:153|218:166,1,110,4|0,1:2|1:0,0:0:0:0:
305,159,69811,2,0,L|293:26,1,110,0|0,1:2|1:0,0:0:0:0:
201,15,70749,1,0,1:0:0:0:
139,91,71217,1,0,1:0:0:0:
52,42,71686,2,0,P|39:95|61:152,1,110,0|0,1:0|1:0,0:0:0:0:
137,203,72624,6,0,L|248:192,2,110,0|0|0,1:0|1:0|1:2,0:0:0:0:
116,299,74030,1,0,1:0:0:0:
23,263,74499,2,0,P|9:212|22:148,1,110,0|0,1:0|1:0,0:0:0:0:
112,126,75436,1,0,1:0:0:0:
108,27,75905,1,8,1:2:0:0:
195,73,76374,6,0,P|291:117|390:51,1,220,4|0,1:2|1:0,0:0:0:0:
475,28,77780,1,0,1:2:0:0:
511,119,78249,2,0,L|501:254,2,110,0|0|0,1:2|1:2|1:2,0:0:0:0:
435,54,79655,1,0,1:0:0:0:
364,123,80124,6,0,P|318:145|256:138,1,110,0|0,1:2|1:0,0:0:0:0:
174,91,81061,2,0,P|128:69|66:76,1,110,0|0,1:2|1:0,0:0:0:0:
11,153,81999,2,0,L|21:278,1,110,0|0,1:0|1:0,0:0:0:0:
73,345,82936,1,0,1:0:0:0:
170,329,83405,1,0,1:0:0:0:
112,248,83874,6,0,P|163:229|221:244,1,110,4|0,1:2|1:2,0:0:0:0:
312,271,84811,2,0,P|365:280|415:259,1,110,0|0,1:0|1:2,0:0:0:0:
471,178,85749,2,0,L|478:63,2,110,0|0|0,1:2|1:2|1:2,0:0:0:0:
415,259,87155,1,0,1:2:0:0:
332,203,87624,6,0,P|311:157|323:93,1,110,0|0,1:2|1:2,0:0:0:0:
247,32,88561,2,0,P|195:50|143:37,1,110,0|0,1:2|1:2,0:0:0:0:
46,58,89499,1,0,1:2:0:0:
67,154,89967,1,0,1:2:0:0:
31,246,90436,2,0,L|35:301,2,55,0|0|0,1:2|0:0|1:2,0:0:0:0:
130,242,91374,6,0,L|253:229,1,110,0|0,1:2|1:2,0:0:0:0:
264,134,92311,2,0,L|154:145,1,110,0|0,1:2|1:0,0:0:0:0:
74,203,93249,2,0,P|55:156|67:98,2,110,0|0|0,1:2|1:2|1:0,0:0:0:0:
104,297,94655,1,0,1:2:0:0:
188,245,95124,6,0,B|274:190|322:298|399:245,1,220,0|0,1:2|1:2,0:0:0:0:
447,161,96530,1,0,1:2:0:0:
386,82,96999,2,0,L|255:90,1,110,0|0,1:0|1:0,0:0:0:0:
179,69,97936,2,0,L|173:11,2,55,0|0|6,1:0|1:0|1:2,0:0:0:0:
113,143,98874,5,4,0:0:0:0:
256,192,99108,12,0,102624,0:0:0:0:
