osu file format v14

[General]
AudioFilename: audio.mp3
AudioLeadIn: 0
PreviewTime: 53773
Countdown: 0
SampleSet: Soft
StackLeniency: 0.7
Mode: 0
LetterboxInBreaks: 0
WidescreenStoryboard: 1

[Editor]
Bookmarks: 3261,8886,23886,38886,46386,53773,68886,83886
DistanceSpacing: 1.1
BeatDivisor: 4
GridSize: 32
TimelineZoom: 2.5

[Metadata]
Title:100Nyan Power de Yumegokoti
TitleUnicode:100にゃんパワーで夢心地
Artist:Yui Sakakibara
ArtistUnicode:榊原ゆい
Creator:Kisses
Version:Neko Kisses
Source:ネコぱら vol.2 姉妹ネコのシュクレ
Tags:NEKO WORKs Nekopara eroge VN galgame visual novel sun ending Sinitiro Yamashita Team-OZ
BeatmapID:1347535
BeatmapSetID:635037

[Difficulty]
HPDrainRate:6
CircleSize:4
OverallDifficulty:8
ApproachRate:8.5
SliderMultiplier:1.9
SliderTickRate:1

[Events]
//Background and Video events
0,0,"678438.jpg",0,0
//Break Periods
//Storyboard Layer 0 (Background)
//Storyboard Layer 1 (Fail)
//Storyboard Layer 2 (Pass)
//Storyboard Layer 3 (Foreground)
//Storyboard Sound Samples

[TimingPoints]
1374,468.75,4,2,0,40,1,0
3249,-125,4,2,0,50,0,0
8874,-100,4,2,0,60,0,0
16139,-100,4,2,0,30,0,0
16374,-100,4,2,0,60,0,0
23874,-125,4,2,0,40,0,0
38874,-166.666666666667,4,2,0,40,0,0
46374,-125,4,2,0,50,0,0
48249,-117.647058823529,4,2,0,50,0,0
50124,-111.111111111111,4,2,0,60,0,0
52467,-83.3333333333333,4,2,0,65,0,0
53053,-90.9090909090909,4,2,0,65,0,0
53405,-76.9230769230769,4,2,0,65,0,0
53756,-76.9230769230769,4,2,0,35,0,0
53874,-83.3333333333333,4,2,0,70,0,1
83874,-100,4,2,0,60,0,0
91139,-100,4,2,0,30,0,0
91374,-100,4,2,0,60,0,0
102624,-100,4,2,0,5,0,0

[Colours]
Combo1 : 255,34,56
Combo2 : 221,145,30
Combo3 : 126,202,248
Combo4 : 167,63,167

[HitObjects]
256,192,124,12,0,2780,1:0:0:0:
266,172,3249,6,0,B|135:158,2,114,4|0|0,0:0|0:0|0:0,0:0:0:0:
435,282,4186,2,0,P|365:306|301:248,1,152,2|2,0:0|0:0,0:0:0:0:
370,145,4889,1,0,0:0:0:0:
370,145,5124,6,0,L|377:221,1,76,2|0,0:0|0:0,0:0:0:0:
279,127,5592,2,0,L|363:112,1,76,2|0,0:0|0:0,0:0:0:0:
240,264,6061,2,0,P|169:246|82:236,1,152,2|0,0:0|0:0,0:0:0:0:
25,131,6764,1,2,0:0:0:0:
39,47,6999,6,0,P|60:88|58:130,1,76,2|0,0:0|0:0,0:0:0:0:
182,213,7467,2,0,P|183:177|201:146,2,50.6666666666667,2|2|2,0:0|0:0|0:0,0:0:0:0:
221,128,7936,2,0,B|69:138,1,152,2|0,0:0|0:0,0:0:0:0:
308,80,8874,6,0,P|323:125|303:185,1,95,6|0,0:2|0:0,0:0:0:0:
204,215,9225,2,0,L|301:205,1,95,2|0,0:0|0:0,0:0:0:0:
346,272,9577,2,0,L|393:276,1,47.5,2|0,0:0|0:0,0:0:0:0:
512,162,9811,2,0,P|471:142|407:156,1,95,2|0,1:2|0:0,0:0:0:0:
408,266,10163,2,0,L|400:171,1,95,2|0,0:0|0:0,0:0:0:0:
457,65,10514,1,2,0:0:0:0:
287,48,10749,6,0,P|232:50|187:24,1,95,2|0,1:2|0:0,0:0:0:0:
68,15,11100,1,2,0:0:0:0:
76,39,11217,2,2,L|171:27,1,95,2|0,1:2|0:0,0:0:0:0:
359,239,11686,2,0,L|354:286,1,47.5,2|0,1:2|0:0,0:0:0:0:
302,135,11920,1,0,0:0:0:0:
302,135,12038,1,2,0:0:0:0:
302,135,12155,2,2,P|377:123|446:160,1,142.5,2|0,1:2|0:0,0:0:0:0:
475,251,12624,6,2,L|465:156,1,95,2|0,1:2|0:0,0:0:0:0:
407,38,12975,2,2,P|359:30|319:50,1,95,2|0,0:0|0:0,0:0:0:0:
371,111,13327,2,2,L|365:183,1,47.5,2|0,0:0|0:0,0:0:0:0:
417,247,13561,2,2,L|422:341,1,95,2|0,1:2|0:0,0:0:0:0:
311,369,13913,2,2,L|404:356,1,95,2|0,0:0|0:0,0:0:0:0:
501,378,14264,1,2,0:0:0:0:
511,185,14499,5,2,1:2:0:0:
417,247,14733,1,2,0:0:0:0:
417,247,14850,1,2,0:0:0:0:
417,247,14967,2,2,P|374:229|310:235,1,95,2|0,1:2|0:0,0:0:0:0:
174,109,15436,2,0,L|180:155,1,47.5,2|0,1:2|0:0,0:0:0:0:
337,143,15670,2,0,P|295:148|272:158,1,47.5,2|0,1:2|0:0,0:0:0:0:
108,216,15905,2,2,P|174:249|250:217,1,142.5,2|0,1:2|0:0,0:0:0:0:
322,120,16374,6,2,P|282:94|235:94,1,95,2|0,1:2|0:0,0:0:0:0:
200,0,16725,2,2,L|208:121,1,95,2|0,0:0|0:0,0:0:0:0:
251,191,17077,2,2,L|248:248,1,47.5,2|0,0:0|0:0,0:0:0:0:
117,317,17311,2,2,P|167:328|217:306,1,95,2|0,1:2|0:0,0:0:0:0:
326,271,17663,2,2,P|370:256|416:267,1,95,2|0,0:0|0:0,0:0:0:0:
477,360,18014,1,2,0:0:0:0:
512,175,18249,6,0,L|417:184,1,95,2|0,1:2|0:0,0:0:0:0:
305,208,18600,1,2,0:0:0:0:
293,185,18717,2,2,P|295:138|323:101,1,95,2|0,1:2|0:0,0:0:0:0:
186,203,19186,2,0,L|191:251,1,47.5,0|0,1:0|1:0,0:0:0:0:
141,112,19420,1,0,1:0:0:0:
141,112,19538,1,0,1:0:0:0:
141,112,19655,2,0,P|170:103|197:102,1,47.5,2|0,1:2|0:0,0:0:0:0:
44,239,19889,1,2,0:0:0:0:
44,239,20006,1,2,0:0:0:0:
44,239,20124,6,0,P|101:276|184:257,1,142.5,2|0,1:2|0:0,0:0:0:0:
205,292,20592,1,0,1:0:0:0:
175,161,20827,1,2,0:2:0:0:
119,372,21061,1,2,1:2:0:0:
394,285,21295,1,2,0:2:0:0:
176,202,21530,1,2,1:2:0:0:
293,380,21764,1,2,0:2:0:0:
255,50,21999,5,0,1:0:0:0:
170,364,22467,1,0,1:0:0:0:
512,210,22936,1,0,1:0:0:0:
326,228,23170,1,0,1:0:0:0:
479,61,23405,2,0,P|515:106|495:188,1,142.5,4|0,0:0|0:0,0:0:0:0:
441,130,23874,6,0,L|316:113,1,114,4|0,0:0|0:0,0:0:0:0:
242,151,24342,2,0,P|282:156|321:142,1,76,2|2,0:0|0:0,0:0:0:0:
119,55,24811,1,2,0:0:0:0:
119,55,25280,2,0,L|31:60,1,76,2|0,0:0|0:0,0:0:0:0:
222,0,25749,6,0,P|237:40|231:88,1,76,2|0,0:0|0:0,0:0:0:0:
175,124,26100,2,0,L|181:199,1,76,2|0,0:0|0:0,0:0:0:0:
244,258,26452,1,2,0:0:0:0:
407,219,26686,1,2,0:0:0:0:
407,219,27155,2,0,P|451:214|487:229,1,76,2|2,0:0|0:0,0:0:0:0:
355,85,27624,6,0,B|366:218,1,114,2|0,0:0|0:0,0:0:0:0:
302,253,28092,2,0,P|287:226|286:173,1,76,2|2,0:0|0:0,0:0:0:0:
349,351,28561,1,2,0:0:0:0:
476,266,28795,1,2,0:0:0:0:
476,266,28913,1,2,0:0:0:0:
476,266,29030,2,0,L|394:255,1,76,2|0,0:0|0:0,0:0:0:0:
204,176,29499,6,0,P|242:161|287:164,1,76,2|0,0:0|0:0,0:0:0:0:
344,111,29850,2,0,L|349:35,1,76,2|0,0:0|0:0,0:0:0:0:
423,0,30202,1,2,0:0:0:0:
453,162,30436,1,2,0:0:0:0:
453,162,30905,2,0,L|353:148,1,76,2|0,0:0|0:0,0:0:0:0:
189,251,31374,6,0,P|244:258|294:232,1,114,2|0,0:0|0:0,0:0:0:0:
360,287,31842,2,0,L|367:381,1,76,2|2,0:0|0:0,0:0:0:0:
483,216,32311,1,2,0:0:0:0:
404,118,32545,1,2,0:0:0:0:
404,118,32663,1,2,0:0:0:0:
404,118,32780,2,0,P|393:77|400:36,1,76,2|0,0:0|0:0,0:0:0:0:
317,171,33249,6,0,L|225:162,1,76,2|0,0:0|0:0,0:0:0:0:
167,212,33600,2,0,P|152:241|158:291,1,76,2|0,0:0|0:0,0:0:0:0:
208,358,33952,1,2,0:0:0:0:
29,366,34186,1,2,0:0:0:0:
232,259,34655,2,0,L|308:254,1,76,2|2,0:0|0:0,0:0:0:0:
467,114,35124,6,0,P|436:155|445:228,1,114,2|0,0:0|0:0,0:0:0:0:
469,251,35592,1,2,0:0:0:0:
419,337,35827,2,0,L|344:345,1,76,2|0,0:0|0:0,0:0:0:0:
185,273,36295,2,0,P|216:258|273:258,1,76,2|0,0:0|0:0,0:0:0:0:
369,107,36764,6,0,L|361:182,1,76,2|0,0:0|0:0,0:0:0:0:
470,316,37233,1,2,0:0:0:0:
470,316,37467,2,0,B|405:287|383:344|323:316,1,152,2|0,0:0|0:0,0:0:0:0:
218,181,38170,1,2,0:0:0:0:
218,181,38288,2,0,L|209:221,1,38,0|0,1:0|0:0,0:0:0:0:
147,334,38522,2,0,L|141:296,1,38,0|0,1:0|0:0,0:0:0:0:
104,126,38874,6,0,P|150:155|209:145,1,113.999996520996,4|0,0:0|1:0,0:0:0:0:
323,15,39577,2,0,L|296:147,1,113.999996520996,2|0,0:0|0:0,0:0:0:0:
363,225,40280,1,0,1:0:0:0:
379,199,40397,2,0,L|372:151,1,28.4999991302491,0|0,1:0|0:0,0:0:0:0:
392,337,40749,5,0,1:0:0:0:
470,239,40983,1,0,0:0:0:0:
277,259,41217,1,2,0:0:0:0:
364,148,41452,2,0,L|454:140,1,85.4999973907472,2|0,0:0|1:0,0:0:0:0:
481,165,41920,1,0,1:0:0:0:
409,19,42155,1,0,1:0:0:0:
428,20,42272,1,0,1:0:0:0:
447,22,42389,1,2,0:0:0:0:
271,102,42624,6,0,P|226:74|161:89,1,113.999996520996,2|0,0:0|1:0,0:0:0:0:
219,266,43327,2,0,L|209:153,1,113.999996520996,2|0,0:0|0:0,0:0:0:0:
83,95,44030,1,0,1:0:0:0:
102,113,44147,2,0,L|152:123,1,28.4999991302491,0|0,1:0|0:0,0:0:0:0:
256,63,44499,5,0,1:0:0:0:
181,202,44733,1,0,0:0:0:0:
145,27,44967,1,0,1:0:0:0:
280,144,45202,2,0,L|379:136,1,85.4999973907472,2|0,0:0|1:0,0:0:0:0:
397,146,45670,1,0,1:0:0:0:
500,36,45905,1,0,1:0:0:0:
499,58,46022,1,0,1:0:0:0:
498,80,46139,1,0,1:0:0:0:
377,27,46374,6,0,P|313:63|243:39,1,152,4|0,0:0|1:0,0:0:0:0:
77,22,47077,1,2,0:0:0:0:
77,22,47311,2,0,P|81:67|90:115,1,76,2|0,0:0|0:0,0:0:0:0:
1,163,47780,2,0,P|14:205|50:238,1,76,2|0,1:2|0:0,0:0:0:0:
272,232,48249,6,0,P|232:181|134:204,1,161.500003080368,2|0,0:0|1:0,0:0:0:0:
202,337,48952,1,2,0:0:0:0:
202,337,49186,2,0,L|196:257,1,80.750001540184,2|0,0:0|0:0,0:0:0:0:
67,165,49655,2,0,P|55:211|48:260,1,80.750001540184,2|0,1:2|0:0,0:0:0:0:
11,104,50124,6,0,P|93:87|140:131,1,128.249996086121,2|0,0:0|0:0,0:0:0:0:
144,129,50592,1,0,1:0:0:0:
266,87,50827,2,0,L|259:-10,1,85.4999973907472,2|0,0:0|0:0,0:0:0:0:
137,46,51295,1,2,0:0:0:0:
218,166,51530,1,0,1:0:0:0:
55,229,51764,1,0,1:0:0:0:
57,194,51881,1,0,1:0:0:0:
187,359,52233,5,0,1:0:0:0:
311,191,52467,2,0,B|392:161|388:233|482:194,1,170.999994781494,4|0,1:2|0:0,0:0:0:0:
507,220,52936,1,0,1:0:0:0:
507,220,53053,2,0,L|491:332,1,104.500003189087,0|0,1:0|0:0,0:0:0:0:
322,370,53405,2,0,P|283:305|340:207,1,185.249991519928,4|0,1:2|0:0,0:0:0:0:
390,115,53874,6,0,P|342:99|267:121,1,113.999996520996,4|0,1:2|0:0,0:0:0:0:
209,197,54225,1,2,0:0:0:0:
214,225,54342,2,0,L|327:213,1,113.999996520996,2|0,1:2|0:0,0:0:0:0:
493,302,54811,1,2,1:2:0:0:
488,327,54928,2,0,L|422:317,1,56.9999982604981,2|0,0:0|0:0,0:0:0:0:
337,182,55163,2,0,P|399:157|461:186,1,113.999996520996,2|0,0:0|0:0,0:0:0:0:
495,24,55514,2,0,L|499:101,1,56.9999982604981,2|0,0:0|0:0,0:0:0:0:
397,246,55749,5,0,1:0:0:0:
294,88,55983,1,0,0:0:0:0:
234,294,56217,1,0,1:0:0:0:
127,165,56452,1,0,0:0:0:0:
102,294,56686,2,0,L|44:298,1,56.9999982604981,0|0,1:0|0:0,0:0:0:0:
209,160,56920,1,2,0:0:0:0:
207,132,57038,2,0,L|28:115,1,170.999994781494,2|0,0:0|0:0,0:0:0:0:
275,214,57624,6,0,P|308:169|306:100,1,113.999996520996,2|0,1:2|0:0,0:0:0:0:
201,21,57975,1,2,0:0:0:0:
199,47,58092,2,0,P|249:71|322:63,1,113.999996520996,2|0,1:2|0:0,0:0:0:0:
384,286,58561,1,2,1:2:0:0:
400,268,58678,2,0,L|397:212,1,56.9999982604981,2|0,0:0|0:0,0:0:0:0:
500,113,58913,2,0,L|486:231,1,113.999996520996,2|0,0:0|0:0,0:0:0:0:
455,333,59264,2,0,P|486:337|514:331,1,56.9999982604981,2|0,0:0|0:0,0:0:0:0:
302,173,59499,5,0,1:0:0:0:
323,318,59733,1,0,0:0:0:0:
105,233,59967,1,0,1:0:0:0:
74,359,60202,1,0,0:0:0:0:
178,194,60436,2,0,L|118:204,1,56.9999982604981,0|0,1:0|0:0,0:0:0:0:
0,316,60670,2,0,L|59:326,1,56.9999982604981,8|0,1:2|0:0,0:0:0:0:
28,150,60905,2,0,P|116:122|185:172,1,170.999994781494,8|0,1:2|0:0,0:0:0:0:
291,204,61374,6,0,B|166:192,1,113.999996520996,2|0,1:2|0:0,0:0:0:0:
127,327,61725,1,2,0:0:0:0:
104,328,61842,2,0,P|83:276|97:221,1,113.999996520996,2|0,1:2|0:0,0:0:0:0:
271,85,62311,1,2,1:2:0:0:
269,104,62428,2,0,L|212:108,1,56.9999982604981,2|0,0:0|0:0,0:0:0:0:
63,21,62663,2,0,P|127:9|178:37,1,113.999996520996,2|0,0:0|0:0,0:0:0:0:
109,108,63014,2,0,L|103:164,1,56.9999982604981,2|0,0:0|0:0,0:0:0:0:
259,12,63249,5,0,1:0:0:0:
275,148,63483,1,0,0:0:0:0:
109,108,63717,1,0,1:0:0:0:
152,268,63952,1,0,0:0:0:0:
1,114,64186,2,0,P|54:94|109:108,1,113.999996520996,2|0,1:2|0:0,0:0:0:0:
118,287,64538,1,2,0:0:0:0:
118,287,64655,2,0,P|74:251|58:197,1,113.999996520996,2|0,1:2|0:0,0:0:0:0:
48,370,65006,1,2,0:0:0:0:
48,370,65124,6,0,P|124:301|240:342,1,227.999993041992,6|0,1:2|1:0,0:0:0:0:
247,176,65827,1,2,0:0:0:0:
354,305,66061,2,0,L|215:289,1,113.999996520996,2|0,1:2|0:0,0:0:0:0:
155,344,66413,2,2,P|143:315|141:271,2,56.9999982604981,2|0|0,0:0|1:0|0:0,0:0:0:0:
237,376,66764,1,2,0:0:0:0:
176,188,66999,6,0,P|115:183|64:213,1,113.999996520996,2|0,1:2|0:0,0:0:0:0:
12,340,67350,2,2,P|14:310|20:284,2,56.9999982604981,2|0|0,0:0|1:0|0:0,0:0:0:0:
110,303,67702,1,2,0:0:0:0:
38,101,67936,6,0,L|94:107,1,56.9999982604981,0|0,1:0|0:0,0:0:0:0:
301,20,68170,2,0,L|226:31,1,56.9999982604981,0|0,1:0|0:0,0:0:0:0:
0,26,68405,2,0,P|29:16|67:20,1,56.9999982604981,0|0,1:0|0:0,0:0:0:0:
194,166,68639,1,0,1:0:0:0:
194,166,68756,1,0,1:0:0:0:
194,166,68874,6,0,P|223:118|212:54,1,113.999996520996,4|0,1:2|0:0,0:0:0:0:
24,90,69225,1,2,0:0:0:0:
28,111,69342,2,2,L|142:100,1,113.999996520996,2|0,1:2|0:0,0:0:0:0:
342,102,69811,1,2,1:2:0:0:
361,121,69928,2,0,L|350:177,1,56.9999982604981,2|0,0:0|0:0,0:0:0:0:
207,156,70163,2,0,P|188:210|217:274,1,113.999996520996,2|0,0:0|0:0,0:0:0:0:
271,212,70514,2,0,L|328:206,1,56.9999982604981,2|0,0:0|0:0,0:0:0:0:
94,160,70749,5,0,1:0:0:0:
256,87,70983,1,0,0:0:0:0:
134,315,71217,1,0,1:0:0:0:
271,212,71451,1,0,0:0:0:0:
80,134,71686,2,0,L|23:136,1,56.9999982604981,0|0,1:0|0:0,0:0:0:0:
54,280,71920,1,2,0:0:0:0:
55,254,72038,2,0,P|128:214|215:257,1,170.999994781494,2|0,0:0|0:0,0:0:0:0:
377,64,72624,6,0,L|384:186,1,113.999996520996,2|0,1:2|0:0,0:0:0:0:
361,327,72975,1,2,0:0:0:0:
341,312,73092,2,2,P|330:259|357:198,1,113.999996520996,2|0,1:2|0:0,0:0:0:0:
458,85,73561,1,2,1:2:0:0:
453,57,73678,2,0,L|396:53,1,56.9999982604981,2|0,0:0|0:0,0:0:0:0:
256,97,73913,2,0,P|310:72|375:85,1,113.999996520996,2|0,0:0|0:0,0:0:0:0:
406,154,74264,2,0,L|410:212,1,56.9999982604981,2|0,0:0|0:0,0:0:0:0:
512,0,74499,5,0,1:0:0:0:
325,172,74733,1,0,0:0:0:0:
512,118,74967,1,0,1:0:0:0:
355,31,75201,1,0,0:0:0:0:
446,245,75436,2,0,L|428:316,1,56.9999982604981,0|0,1:0|0:0,0:0:0:0:
339,365,75670,2,0,P|331:340|330:302,1,56.9999982604981,8|0,1:2|0:0,0:0:0:0:
410,165,75905,2,0,P|418:190|419:228,1,56.9999982604981,8|0,1:2|0:0,0:0:0:0:
205,219,76139,1,0,1:0:0:0:
205,219,76256,1,0,1:0:0:0:
205,219,76374,6,0,L|343:207,1,113.999996520996,4|0,1:2|0:0,0:0:0:0:
342,111,76725,2,0,P|393:80|463:97,1,113.999996520996,2|0,0:0|0:0,0:0:0:0:
362,9,77077,2,0,L|228:-2,1,113.999996520996,2|0,0:0|1:0,0:0:0:0:
209,113,77428,1,2,0:0:0:0:
224,129,77545,2,0,L|231:199,1,56.9999982604981,2|0,0:0|0:0,0:0:0:0:
284,264,77780,2,0,L|279:321,1,56.9999982604981,2|0,1:2|0:0,0:0:0:0:
164,254,78014,2,0,P|134:253|103:263,1,56.9999982604981,2|0,0:0|0:0,0:0:0:0:
298,353,78249,6,0,B|412:338,1,113.999996520996,2|0,1:2|0:0,0:0:0:0:
474,208,78600,1,2,0:0:0:0:
475,229,78717,2,0,P|431:256|370:250,1,113.999996520996,2|0,1:2|0:0,0:0:0:0:
381,118,79069,1,2,0:0:0:0:
406,117,79186,2,0,L|411:174,1,56.9999982604981,2|0,1:2|0:0,0:0:0:0:
343,267,79420,2,0,L|338:324,1,56.9999982604981,2|0,0:2|0:0,0:0:0:0:
265,168,79655,1,0,1:0:0:0:
161,264,79889,2,0,L|105:271,1,56.9999982604981,2|0,0:0|0:0,0:0:0:0:
18,184,80124,6,0,P|78:195|124:161,1,113.999996520996,2|2,1:2|0:0,0:0:0:0:
136,84,80475,2,0,L|140:148,1,56.9999982604981,2|0,0:0|1:0,0:0:0:0:
263,198,80827,1,2,0:0:0:0:
263,198,80944,1,2,0:0:0:0:
263,198,81061,2,0,L|206:204,1,56.9999982604981,2|0,1:2|0:0,0:0:0:0:
131,320,81295,2,0,P|128:287|135:261,1,56.9999982604981,2|0,0:0|0:0,0:0:0:0:
66,195,81530,1,0,1:0:0:0:
228,301,81764,1,2,0:0:0:0:
48,351,81999,6,0,L|41:226,1,113.999996520996,2|0,1:2|0:0,0:0:0:0:
153,154,82350,1,2,0:0:0:0:
156,131,82467,2,0,P|97:114|41:142,1,113.999996520996,2|0,1:2|0:0,0:0:0:0:
270,222,82936,2,0,L|276:291,1,56.9999982604981,0|0,1:0|1:0,0:0:0:0:
288,372,83170,1,0,1:0:0:0:
351,50,83405,2,0,L|345:117,1,56.9999982604981,0|0,1:0|0:0,0:0:0:0:
253,214,83639,2,0,P|243:184|246:141,1,56.9999982604981,0|0,1:0|1:0,0:0:0:0:
136,23,83874,6,2,L|234:15,1,95,4|0,1:2|0:0,0:0:0:0:
351,50,84225,2,2,P|372:93|363:147,1,95,2|0,0:0|0:0,0:0:0:0:
372,234,84577,2,2,L|380:172,1,47.5,2|0,0:0|0:0,0:0:0:0:
229,157,84811,2,2,L|240:275,1,95,2|0,1:2|0:0,0:0:0:0:
351,350,85163,2,2,P|405:350|452:318,1,95,2|0,0:0|0:0,0:0:0:0:
413,221,85514,1,2,0:0:0:0:
220,273,85749,6,0,L|97:259,1,95,2|0,1:2|0:0,0:0:0:0:
35,206,86100,1,2,0:0:0:0:
31,177,86217,2,2,P|74:160|133:169,1,95,2|0,1:2|0:0,0:0:0:0:
221,357,86686,2,0,L|280:348,1,47.5,2|0,1:2|0:0,0:0:0:0:
92,381,86920,1,2,0:0:0:0:
92,381,87038,1,2,0:0:0:0:
91,380,87155,2,0,P|67:321|91:246,1,142.5,2|0,1:2|0:0,0:0:0:0:
191,199,87624,6,2,B|94:208,1,95,2|0,1:2|0:0,0:0:0:0:
16,268,87975,2,2,P|-1:228|8:164,1,95,2|0,0:0|0:0,0:0:0:0:
13,91,88327,2,2,L|57:107,1,47.5,2|0,0:0|0:0,0:0:0:0:
162,0,88561,2,2,L|143:109,1,95,2|0,1:2|0:0,0:0:0:0:
271,160,88913,2,2,P|215:167|177:174,1,95,2|0,0:0|0:0,0:0:0:0:
96,206,89264,1,2,0:0:0:0:
336,104,89499,6,0,P|356:144|346:206,1,95,2|0,1:2|0:0,0:0:0:0:
294,286,89850,1,2,0:0:0:0:
299,308,89967,2,2,L|415:293,1,95,2|0,1:2|0:0,0:0:0:0:
504,44,90436,2,0,L|491:114,1,47.5,2|0,1:2|0:0,0:0:0:0:
387,148,90670,2,0,L|433:155,1,47.5,2|0,1:2|0:0,0:0:0:0:
511,338,90905,2,2,P|534:272|505:209,1,142.5,2|0,1:2|0:0,0:0:0:0:
433,278,91374,6,2,L|329:292,1,95,2|0,1:2|0:0,0:0:0:0:
317,183,91725,2,2,P|299:220|314:293,1,95,2|0,0:0|0:0,0:0:0:0:
259,350,92077,2,2,L|200:335,1,47.5,2|0,0:0|0:0,0:0:0:0:
105,236,92311,2,2,P|154:247|207:218,1,95,2|0,1:2|0:0,0:0:0:0:
146,163,92663,2,2,L|139:66,1,95,2|0,0:0|0:0,0:0:0:0:
59,21,93014,1,2,0:2:0:0:
301,42,93249,6,0,P|345:23|407:40,1,95,2|0,1:2|0:0,0:0:0:0:
463,111,93600,1,2,0:0:0:0:
453,130,93717,2,2,L|359:122,1,95,2|0,1:2|0:0,0:0:0:0:
146,182,94186,2,0,L|150:231,1,47.5,0|0,1:0|1:0,0:0:0:0:
217,304,94420,1,0,1:0:0:0:
217,304,94538,1,0,1:0:0:0:
217,304,94655,2,0,L|265:311,1,47.5,2|0,1:2|0:0,0:0:0:0:
45,373,94889,1,2,0:0:0:0:
45,373,95006,1,2,0:0:0:0:
45,373,95124,6,0,P|18:313|55:238,1,142.5,2|0,1:2|0:0,0:0:0:0:
65,211,95592,1,0,1:0:0:0:
117,313,95827,1,2,0:0:0:0:
297,202,96061,1,2,1:2:0:0:
169,130,96295,1,2,0:0:0:0:
232,371,96530,1,2,1:2:0:0:
356,298,96764,1,2,0:0:0:0:
0,355,96999,5,0,1:0:0:0:
484,328,97467,1,0,1:0:0:0:
230,66,97936,1,0,1:0:0:0:
241,210,98170,1,0,1:0:0:0:
375,20,98405,2,0,P|307:1|237:56,1,142.5,6|0,1:2|0:0,0:0:0:0:
319,85,98874,5,4,0:0:0:0:
256,192,98991,12,0,102624,0:0:0:0:
