osu file format v14

[General]
AudioFilename: audio.mp3
AudioLeadIn: 0
PreviewTime: 53773
Countdown: 0
SampleSet: Soft
StackLeniency: 0.7
Mode: 0
LetterboxInBreaks: 0
WidescreenStoryboard: 1

[Editor]
Bookmarks: 3261,8886,23886,38886,46386,53886,68886,83886
DistanceSpacing: 0.4
BeatDivisor: 4
GridSize: 32
TimelineZoom: 2

[Metadata]
Title:100Nyan Power de Yumegokoti
TitleUnicode:100にゃんパワーで夢心地
Artist:Yui Sakakibara
ArtistUnicode:榊原ゆい
Creator:Kisses
Version:Hard
Source:ネコぱら vol.2 姉妹ネコのシュクレ
Tags:NEKO WORKs Nekopara eroge VN galgame visual novel sun ending Sinitiro Yamashita Team-OZ
BeatmapID:1347555
BeatmapSetID:635037

[Difficulty]
HPDrainRate:4.5
CircleSize:3.8
OverallDifficulty:5.5
ApproachRate:6.5
SliderMultiplier:1.7
SliderTickRate:1

[Events]
//Background and Video events
0,0,"678438.jpg",0,0
//Break Periods
//Storyboard Layer 0 (Background)
//Storyboard Layer 1 (Fail)
//Storyboard Layer 2 (Pass)
//Storyboard Layer 3 (Foreground)
//Storyboard Sound Samples

[TimingPoints]
1374,468.75,4,2,0,40,1,0
3249,-125,4,2,0,50,0,0
8405,-100,4,2,0,5,0,0
8874,-100,4,2,0,60,0,0
23874,-125,4,2,0,40,0,0
46374,-100,4,2,0,50,0,0
50124,-100,4,2,0,60,0,0
52467,-100,4,2,0,65,0,0
53874,-100,4,2,0,70,0,1
83874,-100,4,2,0,60,0,0
102624,-100,4,2,0,5,0,0

[Colours]
Combo1 : 255,34,56
Combo2 : 221,145,30
Combo3 : 126,202,248
Combo4 : 167,63,167

[HitObjects]
231,183,2780,5,0,1:0:0:0:
273,326,3249,6,0,L|425:312,1,136,4|0,0:0|0:0,0:0:0:0:
493,190,4186,2,0,P|430:165|363:176,1,136,2|0,0:0|0:0,0:0:0:0:
238,95,5124,2,0,P|221:130|219:178,1,68,2|0,0:0|0:0,0:0:0:0:
157,228,5592,2,0,P|162:261|177:291,1,68,2|0,0:0|0:0,0:0:0:0:
238,361,6061,2,0,P|190:330|101:351,1,136,2|0,0:0|0:0,0:0:0:0:
33,214,6999,6,0,L|189:200,1,136,2|0,0:0|0:0,0:0:0:0:
241,71,7936,2,0,P|278:125|264:189,1,136,2|0,0:0|0:0,0:0:0:0:
374,330,8874,5,4,0:0:0:0:
374,330,9225,2,0,L|363:192,1,127.5,2|0,0:0|0:0,0:0:0:0:
426,144,9811,1,2,0:0:0:0:
426,144,10163,2,0,P|369:115|310:136,1,127.5,2|0,0:0|0:0,0:0:0:0:
241,86,10749,5,2,0:0:0:0:
267,253,11217,1,0,1:0:0:0:
98,228,11686,1,2,0:0:0:0:
65,310,11920,1,2,0:0:0:0:
71,329,12038,2,0,P|124:360|185:347,1,127.5,2|0,0:0|0:0,0:0:0:0:
246,288,12624,5,2,0:0:0:0:
246,288,12975,2,0,L|237:148,1,127.5,2|0,0:0|0:0,0:0:0:0:
299,101,13561,1,2,0:0:0:0:
299,101,13913,2,0,P|352:130|417:117,1,127.5,2|0,0:0|0:0,0:0:0:0:
444,198,14499,5,2,0:0:0:0:
368,41,14967,1,0,1:0:0:0:
250,163,15436,1,2,0:0:0:0:
165,152,15670,1,2,0:0:0:0:
80,141,15905,1,2,1:2:0:0:
111,308,16374,5,2,0:0:0:0:
111,308,16725,2,0,P|169:278|240:296,1,127.5,2|0,0:0|0:0,0:0:0:0:
272,215,17311,1,2,0:0:0:0:
272,215,17663,2,0,L|261:358,1,127.5,2|0,0:0|0:0,0:0:0:0:
343,368,18249,5,2,0:0:0:0:
182,301,18717,1,0,1:0:0:0:
301,195,19186,2,0,P|343:180|392:182,1,85,2|0,0:0|0:0,0:0:0:0:
399,263,19655,2,0,P|359:277|317:277,1,85,2|0,1:2|0:0,0:0:0:0:
278,296,20006,1,2,0:0:0:0:
278,296,20124,6,0,P|216:256|128:287,1,170,2|0,0:0|1:0,0:0:0:0:
68,343,20827,1,2,0:0:0:0:
15,276,21061,2,0,L|21:189,1,85,2|0,0:0|0:0,0:0:0:0:
101,163,21530,2,0,L|95:76,1,85,2|0,1:2|0:0,0:0:0:0:
20,36,21999,5,0,1:0:0:0:
187,11,22467,1,0,1:0:0:0:
0,67,22936,5,0,1:0:0:0:
108,50,23170,1,0,1:0:0:0:
216,33,23404,1,4,1:2:0:0:
306,156,23874,6,0,L|301:52,2,102,4|2|2,0:0|0:0|0:0,0:0:0:0:
257,229,24811,1,2,0:0:0:0:
432,207,25280,1,2,0:0:0:0:
291,314,25749,6,0,P|239:320|192:295,2,102,2|2|2,0:0|0:0|0:0,0:0:0:0:
313,228,26686,1,2,0:0:0:0:
436,354,27155,1,2,0:0:0:0:
497,188,27624,6,0,L|390:175,2,102,2|2|0,0:0|0:0|0:0,0:0:0:0:
474,273,28561,1,2,0:0:0:0:
448,98,29030,1,2,0:0:0:0:
321,222,29499,6,0,P|308:169|324:124,2,102,2|2|2,0:0|0:0|0:0,0:0:0:0:
395,175,30436,1,2,0:0:0:0:
223,132,30905,1,2,0:0:0:0:
260,304,31374,6,0,L|380:291,2,102,2|2|2,0:0|0:0|0:0,0:0:0:0:
202,371,32311,1,2,0:0:0:0:
47,281,32780,1,2,0:0:0:0:
47,281,33014,6,0,L|43:196,1,68,2|0,0:0|0:0,0:0:0:0:
96,141,33483,2,0,P|121:169|129:200,1,68,2|0,0:0|0:0,0:0:0:0:
183,267,33952,2,0,P|169:208|221:153,1,136,2|0,0:0|0:0,0:0:0:0:
168,79,34655,1,2,0:0:0:0:
168,79,35124,6,0,L|330:69,1,136,2|0,0:0|0:0,0:0:0:0:
338,152,35827,2,0,P|376:163|413:162,1,68,2|0,0:0|0:0,0:0:0:0:
418,250,36295,2,0,L|499:237,1,68,2|0,0:0|0:0,0:0:0:0:
472,326,36764,2,0,P|422:292|336:312,1,136,2|2,0:0|0:0,0:0:0:0:
306,378,37467,2,0,L|297:233,1,136,2|0,0:0|0:0,0:0:0:0:
66,58,38874,6,0,P|119:94|204:75,1,136,4|0,0:0|1:0,0:0:0:0:
233,10,39577,2,0,L|238:160,1,136,2|0,0:0|0:0,0:0:0:0:
322,171,40280,2,0,L|318:234,1,34,0|0,1:0|1:0,0:0:0:0:
198,276,40749,6,0,P|189:258|185:206,2,68,2|0|0,0:0|0:0|1:0,0:0:0:0:
162,357,41452,2,0,L|59:346,1,102,2|0,0:0|1:0,0:0:0:0:
20,341,41920,1,2,0:0:0:0:
36,253,42155,2,0,L|32:218,1,34,0|0,1:0|1:0,0:0:0:0:
78,94,42624,6,0,P|156:94|193:146,1,136,2|0,0:0|1:0,0:0:0:0:
130,188,43327,2,0,L|278:176,1,136,2|0,0:0|0:0,0:0:0:0:
297,259,44030,2,0,L|330:261,1,34,0|0,1:0|1:0,0:0:0:0:
410,154,44499,6,0,P|418:195|406:229,2,68,2|2|0,0:0|0:0|1:0,0:0:0:0:
331,112,45202,2,0,L|454:100,1,102,2|0,0:0|1:0,0:0:0:0:
471,97,45670,1,2,0:0:0:0:
505,178,45905,2,0,L|511:223,1,34,0|0,1:0|0:0,0:0:0:0:
485,248,46139,2,0,L|479:293,1,34,0|0,1:0|0:0,0:0:0:0:
500,333,46374,6,0,P|418:322|314:320,1,170,4|0,0:0|1:0,0:0:0:0:
236,370,47077,1,2,0:0:0:0:
133,282,47311,2,0,P|172:268|217:267,1,85,2|0,0:0|0:0,0:0:0:0:
292,187,47780,2,0,L|196:176,1,85,2|0,1:2|0:0,0:0:0:0:
123,112,48249,6,0,P|129:197|133:299,1,170,2|0,0:0|1:0,0:0:0:0:
330,269,49186,2,0,L|318:357,1,85,2|0,0:0|0:0,0:0:0:0:
415,384,49655,2,0,P|429:346|421:299,1,85,2|0,1:2|0:0,0:0:0:0:
330,269,50124,6,0,L|510:252,1,170,2|0,0:0|1:0,0:0:0:0:
497,150,50827,2,0,P|432:115|337:140,1,170,2|0,0:0|0:0,0:0:0:0:
257,79,51530,1,0,1:0:0:0:
182,148,51764,2,0,L|186:223,1,42.5,0|0,1:0|1:0,0:0:0:0:
140,337,52233,1,0,1:0:0:0:
140,337,52467,6,0,P|225:360|285:313,1,170,4|0,1:2|1:0,1:0:0:0:
299,279,53053,1,0,1:0:0:0:
446,319,53405,1,4,1:2:0:0:
496,144,53874,6,0,L|323:159,1,170,4|0,0:0|1:0,0:0:0:0:
165,64,54811,1,2,0:0:0:0:
138,78,54928,2,0,P|106:127|126:204,1,127.5,2|0,0:0|1:0,0:0:0:0:
194,246,55514,1,2,0:0:0:0:
139,323,55749,6,0,L|28:335,1,85,2|0,0:0|0:0,0:0:0:0:
23,238,56217,2,0,P|64:245|105:232,1,85,2|0,1:2|0:0,0:0:0:0:
122,140,56686,1,2,0:0:0:0:
212,162,56920,1,2,0:0:0:0:
241,161,57038,2,0,L|310:157,1,42.5,2|0,0:0|1:0,0:0:0:0:
402,302,57624,6,0,P|325:271|255:313,1,170,2|0,0:0|1:0,0:0:0:0:
77,353,58561,1,2,0:0:0:0:
74,323,58678,2,0,L|64:169,1,127.5,2|0,0:0|1:0,0:0:0:0:
113,115,59264,1,2,0:0:0:0:
191,165,59499,6,0,P|205:125|200:82,2,85,0|0|0,0:0|0:0|1:0,0:0:0:0:
255,233,60202,1,2,0:0:0:0:
272,217,60319,2,0,P|331:191|401:215,1,127.5,2|8,0:0|0:0,0:0:0:0:
430,121,60905,1,8,1:2:0:0:
263,47,61374,6,0,L|271:225,1,170,0|0,0:0|1:0,0:0:0:0:
420,344,62311,1,2,0:0:0:0:
406,323,62428,2,0,P|353:299|274:319,1,127.5,2|0,0:0|1:0,0:0:0:0:
222,379,63014,1,2,0:0:0:0:
155,315,63249,6,0,L|67:302,1,85,2|0,0:0|0:0,0:0:0:0:
14,227,63717,2,0,P|54:211|105:215,1,85,2|0,1:2|0:0,0:0:0:0:
186,235,64186,1,2,0:0:0:0:
221,148,64420,1,2,0:0:0:0:
217,121,64538,2,0,L|212:78,1,42.5,2|0,0:0|1:0,0:0:0:0:
263,0,64889,1,2,0:0:0:0:
335,61,65124,6,0,B|403:19|436:93|505:59,1,170,2|0,0:0|1:0,0:0:0:0:
511,154,65827,1,2,0:0:0:0:
435,208,66061,2,0,L|444:360,2,127.5,2|2|2,0:0|0:0|0:0,0:0:0:0:
345,237,66999,2,0,L|354:389,2,127.5,2|2|2,0:0|0:0|0:0,0:0:0:0:
262,192,67936,2,0,L|177:185,1,85,0|0,1:0|1:0,0:0:0:0:
99,132,68405,1,0,1:0:0:0:
32,197,68639,2,0,L|34:245,1,42.5,0|0,1:0|1:0,0:0:0:0:
24,282,68874,6,0,P|111:257|172:318,1,170,4|0,0:0|1:0,0:0:0:0:
324,380,69811,1,2,0:0:0:0:
353,375,69928,2,0,L|510:356,1,127.5,2|0,0:0|1:0,0:0:0:0:
511,273,70514,1,2,0:0:0:0:
450,201,70749,6,0,P|410:186|351:194,1,85,2|0,0:0|0:0,0:0:0:0:
294,124,71217,2,2,L|300:28,1,85,2|2,1:2|0:2,1:2:0:0:
208,0,71686,1,2,0:0:0:0:
131,54,71920,1,2,0:0:0:0:
134,83,72038,2,0,L|137:143,1,42.5,2|0,0:0|1:0,0:0:0:0:
209,297,72624,6,0,P|148:342|49:325,1,170,2|0,0:0|1:0,0:0:0:0:
15,148,73561,1,2,0:0:0:0:
46,143,73678,2,0,P|108:137|183:130,1,127.5,2|0,0:0|1:0,0:0:0:0:
253,179,74264,1,2,0:0:0:0:
322,116,74499,6,0,P|343:156|343:203,2,85,2|0|0,0:0|0:0|1:0,0:0:0:0:
371,36,75202,1,2,0:0:0:0:
390,58,75319,2,0,P|444:84|522:64,1,127.5,2|8,0:0|0:0,0:0:0:0:
495,165,75905,1,8,1:2:0:0:
419,219,76139,2,0,L|412:280,1,42.5,0|0,1:0|1:0,0:0:0:0:
418,308,76374,6,0,P|350:268|266:289,1,170,4|0,0:0|1:0,0:0:0:0:
203,217,77077,2,0,P|232:299|176:373,1,170,2|0,0:0|0:0,0:0:0:0:
143,286,77780,2,0,L|56:280,1,85,0|0,1:0|0:0,0:0:0:0:
33,189,78249,6,0,P|73:172|119:178,1,85,2|0,0:0|0:0,0:0:0:0:
203,217,78717,2,0,P|244:221|283:206,1,85,2|0,1:2|0:0,0:0:0:0:
268,114,79186,2,0,B|200:72|167:146|98:112,1,170,2|0,0:0|1:0,0:0:0:0:
23,163,79889,1,2,0:0:0:0:
24,256,80124,6,0,L|31:357,2,85,2|0|0,0:0|0:0|1:0,0:0:0:0:
99,201,80827,1,2,0:0:0:0:
112,220,80944,2,0,P|165:249|239:234,1,127.5,2|0,0:0|0:0,0:0:0:0:
312,282,81530,2,0,L|319:373,1,85,2|0,1:2|0:0,0:0:0:0:
401,250,81999,6,0,L|414:80,1,170,2|0,0:0|1:0,0:0:0:0:
240,168,82936,2,0,L|244:214,2,42.5,0|0|0,1:0|1:0|1:0,0:0:0:0:
266,78,83405,2,0,L|308:83,1,42.5,0|0,1:0|1:0,0:0:0:0:
338,118,83639,2,0,L|380:113,1,42.5,0|0,1:0|1:0,0:0:0:0:
418,84,83874,5,4,0:0:0:0:
418,84,84225,2,0,L|403:233,1,127.5,2|0,0:0|0:0,0:0:0:0:
314,236,84811,1,2,0:0:0:0:
314,236,85163,2,0,P|265:209|186:226,1,127.5,2|0,0:0|0:0,0:0:0:0:
182,129,85749,5,2,0:0:0:0:
244,311,86217,1,2,1:2:0:0:
67,247,86686,1,2,0:0:0:0:
56,339,86920,1,2,0:0:0:0:
64,359,87038,2,0,P|124:384|194:360,1,127.5,2|0,0:0|0:0,0:0:0:0:
170,284,87624,5,2,0:0:0:0:
170,284,87975,2,0,L|157:132,1,127.5,2|0,0:0|0:0,0:0:0:0:
231,97,88561,1,2,0:0:0:0:
231,97,88913,2,0,P|290:130|356:108,1,127.5,2|0,0:0|0:0,0:0:0:0:
388,32,89499,5,2,0:0:0:0:
202,13,89967,1,2,1:2:0:0:
248,174,90436,1,2,0:0:0:0:
245,267,90670,1,2,0:0:0:0:
242,360,90904,1,2,1:2:0:0:
418,297,91374,5,2,0:0:0:0:
418,297,91725,2,0,P|368:262|295:289,1,127.5,2|0,0:0|0:0,0:0:0:0:
263,346,92311,1,2,0:0:0:0:
263,346,92663,2,0,L|256:207,1,127.5,2|0,0:0|0:0,0:0:0:0:
173,175,93249,5,2,0:0:0:0:
354,220,93717,1,2,1:2:0:0:
211,340,94186,2,0,P|170:345|126:331,1,85,2|0,0:0|0:0,0:0:0:0:
81,251,94655,2,0,P|121:238|163:243,1,85,2|0,1:2|0:0,0:0:0:0:
194,208,95006,1,2,0:0:0:0:
194,208,95124,6,0,P|257:252|344:225,1,170,2|0,0:0|1:0,0:0:0:0:
392,315,95827,1,2,0:0:0:0:
482,279,96061,2,0,L|486:195,1,85,2|0,0:0|0:0,0:0:0:0:
404,147,96530,2,0,L|400:63,1,85,2|0,1:2|0:0,0:0:0:0:
485,24,96999,5,0,1:0:0:0:
299,48,97467,1,0,1:0:0:0:
512,52,97936,5,0,1:0:0:0:
394,66,98170,1,0,1:0:0:0:
276,81,98404,1,4,1:2:0:0:
419,247,98874,5,4,0:0:0:0:
256,192,98991,12,0,102624,0:0:0:0:
